osu file format v14

[General]
AudioFilename: audio.mp3
AudioLeadIn: 0
PreviewTime: 58
Countdown: 0
SampleSet: Soft
StackLeniency: 0.7
Mode: 1
LetterboxInBreaks: 0
WidescreenStoryboard: 1

[Editor]
DistanceSpacing: 1
BeatDivisor: 3
GridSize: 32
TimelineZoom: 1

[Metadata]
Title:Okay, Everyone!
TitleUnicode:Okay, Everyone!
Artist:Dan Salvato
ArtistUnicode:Dan Salvato
Creator:tatatat
Version:Insane
Source:Doki Doki Literature Club!
Tags:indie Team Salvato 20XX cute calm spooky natsuki visual novel vn
BeatmapID:1435991
BeatmapSetID:678951

[Difficulty]
HPDrainRate:6
CircleSize:2
OverallDifficulty:5
ApproachRate:10
SliderMultiplier:1.6
SliderTickRate:1

[Events]
//Background and Video events
0,0,"20171007154949_1.jpg",0,50
//Break Periods
//Storyboard Layer 0 (Background)
//Storyboard Layer 1 (Fail)
//Storyboard Layer 2 (Pass)
//Storyboard Layer 3 (Foreground)
//Storyboard Sound Samples

[TimingPoints]
222,545.454545454546,4,2,0,50,1,0

[HitObjects]
256,192,222,5,0,0:0:0:0:
256,192,585,1,8,0:0:0:0:
256,192,767,1,8,0:0:0:0:
256,192,1131,1,0,0:0:0:0:
256,192,1676,1,8,0:0:0:0:
256,192,1858,1,8,0:0:0:0:
256,192,2403,1,0,0:0:0:0:
256,192,2767,1,0,0:0:0:0:
256,192,2949,1,8,0:0:0:0:
256,192,3312,1,0,0:0:0:0:
256,192,3858,1,0,0:0:0:0:
256,192,4040,1,8,0:0:0:0:
256,192,4585,1,0,0:0:0:0:
256,192,4949,1,0,0:0:0:0:
256,192,5131,1,0,0:0:0:0:
256,192,5494,1,0,0:0:0:0:
256,192,6040,1,0,0:0:0:0:
256,192,6221,1,0,0:0:0:0:
256,192,6767,1,0,0:0:0:0:
256,192,7131,1,0,0:0:0:0:
256,192,7312,1,8,0:0:0:0:
256,192,7676,1,0,0:0:0:0:
256,192,8222,5,0,0:0:0:0:
256,192,8403,1,8,0:0:0:0:
256,192,8585,1,8,0:0:0:0:
256,192,8767,1,8,0:0:0:0:
256,192,8949,1,0,0:0:0:0:
256,192,9312,1,8,0:0:0:0:
256,192,9494,1,8,0:0:0:0:
256,192,9858,1,0,0:0:0:0:
256,192,10403,1,8,0:0:0:0:
256,192,10585,1,8,0:0:0:0:
256,192,11131,1,0,0:0:0:0:
256,192,11494,1,8,0:0:0:0:
256,192,11676,1,8,0:0:0:0:
256,192,12040,1,0,0:0:0:0:
256,192,12221,1,8,0:0:0:0:
256,192,12585,1,0,0:0:0:0:
256,192,12767,1,8,0:0:0:0:
256,192,13312,1,4,0:0:0:0:
256,192,13676,1,0,0:0:0:0:
256,192,13858,1,0,0:0:0:0:
256,192,14221,1,0,0:0:0:0:
256,192,14767,1,0,0:0:0:0:
256,192,14949,1,0,0:0:0:0:
256,192,15494,1,0,0:0:0:0:
256,192,15858,1,0,0:0:0:0:
256,192,16040,1,8,0:0:0:0:
256,192,16403,1,0,0:0:0:0:
256,192,16949,1,0,0:0:0:0:
256,192,17131,1,8,0:0:0:0:
256,192,17312,1,8,0:0:0:0:
256,192,17494,1,8,0:0:0:0:
256,192,17676,5,0,0:0:0:0:
256,192,18040,1,8,0:0:0:0:
256,192,18221,1,8,0:0:0:0:
256,192,18585,1,8,0:0:0:0:
256,192,19131,1,0,0:0:0:0:
256,192,19312,1,8,0:0:0:0:
256,192,19676,1,8,0:0:0:0:
256,192,19858,1,0,0:0:0:0:
256,192,20221,1,0,0:0:0:0:
256,192,20403,1,8,0:0:0:0:
256,192,20767,1,0,0:0:0:0:
256,192,21312,1,0,0:0:0:0:
256,192,21494,1,8,0:0:0:0:
256,192,21858,1,8,0:0:0:0:
256,192,22040,1,0,0:0:0:0:
256,192,22403,1,0,0:0:0:0:
256,192,22585,1,0,0:0:0:0:
256,192,22949,1,0,0:0:0:0:
256,192,23131,1,8,0:0:0:0:
256,192,23494,1,0,0:0:0:0:
256,192,23676,1,0,0:0:0:0:
256,192,24040,1,8,0:0:0:0:
256,192,24221,1,0,0:0:0:0:
256,192,24585,1,0,0:0:0:0:
256,192,24767,1,8,0:0:0:0:
256,192,25131,1,0,0:0:0:0:
256,192,25312,1,8,0:0:0:0:
256,192,25676,1,8,0:0:0:0:
256,192,25858,1,0,0:0:0:0:
256,192,26403,1,0,0:0:0:0:
256,192,26767,1,8,0:0:0:0:
256,192,26949,1,8,0:0:0:0:
256,192,27312,1,8,0:0:0:0:
256,192,27858,1,8,0:0:0:0:
256,192,28040,1,8,0:0:0:0:
256,192,28403,1,0,0:0:0:0:
256,192,28585,1,0,0:0:0:0:
256,192,28949,1,0,0:0:0:0:
256,192,29131,1,8,0:0:0:0:
256,192,29494,1,8,0:0:0:0:
256,192,30040,1,0,0:0:0:0:
256,192,30221,1,8,0:0:0:0:
256,192,30585,1,0,0:0:0:0:
256,192,30767,1,0,0:0:0:0:
256,192,31131,1,0,0:0:0:0:
256,192,31312,1,0,0:0:0:0:
256,192,31676,1,0,0:0:0:0:
256,192,31858,1,8,0:0:0:0:
256,192,32221,1,0,0:0:0:0:
256,192,32403,1,8,0:0:0:0:
256,192,32767,1,0,0:0:0:0:
256,192,32949,1,8,0:0:0:0:
256,192,33312,1,0,0:0:0:0:
256,192,33494,1,8,0:0:0:0:
256,192,33858,1,0,0:0:0:0:
256,192,34403,1,0,0:0:0:0:
256,192,34585,1,8,0:0:0:0:
256,192,34767,1,8,0:0:0:0:
256,192,34949,1,8,0:0:0:0:
256,192,35131,5,0,0:0:0:0:
256,192,35494,1,8,0:0:0:0:
256,192,35676,1,8,0:0:0:0:
256,192,36040,1,0,0:0:0:0:
256,192,36585,1,8,0:0:0:0:
256,192,36767,1,8,0:0:0:0:
256,192,37312,1,0,0:0:0:0:
256,192,37676,1,8,0:0:0:0:
256,192,37858,1,8,0:0:0:0:
256,192,38221,1,0,0:0:0:0:
256,192,38403,1,8,0:0:0:0:
256,192,38767,1,0,0:0:0:0:
256,192,38949,1,8,0:0:0:0:
256,192,39494,1,4,0:0:0:0:
256,192,39858,1,0,0:0:0:0:
256,192,40040,1,8,0:0:0:0:
256,192,40403,1,0,0:0:0:0:
256,192,40949,1,0,0:0:0:0:
256,192,41131,1,0,0:0:0:0:
256,192,41676,1,0,0:0:0:0:
256,192,42040,1,0,0:0:0:0:
256,192,42221,1,8,0:0:0:0:
256,192,42585,1,0,0:0:0:0:
256,192,43131,1,0,0:0:0:0:
256,192,43312,1,8,0:0:0:0:
256,192,43494,1,8,0:0:0:0:
256,192,43676,1,8,0:0:0:0:
256,192,43858,5,0,0:0:0:0:
256,192,44221,1,8,0:0:0:0:
256,192,44403,1,8,0:0:0:0:
256,192,44767,1,0,0:0:0:0:
256,192,45312,1,8,0:0:0:0:
256,192,45494,1,8,0:0:0:0:
256,192,46040,1,0,0:0:0:0:
256,192,46403,1,8,0:0:0:0:
256,192,46585,1,8,0:0:0:0:
256,192,46949,1,0,0:0:0:0:
256,192,47131,1,8,0:0:0:0:
256,192,47494,1,8,0:0:0:0:
256,192,47676,1,8,0:0:0:0:
256,192,48221,1,4,0:0:0:0:
256,192,48585,1,0,0:0:0:0:
256,192,48767,1,0,0:0:0:0:
256,192,49131,1,0,0:0:0:0:
256,192,49676,1,0,0:0:0:0:
256,192,49858,1,0,0:0:0:0:
256,192,50403,1,0,0:0:0:0:
256,192,50767,1,0,0:0:0:0:
256,192,50949,1,8,0:0:0:0:
256,192,51312,1,0,0:0:0:0:
256,192,51858,1,0,0:0:0:0:
256,192,52040,1,8,0:0:0:0:
256,192,52221,1,8,0:0:0:0:
256,192,52403,1,8,0:0:0:0:
256,192,52585,5,0,0:0:0:0:
256,192,52949,1,8,0:0:0:0:
256,192,53131,1,8,0:0:0:0:
256,192,53494,1,8,0:0:0:0:
256,192,54040,1,8,0:0:0:0:
256,192,54221,1,8,0:0:0:0:
256,192,54585,1,0,0:0:0:0:
256,192,54767,1,0,0:0:0:0:
256,192,55131,1,0,0:0:0:0:
256,192,55312,1,0,0:0:0:0:
256,192,55676,1,0,0:0:0:0:
256,192,56221,1,8,0:0:0:0:
256,192,56403,1,8,0:0:0:0:
256,192,56949,1,0,0:0:0:0:
256,192,57312,1,8,0:0:0:0:
256,192,57494,1,0,0:0:0:0:
256,192,57858,1,0,0:0:0:0:
256,192,58403,1,0,0:0:0:0:
256,192,58585,1,0,0:0:0:0:
256,192,58949,1,0,0:0:0:0:
256,192,59131,1,0,0:0:0:0:
256,192,59494,1,0,0:0:0:0:
256,192,59676,1,0,0:0:0:0:
256,192,60040,1,0,0:0:0:0:
256,192,60585,1,0,0:0:0:0:
256,192,60767,1,8,0:0:0:0:
256,192,60949,1,8,0:0:0:0:
256,192,61131,1,8,0:0:0:0:
256,192,61312,5,0,0:0:0:0:
256,192,61676,1,8,0:0:0:0:
256,192,61858,1,8,0:0:0:0:
256,192,62221,1,8,0:0:0:0:
256,192,62767,1,8,0:0:0:0:
256,192,62949,1,8,0:0:0:0:
256,192,63312,1,0,0:0:0:0:
256,192,63494,1,0,0:0:0:0:
256,192,63858,1,0,0:0:0:0:
256,192,64040,1,0,0:0:0:0:
256,192,64403,1,0,0:0:0:0:
256,192,64949,1,8,0:0:0:0:
256,192,65131,1,8,0:0:0:0:
256,192,65676,1,0,0:0:0:0:
256,192,66040,1,8,0:0:0:0:
256,192,66221,1,0,0:0:0:0:
256,192,66585,1,0,0:0:0:0:
256,192,67131,1,0,0:0:0:0:
256,192,67312,1,8,0:0:0:0:
256,192,67676,1,0,0:0:0:0:
256,192,67858,1,0,0:0:0:0:
256,192,68221,1,0,0:0:0:0:
256,192,68403,1,0,0:0:0:0:
256,192,68767,1,0,0:0:0:0:
256,192,69312,1,0,0:0:0:0:
256,192,69494,1,8,0:0:0:0:
256,192,69676,1,8,0:0:0:0:
256,192,69858,1,8,0:0:0:0:
256,192,70040,5,0,0:0:0:0:
256,192,70403,1,8,0:0:0:0:
256,192,70585,1,8,0:0:0:0:
256,192,70949,1,8,0:0:0:0:
256,192,71494,1,0,0:0:0:0:
256,192,71676,1,8,0:0:0:0:
256,192,72040,1,8,0:0:0:0:
256,192,72221,1,0,0:0:0:0:
256,192,72585,1,0,0:0:0:0:
256,192,72767,1,8,0:0:0:0:
256,192,73131,1,0,0:0:0:0:
256,192,73676,1,0,0:0:0:0:
256,192,73858,1,8,0:0:0:0:
256,192,74221,1,0,0:0:0:0:
256,192,74403,1,0,0:0:0:0:
256,192,74767,1,0,0:0:0:0:
256,192,74949,1,0,0:0:0:0:
256,192,75312,1,0,0:0:0:0:
256,192,75494,1,8,0:0:0:0:
256,192,75858,1,0,0:0:0:0:
256,192,76040,1,8,0:0:0:0:
256,192,76403,1,0,0:0:0:0:
256,192,76585,1,8,0:0:0:0:
256,192,76949,1,0,0:0:0:0:
256,192,77131,1,8,0:0:0:0:
256,192,77494,1,0,0:0:0:0:
256,192,77676,1,8,0:0:0:0:
256,192,78040,1,8,0:0:0:0:
256,192,78221,1,0,0:0:0:0:
256,192,78767,1,0,0:0:0:0:
256,192,79131,1,8,0:0:0:0:
256,192,79312,1,8,0:0:0:0:
256,192,79676,1,8,0:0:0:0:
256,192,80221,1,8,0:0:0:0:
256,192,80403,1,8,0:0:0:0:
256,192,80767,1,8,0:0:0:0:
256,192,80949,1,0,0:0:0:0:
256,192,81312,1,0,0:0:0:0:
256,192,81494,1,8,0:0:0:0:
256,192,81858,1,8,0:0:0:0:
256,192,82403,1,0,0:0:0:0:
256,192,82585,1,8,0:0:0:0:
256,192,82949,1,0,0:0:0:0:
256,192,83131,1,0,0:0:0:0:
256,192,83494,1,0,0:0:0:0:
256,192,83676,1,0,0:0:0:0:
256,192,84040,1,0,0:0:0:0:
256,192,84221,1,8,0:0:0:0:
256,192,84585,1,0,0:0:0:0:
256,192,84767,1,8,0:0:0:0:
256,192,85131,1,0,0:0:0:0:
256,192,85312,1,8,0:0:0:0:
256,192,85676,1,0,0:0:0:0:
256,192,85858,1,0,0:0:0:0:
256,192,86221,1,0,0:0:0:0:
256,192,86767,1,0,0:0:0:0:
256,192,86949,1,8,0:0:0:0:
256,192,87131,1,8,0:0:0:0:
256,192,87312,1,8,0:0:0:0:
256,192,87494,5,0,0:0:0:0:
256,192,87858,1,8,0:0:0:0:
256,192,88040,1,8,0:0:0:0:
256,192,88403,1,0,0:0:0:0:
256,192,88949,1,8,0:0:0:0:
256,192,89131,1,8,0:0:0:0:
256,192,89676,1,0,0:0:0:0:
256,192,90040,1,0,0:0:0:0:
256,192,90221,1,8,0:0:0:0:
256,192,90585,1,0,0:0:0:0:
256,192,91131,1,0,0:0:0:0:
256,192,91312,1,8,0:0:0:0:
