osu file format v14

[General]
AudioFilename: audio.mp3
AudioLeadIn: 0
PreviewTime: 17
Countdown: 0
SampleSet: Soft
StackLeniency: 0.2
Mode: 0
LetterboxInBreaks: 0
WidescreenStoryboard: 1

[Editor]
Bookmarks: 7149
DistanceSpacing: 1.3
BeatDivisor: 4
GridSize: 4
TimelineZoom: 1

[Metadata]
Title:10-yuri
TitleUnicode:10-yuri
Artist:Dan Salvato
ArtistUnicode:Dan Salvato
Creator:Vulkin
Version:ancel's ahahahahahahahahahahahahahahahahahahahahahahahahahahahahahaha
Source:Doki Doki Literature Club!
Tags:my confession ddlc team yuri OST Ancelysia Dementation Ragnarok VII
BeatmapID:1922292
BeatmapSetID:920429

[Difficulty]
HPDrainRate:5
CircleSize:2
OverallDifficulty:5
ApproachRate:8
SliderMultiplier:1
SliderTickRate:0.5

[Events]
//Background and Video events
0,0,"NONE_FILM_FRAMES_2560_AT_002.jpg",0,0
//Break Periods
//Storyboard Layer 0 (Background)
//Storyboard Layer 1 (Fail)
//Storyboard Layer 2 (Pass)
//Storyboard Layer 3 (Foreground)
//Storyboard Sound Samples
Sample,7335,0,"rain.wav",100

[TimingPoints]
7335,731.707317073171,4,2,1,18,1,0
19223,731.707317073171,4,2,1,18,1,0
29101,-80,4,2,1,18,0,0
29375,-80,4,2,1,5,0,0
29466,-80,4,2,1,18,0,0
29741,-80,4,2,1,5,0,0
29832,-80,4,2,1,18,0,0
30107,-80,4,2,1,5,0,0
30198,-80,4,2,1,18,0,0
30473,-80,4,2,1,5,0,0
30564,-80,4,2,1,18,0,0
30838,-80,4,2,1,5,0,0
30930,-100,4,2,1,18,0,0
31174,-100,4,2,2,23,0,0
31418,-100,4,2,1,27,0,0
31662,-100,4,2,2,33,0,0
31905,-100,4,2,1,38,0,0
32149,-100,4,2,2,42,0,0
32393,-100,4,2,1,18,0,0
32759,-100,4,2,1,18,0,0
34223,-66.6666666666667,4,2,1,18,0,0
34588,-66.6666666666667,4,2,2,23,0,0
34832,-66.6666666666667,4,2,1,27,0,0
35076,-66.6666666666667,4,2,2,33,0,0
35320,-66.6666666666667,4,2,1,38,0,0
35503,-66.6666666666667,4,2,1,18,0,0
36783,-100,4,2,1,18,0,0
45743,731.707317073171,4,2,1,18,1,0
57641,731.707317073171,4,2,1,18,1,0
60567,-57.1428571428571,4,2,1,18,0,0
62762,-100,4,2,1,18,0,0
63494,-66.6666666666667,4,2,1,18,0,0
66421,-100,4,2,1,18,0,0
68799,-66.6666666666667,4,2,1,18,0,0
68982,-66.6666666666667,4,2,2,23,0,0
69165,-66.6666666666667,4,2,1,27,0,0
69348,-66.6666666666667,4,2,2,33,0,0
69531,-66.6666666666667,4,2,1,18,0,0
69700,731.707317073171,4,2,1,18,1,0
70126,-100,4,2,2,23,0,0
70187,-100,4,2,1,27,0,0
70248,-100,4,2,2,33,0,0
70309,-100,4,2,1,38,0,0
70370,-100,4,2,2,42,0,0
70431,-100,4,2,1,18,0,0
73724,-200,4,2,1,18,0,0
74821,-200,4,2,2,23,0,0
74943,-200,4,2,1,27,0,0
75065,-200,4,2,1,33,0,0
75187,-200,4,2,1,38,0,0
75309,-200,4,2,1,42,0,0
75462,-200,4,2,1,5,0,0
75553,-80,4,2,1,18,0,0
75675,-80,4,2,2,23,0,0
75736,-80,4,2,1,27,0,0
75797,-80,4,2,2,33,0,0
75858,-80,4,2,1,38,0,0
75919,-80,4,2,2,42,0,0
76010,-80,4,2,1,5,0,0
76102,-80,4,2,1,18,0,0
76224,-80,4,2,2,23,0,0
76285,-80,4,2,1,27,0,0
76346,-80,4,2,2,33,0,0
76407,-80,4,2,1,38,0,0
76468,-80,4,2,2,42,0,0
76559,-80,4,2,1,5,0,0
76651,-80,4,2,1,18,0,0
76773,-80,4,2,2,23,0,0
76834,-80,4,2,1,27,0,0
76895,-80,4,2,2,33,0,0
76956,-80,4,2,1,38,0,0
77017,-80,4,2,2,42,0,0
77108,-80,4,2,1,5,0,0
77200,-80,4,2,1,18,0,0
77321,-80,4,2,2,23,0,0
77382,-80,4,2,1,27,0,0
77443,-80,4,2,2,33,0,0
77504,-80,4,2,1,38,0,0
77565,-80,4,2,2,42,0,0
77657,-80,4,2,1,18,0,0

[Colours]
Combo1 : 125,125,175
Combo2 : 150,150,200

[HitObjects]
60,324,7335,5,0,0:0:0:0:
98,342,7700,5,0,0:0:0:0:
172,326,8066,5,2,0:0:0:0:
224,238,8432,5,2,0:0:0:0:
224,238,10261,5,0,0:0:0:0:
302,173,10627,5,0,0:0:0:0:
377,183,10993,5,2,0:0:0:0:
407,213,11359,5,2,0:0:0:0:
407,213,13188,6,0,P|420:288|420:295,1,50
312,288,13920,2,0,P|273:353|269:359,1,50,2|2,0:0|0:0,0:0:0:0:
212,256,16115,6,0,P|140:229|134:226,1,50
194,136,16847,2,0,P|156:69|153:63,1,50,2|2,0:0|0:0,0:0:0:0:
166,94,19223,5,2,0:0:0:0:
48,212,19588,5,0,0:0:0:0:
95,198,19953,1,0,0:0:0:0:
142,210,20319,1,0,0:0:0:0:
80,320,21783,5,2,0:0:0:0:
80,320,22149,1,2,0:0:0:0:
176,232,22515,5,0,0:0:0:0:
223,244,22881,5,2,0:0:0:0:
270,230,23246,5,0,0:0:0:0:
270,230,24344,6,0,L|264:296,1,50,2|2,0:0|0:0,0:0:0:0:
276,300,25076,1,2,0:0:0:0:
416,340,25442,5,0,0:0:0:0:
402,293,25807,1,0,0:0:0:0:
414,246,26173,1,0,0:0:0:0:
414,246,27637,5,2,0:0:0:0:
312,296,28003,5,2,0:0:0:0:
368,152,28369,5,0,0:0:0:0:
415,138,28734,1,0,0:0:0:0:
462,150,29101,6,0,P|468:176|468:200,1,46.875,0|0,0:0|0:0,1:0:0:0:
380,264,29466,6,0,P|354:258|330:258,1,46.875,0|0,0:0|0:0,1:0:0:0:
460,344,29832,6,0,P|478:324|490:303,1,46.875,0|0,0:0|0:0,1:0:0:0:
380,264,30198,6,0,P|354:258|330:258,1,46.875,0|0,0:0|0:0,1:0:0:0:
256,336,30564,6,0,P|229:332|200:320,1,46.875,0|0,0:0|0:0,1:0:0:0:
140,368,30930,6,0,P|156:328|128:168,1,200
64,264,32759,5,0,0:0:0:0:
108,292,33125,5,0,0:0:0:0:
197,277,33491,5,0,0:0:0:0:
236,176,33857,5,0,0:0:0:0:
64,264,34223,6,0,P|144:297|236:174,1,262.500010013581
184,80,36052,5,2,0:0:0:0:
172,100,36418,5,2,0:0:0:0:
160,120,36783,5,2,0:0:0:0:
198,102,37149,5,0,0:0:0:0:
272,118,37515,5,2,0:0:0:0:
324,206,37881,5,2,0:0:0:0:
448,48,38979,5,2,0:0:0:0:
376,160,39344,1,2,0:0:0:0:
428,284,39710,5,2,0:0:0:0:
386,288,40076,5,0,0:0:0:0:
322,248,40442,5,0,0:0:0:0:
303,148,40808,5,2,0:0:0:0:
303,148,41905,5,2,0:0:0:0:
436,244,42637,6,0,L|432:316,1,50,2|0,0:0|0:0,0:0:0:0:
336,336,43369,2,0,L|338:286,1,50,2|2,0:0|0:0,0:0:0:0:
64,296,45743,5,0,0:0:0:0:
98,319,46108,5,2,0:0:0:0:
173,315,46291,5,2,0:0:0:0:
244,236,46474,5,2,0:0:0:0:
292,336,46840,5,2,0:0:0:0:
452,336,47938,5,2,0:0:0:0:
444,312,48303,1,2,0:0:0:0:
436,288,48669,5,2,0:0:0:0:
339,313,49034,5,2,0:0:0:0:
242,339,49400,5,2,0:0:0:0:
224,320,49767,1,0,0:0:0:0:
224,320,51596,6,0,P|192:324|160:336,1,50
120,248,52328,2,0,P|88:244|56:232,1,50
64,136,54523,5,0,0:0:0:0:
93,165,54889,5,0,0:0:0:0:
168,176,55255,5,2,0:0:0:0:
247,111,55621,5,2,0:0:0:0:
472,192,57641,5,0,0:0:0:0:
447,158,58006,5,2,0:0:0:0:
376,136,58189,5,2,0:0:0:0:
288,187,58372,5,2,0:0:0:0:
244,53,58738,5,2,0:0:0:0:
244,53,59836,6,0,P|200:56|176:64,1,50,2|2,0:0|0:0,0:0:0:0:
64,236,60567,6,0,B|120:276|236:320|308:288|320:224|324:192|304:136|224:112|172:172,1,437.500004172325,2|2,0:0|0:0,0:0:0:0:
164,176,62762,2,0,P|172:136|168:112,1,50,2|2,0:0|0:0,0:0:0:0:
40,292,63494,6,0,B|136:216|220:296|220:312|220:328|292:400|404:324,1,375.000014305115,2|0,0:0|0:0,0:0:0:0:
396,320,65689,1,2,0:0:0:0:
464,236,66421,6,0,P|386:165|369:119,1,150,0|2,0:0|0:0,0:0:0:0:
488,24,67884,2,0,L|469:105,1,75
388,32,68799,6,0,P|320:48|248:108,1,150.000005722046
172,40,69700,6,0,P|137:84|94:101,1,100
77,212,72260,6,0,P|61:260|53:276,1,50
141,124,72992,2,0,P|97:100|83:90,1,50
181,220,73724,6,0,P|236:208|300:224,1,118.75
300,124,75553,6,0,P|336:136|372:164,1,78.125
312,104,76102,6,0,P|345:122|375:155,1,78.125
332,84,76651,6,0,P|361:107|385:146,1,78.125
360,68,77200,6,0,P|385:96|402:138,1,78.125
