osu file format v14

[General]
AudioFilename: audio.mp3
AudioLeadIn: 0
PreviewTime: 137993
Countdown: 0
SampleSet: Normal
StackLeniency: 0.3
Mode: 0
LetterboxInBreaks: 0
WidescreenStoryboard: 1

[Editor]
DistanceSpacing: 2
BeatDivisor: 4
GridSize: 4
TimelineZoom: 1

[Metadata]
Title:Your Reality
TitleUnicode:Your Reality
Artist:Dan Salvato & Jillian Ashcraft
ArtistUnicode:Dan Salvato & Jillian Ashcraft
Creator:Incomp
Version:Afterthought
Source:Doki Doki Literature Club
Tags:ddlc dan salvato vn visual novel just monika
BeatmapID:1601781
BeatmapSetID:698765

[Difficulty]
HPDrainRate:6
CircleSize:4
OverallDifficulty:8
ApproachRate:9
SliderMultiplier:1.8
SliderTickRate:1

[Events]
//Background and Video events
0,0,"bg.jpg",0,0
//Break Periods
//Storyboard Layer 0 (Background)
//Storyboard Layer 1 (Fail)
//Storyboard Layer 2 (Pass)
//Storyboard Layer 3 (Foreground)
//Storyboard Sound Samples

[TimingPoints]
0,571.428571428571,4,1,1,35,1,0
271,571.428571428571,4,1,1,35,1,0
699,-100,4,3,1,5,0,0
842,-100,4,1,1,35,0,0
1842,-100,4,3,1,5,0,0
1985,-100,4,1,1,35,0,0
3270,-100,4,3,1,5,0,0
3413,-100,4,1,1,35,0,0
4128,-100,4,3,1,5,0,0
4270,-100,4,1,1,35,0,0
5270,-100,4,3,1,5,0,0
5413,-200,4,1,1,35,0,0
5556,-200,4,3,1,5,0,0
5699,-100,4,1,1,35,0,0
6413,-100,4,3,1,5,0,0
6556,-100,4,1,1,35,0,0
7842,-100,4,3,1,5,0,0
7985,-100,4,1,1,35,0,0
9128,-100,4,3,1,5,0,0
9413,-200,4,1,1,35,0,0
13270,-200,4,3,1,5,0,0
13413,-200,4,1,1,35,0,0
14842,-100,4,1,1,35,0,0
15985,-100,4,1,1,15,0,0
16270,-100,4,1,1,35,0,0
16699,-100,4,3,1,5,0,0
16842,-100,4,1,1,35,0,0
18985,-100,4,3,1,5,0,0
19127,-100,4,1,1,35,0,0
20985,-100,4,3,1,5,0,0
21128,-100,4,1,1,35,0,0
23984,-100,4,1,1,35,0,0
25128,-100,4,1,1,15,0,0
25413,-100,4,1,1,35,0,0
25842,-100,4,3,1,5,0,0
25985,-100,4,1,1,35,0,0
27413,-100,4,1,1,35,0,0
27699,-100,4,1,1,35,0,0
28128,-100,4,3,1,5,0,0
28270,-100,4,1,1,35,0,0
35985,-100,4,3,1,5,0,0
36270,-100,4,1,1,35,0,0
39556,-100,4,1,1,35,0,0
39842,-100,4,3,1,5,0,0
39985,-100,4,1,1,35,0,0
40413,-100,4,3,1,5,0,0
40556,-100,4,1,1,35,0,0
45699,-100,4,3,1,5,0,0
45984,-100,4,3,1,5,0,0
45985,-100,4,1,1,35,0,0
50556,-100,4,1,1,35,0,0
55128,-90.9090909090909,4,1,1,35,0,0
59699,-80,4,1,1,35,0,0
61556,-80,4,3,1,5,0,0
61699,-80,4,1,1,35,0,0
62128,-80,4,3,1,5,0,0
62270,-80,4,1,1,35,0,0
66270,-80,4,1,1,15,0,0
66556,-80,4,1,1,35,0,0
68270,-100,4,1,1,35,0,0
70699,-100,4,3,1,5,0,0
70842,-100,4,1,1,35,0,0
71270,-100,4,3,1,5,0,0
71413,-100,4,1,1,35,0,0
71842,-100,4,3,1,5,0,0
71985,-100,4,1,1,35,0,0
72128,-100,4,3,1,5,0,0
72270,-100,4,1,1,35,0,0
77985,-80,4,1,1,35,0,0
78699,-80,4,3,1,5,0,0
78842,-80,4,1,1,35,0,0
81842,-80,4,3,1,5,0,0
81985,-80,4,1,1,35,0,0
90985,-80,4,3,1,35,0,0
91128,-80,4,1,1,35,0,0
96270,-71.4285714285714,4,1,1,35,0,0
107913,-71.4285714285714,4,3,1,5,0,0
107985,-71.4285714285714,4,1,1,35,0,0
109985,-66.6666666666667,4,1,1,35,0,0
112556,-80,4,1,1,35,0,0
113413,-100,4,1,1,35,0,0
115136,571.428571428571,4,1,1,35,1,0
115136,-100,4,1,1,35,0,0
117564,-100,4,3,1,5,0,0
117707,-100,4,1,1,35,0,0
120278,-125,4,1,1,35,0,0
120850,-166.666666666667,4,1,1,35,0,0
121421,-250.000000000001,4,1,1,35,0,0
121993,-100,4,1,1,35,0,0
126707,-100,4,3,1,5,0,0
126850,-100,4,1,1,35,0,0
128850,-100,4,1,1,35,0,0
129421,-125,4,1,1,35,0,0
129993,-166.666666666667,4,1,1,35,0,0
130564,-250,4,1,1,35,0,0
131136,-166.666666666667,4,1,1,35,0,0
131707,-125,4,1,1,35,0,0
132278,-100,4,1,1,35,0,0
132850,-83.3333333333333,4,1,1,35,0,0
133421,-100,4,1,1,35,0,0
137993,-76.9230769230769,4,1,1,35,0,1
141850,-76.9230769230769,4,3,1,5,0,1
141993,-76.9230769230769,4,1,1,35,0,1
150993,-76.9230769230769,4,3,1,5,0,1
151135,-76.9230769230769,4,1,1,35,0,1
156278,-100,4,1,1,35,0,0
160564,-100,4,3,1,5,0,0
160850,-100,4,1,1,35,0,0
165421,-80,4,1,1,35,0,0
166421,-80,4,3,1,5,0,0
166564,-80,4,1,1,35,0,0
167564,-80,4,3,1,5,0,0
167707,-80,4,1,1,35,0,0
169421,-80,4,3,1,5,0,0
169564,-80,4,1,1,35,0,0
175405,461.538461538462,4,1,1,35,1,0

[Colours]
Combo1 : 113,0,113
Combo2 : 255,145,200
Combo3 : 255,131,6
Combo4 : 255,162,117

[HitObjects]
127,162,0,6,0,L|136:138,3,22.5
127,162,285,2,0,P|123:209|174:275,1,135
211,192,842,1,0,0:0:0:0:
309,309,1128,1,0,0:0:0:0:
280,135,1413,2,0,P|241:107|158:119,1,135
62,218,1985,1,0,0:0:0:0:
211,192,2270,1,0,0:0:0:0:
309,309,2556,6,0,P|401:338|464:236,1,225
377,252,3413,2,0,B|347:213|284:200|237:240|226:279|226:279|199:245,1,225
127,162,4270,2,0,L|97:127,2,45
309,309,4842,6,0,P|374:342|443:313,1,135
378,252,5413,2,0,L|363:234,1,22.5
279,135,5699,2,0,P|187:105|123:197,1,225
211,192,6556,1,0,0:0:0:0:
364,165,6842,1,0,0:0:0:0:
226,279,7128,6,0,P|139:241|155:124,1,225
211,192,7985,2,0,B|234:189|257:177|271:155|280:134|280:134|273:172|275:183|284:201|307:220|341:222|367:207|383:171|374:138|349:117|318:112|276:137,1,360
280,135,9413,6,0,P|277:185|298:227,1,90
364,165,10270,1,0,0:0:0:0:
211,192,10556,2,0,P|167:189|126:156,1,90
130,162,11413,2,0,L|133:185,1,22.5
157,336,11699,5,0,0:0:0:0:
157,336,11985,2,0,L|175:321,1,22.5
295,222,12270,2,0,P|302:194|294:167,1,45
310,309,12842,2,0,P|336:331|368:341,1,67.5
379,252,13413,1,0,0:0:0:0:
379,252,13699,1,0,0:0:0:0:
157,336,13985,2,0,P|131:337|106:330,2,45
142,249,14842,5,2,0:0:0:0:
211,192,14985,1,2,0:0:0:0:
295,222,15128,1,2,0:0:0:0:
127,162,15413,5,2,0:0:0:0:
112,75,15556,1,2,0:0:0:0:
181,18,15699,2,2,P|226:21|265:53,1,90
295,222,16270,6,0,P|260:267|179:276,1,135
211,192,16842,1,2,0:0:0:0:
364,165,17128,5,2,0:0:0:0:
196,105,17270,1,2,0:0:0:0:
346,76,17556,5,2,0:0:0:0:
211,192,17699,1,2,0:0:0:0:
262,46,17985,5,2,0:0:0:0:
157,336,18270,1,2,0:0:0:0:
295,222,18556,6,0,P|293:157|246:110,1,135
211,192,19128,1,0,0:0:0:0:
310,309,19413,1,0,0:0:0:0:
142,249,19699,2,0,P|126:164|191:106,1,180
379,252,20556,5,0,0:0:0:0:
345,281,20699,1,0,0:0:0:0:
310,309,20842,2,0,L|274:337,1,45
364,165,21128,1,0,0:0:0:0:
398,136,21270,1,0,0:0:0:0:
433,108,21413,2,0,L|502:51,1,90
280,135,21985,2,0,P|276:182|296:223,2,90
418,21,22842,1,0,0:0:0:0:
293,219,23128,6,0,P|254:245|208:249,2,90
433,108,23985,5,2,0:0:0:0:
448,195,24128,1,2,0:0:0:0:
379,252,24270,1,2,0:0:0:0:
211,192,24556,5,2,0:0:0:0:
127,162,24699,1,2,0:0:0:0:
58,219,24842,2,2,P|54:266|74:307,1,90
364,165,25413,6,0,P|362:99|315:52,1,135
280,135,25985,1,2,0:0:0:0:
295,222,26270,5,2,0:0:0:0:
433,108,26413,1,2,0:0:0:0:
349,78,26699,5,2,0:0:0:0:
379,252,26842,1,2,0:0:0:0:
112,75,27128,5,0,0:0:0:0:
43,132,27413,2,0,L|19:151,3,22.5
43,132,27699,6,0,P|44:197|91:244,1,135
127,162,28270,1,0,0:0:0:0:
379,252,28556,2,0,P|433:220|451:152,1,135
364,165,29128,1,0,0:0:0:0:
364,165,29413,2,0,P|320:185|296:222,1,90
394,339,29985,6,0,P|373:292|379:245,1,90
418,21,30556,1,0,0:0:0:0:
226,279,30842,2,0,P|144:250|126:165,1,180
265,48,31699,2,0,L|301:20,2,45
142,249,32270,6,0,P|137:297|157:336,2,90
349,78,33128,1,0,0:0:0:0:
349,78,33199,1,0,0:0:0:0:
349,78,33270,1,0,0:0:0:0:
349,78,33342,1,0,0:0:0:0:
349,78,33413,2,0,P|370:125|364:172,1,90
142,249,33985,2,0,P|121:202|127:155,1,90
196,105,34413,1,0,0:0:0:0:
310,309,34556,6,0,P|349:337|393:339,1,90
379,252,35128,1,0,0:0:0:0:
295,222,35270,1,0,0:0:0:0:
127,162,35413,2,0,P|137:242|220:282,1,180
349,78,36270,1,0,0:0:0:0:
295,222,36556,1,0,0:0:0:0:
265,48,36842,5,0,0:0:0:0:
58,219,37413,2,0,P|53:266|73:305,1,90
241,366,37985,1,0,0:0:0:0:
280,135,38270,1,0,0:0:0:0:
280,135,38556,2,0,P|326:139|366:171,1,90
394,339,39128,6,0,P|348:335|308:303,1,90
313,310,39699,2,0,L|279:282,1,45
127,162,39985,2,0,P|107:98|147:30,1,135
295,222,40556,1,0,0:0:0:0:
295,222,40842,2,0,P|320:215|344:193,2,45
142,249,41413,6,0,P|97:268|74:305,2,90
157,336,42128,1,0,0:0:0:0:
280,135,42270,1,0,0:0:0:0:
280,135,42342,1,0,0:0:0:0:
280,135,42413,2,0,P|310:93|389:78,1,135
364,165,43128,1,0,0:0:0:0:
418,21,43413,1,0,0:0:0:0:
280,135,43556,5,0,0:0:0:0:
433,108,43699,1,0,0:0:0:0:
433,108,43985,1,0,0:0:0:0:
433,108,44270,5,0,0:0:0:0:
418,21,44413,1,0,0:0:0:0:
295,222,44556,6,0,P|162:266|186:106,1,360
211,192,45985,5,2,0:0:0:0:
433,108,46270,1,2,0:0:0:0:
349,78,46556,5,2,0:0:0:0:
379,252,46699,1,2,0:0:0:0:
196,105,46985,5,2,0:0:0:0:
196,105,47699,1,2,0:0:0:0:
112,75,47985,5,2,0:0:0:0:
295,222,48128,1,2,0:0:0:0:
127,162,48270,1,2,0:0:0:0:
433,108,49699,1,2,0:0:0:0:
349,78,49985,5,2,0:0:0:0:
463,282,50128,1,2,0:0:0:0:
463,282,50413,5,2,0:0:0:0:
310,309,50556,2,0,P|261:302|227:269,1,90
297,231,50985,2,0,P|278:186|290:140,1,90
359,179,51413,1,0,0:0:0:0:
134,101,51699,5,0,0:0:0:0:
121,23,51985,5,0,0:0:0:0:
209,127,52128,1,0,0:0:0:0:
196,49,52413,5,0,0:0:0:0:
147,179,52556,1,0,0:0:0:0:
421,127,52842,6,0,P|469:133|503:166,1,90
359,179,53270,1,0,0:0:0:0:
408,49,53556,5,0,0:0:0:0:
434,205,53699,1,0,0:0:0:0:
196,49,53985,6,0,P|155:21|108:24,1,90
134,101,54413,1,0,0:0:0:0:
59,75,54699,5,0,0:0:0:0:
271,75,54842,1,0,0:0:0:0:
98,309,55128,6,0,P|142:337|190:333,1,99.0000030212403
98,309,55556,2,0,P|54:281|6:285,1,99.0000030212403
160,257,55985,1,0,0:0:0:0:
271,75,56270,5,0,0:0:0:0:
346,101,56556,5,0,0:0:0:0:
209,127,56699,1,0,0:0:0:0:
196,49,56985,5,0,0:0:0:0:
359,179,57128,1,0,0:0:0:0:
72,153,57413,6,0,P|25:177|5:220,1,99.0000030212403
85,231,57842,1,0,0:0:0:0:
59,75,58128,5,0,0:0:0:0:
160,257,58270,1,0,0:0:0:0:
346,101,58556,6,0,P|399:110|433:151,1,99.0000030212403
222,205,58985,1,0,0:0:0:0:
359,179,59271,5,0,0:0:0:0:
134,101,59413,1,0,0:0:0:0:
454,278,59699,6,0,P|501:254|519:192,1,112.5
441,200,60128,1,0,0:0:0:0:
180,330,60270,2,0,P|123:316|91:270,2,112.5
366,174,61128,1,0,0:0:0:0:
366,174,61270,1,0,0:0:0:0:
366,174,61413,2,0,P|379:149|411:127,1,56.25
317,304,61699,5,0,0:0:0:0:
317,304,61842,1,0,0:0:0:0:
317,304,61985,2,0,P|288:305|253:288,1,56.25
366,174,62270,1,0,0:0:0:0:
366,174,62413,1,0,0:0:0:0:
366,174,62556,2,0,P|423:188|455:234,2,112.5
235,283,63699,1,0,0:0:0:0:
98,309,63985,1,0,0:0:0:0:
59,75,64270,2,0,P|97:30|152:22,2,112.5
222,205,65128,5,2,0:0:0:0:
271,75,65270,1,2,0:0:0:0:
310,309,65413,1,2,0:0:0:0:
297,231,65699,5,2,0:0:0:0:
209,127,65841,1,2,0:0:0:0:
248,361,65984,1,2,0:0:0:0:
284,153,66270,5,2,0:0:0:0:
98,309,66556,6,0,P|32:290|7:232,1,112.5
284,153,67128,5,2,0:0:0:0:
196,49,67413,5,2,0:0:0:0:
421,127,67556,1,2,0:0:0:0:
333,23,67842,5,2,0:0:0:0:
372,257,67985,1,2,0:0:0:0:
238,282,68270,5,2,0:0:0:0:
421,127,68556,1,2,0:0:0:0:
85,231,68842,6,0,P|69:192|81:132,1,90
147,179,69270,1,0,0:0:0:0:
310,309,69413,2,0,P|347:333|391:336,2,90
222,205,70270,1,0,0:0:0:0:
222,205,70413,1,0,0:0:0:0:
222,205,70556,2,0,L|214:156,1,45
421,127,70842,5,0,0:0:0:0:
421,127,70985,1,0,0:0:0:0:
421,127,71128,2,0,L|467:144,1,45
359,179,71413,1,0,0:0:0:0:
359,179,71556,1,0,0:0:0:0:
359,179,71699,2,0,L|320:210,1,45
160,257,71985,1,0,0:0:0:0:
346,101,72270,6,0,P|391:107|428:141,1,90
235,283,72842,2,0,P|190:277|153:243,1,90
447,283,73413,2,0,B|466:268|466:268|486:197,2,90
297,231,74270,5,2,0:0:0:0:
284,153,74413,1,2,0:0:0:0:
173,335,74556,1,2,0:0:0:0:
72,153,74842,5,2,0:0:0:0:
59,75,74985,1,2,0:0:0:0:
222,205,75128,1,2,0:0:0:0:
121,23,75413,5,2,0:0:0:0:
284,153,75699,2,0,P|321:177|365:180,1,90
365,179,76270,5,2,0:0:0:0:
196,49,76556,5,2,0:0:0:0:
85,231,76699,1,2,0:0:0:0:
59,75,76985,5,2,0:0:0:0:
222,205,77128,1,2,0:0:0:0:
121,23,77413,5,2,0:0:0:0:
160,257,77699,1,0,0:0:0:0:
177,271,77770,1,0,0:0:0:0:
197,281,77841,1,0,0:0:0:0:
219,285,77913,1,0,0:0:0:0:
241,283,77985,6,0,P|284:254|300:190,1,112.5
222,205,78413,2,0,P|220:146|174:103,1,112.5
147,179,78842,2,0,P|149:238|195:281,2,112.5
209,127,79556,1,0,0:0:0:0:
316,309,79842,1,0,0:0:0:0:
254,361,79985,1,0,0:0:0:0:
85,231,80270,6,0,P|66:179|85:127,1,112.5
160,257,80699,2,0,P|178:308|159:360,1,112.5
98,309,81056,1,0,0:0:0:0:
98,309,81128,2,0,P|79:257|98:205,1,112.5
310,309,81628,1,0,0:0:0:0:
310,309,81699,2,0,P|336:330|375:335,1,56.25
372,257,81985,2,0,P|403:244|427:213,2,56.25
134,101,82556,6,0,B|147:180|147:180|182:223,1,112.5
235,283,82985,1,0,0:0:0:0:
297,231,83128,2,0,B|319:215|319:215|350:212,2,56.25
173,335,83556,1,0,0:0:0:0:
98,309,83699,2,0,P|79:257|98:205,1,112.5
160,257,84128,1,0,0:0:0:0:
209,127,84270,2,0,P|244:84|299:75,1,112.5
284,153,84699,1,0,0:0:0:0:
235,283,84842,6,0,P|199:325|144:335,1,112.5
145,335,85413,1,0,0:0:0:0:
57,231,85556,1,0,0:0:0:0:
145,335,85699,1,0,0:0:0:0:
145,335,85985,2,0,P|90:325|54:283,1,112.5
235,283,86413,2,0,P|289:292|325:335,1,112.5
98,309,86842,1,0,0:0:0:0:
70,307,86913,1,0,0:0:0:0:
44,297,86984,1,0,0:0:0:0:
23,278,87056,1,0,0:0:0:0:
9,254,87128,6,0,P|13:198|52:159,1,112.5
85,231,87556,1,0,0:0:0:0:
209,127,87699,2,0,P|215:99|207:67,1,56.25
147,179,87985,2,0,P|198:207|261:189,1,112.5
408,49,88556,5,0,0:0:0:0:
359,179,88699,1,0,0:0:0:0:
346,101,88985,5,0,0:0:0:0:
434,205,89128,1,0,0:0:0:0:
235,283,89413,6,0,B|200:327|200:327|135:339,1,112.5
222,205,89842,2,0,B|257:161|257:161|322:149,1,112.5
297,231,90199,1,0,0:0:0:0:
297,231,90270,2,0,B|261:275|261:275|197:287,1,112.5
134,101,90770,1,0,0:0:0:0:
134,101,90842,2,0,L|78:82,1,56.25
147,179,91128,2,0,L|202:197,2,56.25
173,335,91699,6,0,P|214:361|277:352,1,112.5
372,257,92128,1,0,0:0:0:0:
297,231,92270,2,0,P|263:225|227:240,2,56.25
447,283,92699,1,0,0:0:0:0:
385,335,92842,2,0,P|366:282|385:230,1,112.5
447,283,93270,1,0,0:0:0:0:
284,153,93413,2,0,P|231:125|168:144,1,112.5
222,205,93842,1,0,0:0:0:0:
98,309,93985,5,0,0:0:0:0:
297,231,94270,1,0,0:0:0:0:
98,309,94556,5,0,0:0:0:0:
297,231,94699,1,0,0:0:0:0:
98,309,94842,1,0,0:0:0:0:
235,283,95128,6,0,P|285:251|300:187,1,112.5
196,49,95556,2,0,P|145:80|130:144,1,112.5
173,335,95985,1,0,0:0:0:0:
209,127,96270,5,0,0:0:0:0:
235,283,96556,1,0,0:0:0:0:
310,309,96699,1,0,0:0:0:0:
173,335,96842,2,2,P|117:322|82:265,1,125.999996154785
160,257,97270,1,0,0:0:0:0:
134,101,97413,2,0,P|108:79|69:70,2,62.9999980773926
72,153,97842,1,0,0:0:0:0:
160,257,97985,2,0,P|210:284|274:265,1,125.999996154785
413,46,98556,6,0,P|469:59|504:116,2,125.999996154785,2|0|2,0:0|0:0|0:0,0:0:0:0:
426,124,99270,1,0,0:0:0:0:
276,72,99413,2,0,P|242:65|204:77,1,62.9999980773926,2|0,0:0|0:0,0:0:0:0:
147,179,99699,2,0,P|180:185|218:173,1,62.9999980773926
426,124,99985,1,2,0:0:0:0:
437,202,100128,1,0,0:0:0:0:
437,202,100270,2,0,P|486:172|501:107,1,125.999996154785,0|2,0:0|0:0,0:0:0:0:
134,101,100842,5,0,0:0:0:0:
160,257,101128,1,0,0:0:0:0:
235,283,101270,1,0,0:0:0:0:
297,231,101413,2,0,L|345:190,1,62.9999980773926
160,257,101699,2,0,L|111:297,1,62.9999980773926
214,124,101985,2,0,P|234:93|261:75,2,62.9999980773926
289,150,102413,1,0,0:0:0:0:
235,283,102556,2,0,P|197:326|131:332,1,125.999996154785
413,46,103128,6,0,P|469:59|504:116,1,125.999996154785,2|0,0:0|0:0,0:0:0:0:
426,124,103556,1,0,0:0:0:0:
201,46,103699,2,0,P|167:39|129:51,1,62.9999980773926,2|0,0:0|0:0,0:0:0:0:
227,202,103985,2,0,P|261:209|299:197,1,62.9999980773926,2|0,0:0|0:0,0:0:0:0:
77,150,104270,2,0,P|44:160|17:190,1,62.9999980773926
240,280,104556,1,2,0:0:0:0:
289,150,104699,1,0,0:0:0:0:
289,150,104842,2,0,P|345:163|380:220,1,125.999996154785,0|2,0:0|0:0,0:0:0:0:
134,101,105413,6,0,P|83:73|19:91,1,125.999996154785
72,153,105842,1,0,0:0:0:0:
284,153,105985,2,0,P|291:122|279:87,1,62.9999980773926
222,205,106270,2,0,P|215:236|227:271,1,62.9999980773926
209,127,106556,2,0,P|185:105|149:98,2,62.9999980773926
297,231,106985,1,0,0:0:0:0:
147,179,107128,2,0,P|91:147|76:88,1,125.999996154785
310,309,107699,5,0,0:0:0:0:
85,231,107985,5,0,0:0:0:0:
47,218,108128,1,0,0:0:0:0:
222,205,108270,5,0,0:0:0:0:
260,218,108413,1,0,0:0:0:0:
134,101,108556,5,0,0:0:0:0:
96,88,108699,2,0,L|33:65,1,62.9999980773926
160,257,108985,5,0,0:0:0:0:
198,270,109128,1,0,0:0:0:0:
236,283,109270,1,0,0:0:0:0:
434,205,109556,5,0,0:0:0:0:
271,75,109699,1,0,0:0:0:0:
271,75,109985,6,0,P|209:47|147:75,1,135.000005149842
160,257,110413,2,0,P|166:324|222:364,1,135.000005149842
373,262,110842,2,0,P|428:222|435:154,1,135.000005149842
209,127,111270,2,0,P|153:166|147:234,1,135.000005149842
360,184,111699,2,0,P|365:149|352:113,2,67.5000025749208
98,309,112270,6,0,B|160:257|160:257|209:286,1,135.000005149842
147,179,112699,2,0,B|70:151|70:151|76:184,1,112.5
85,231,113413,6,0,L|89:260,4,18.75
408,49,115136,5,0,0:0:0:0:
421,127,115421,1,0,0:0:0:0:
359,179,115707,2,0,P|316:195|263:181,2,90
134,101,117136,5,0,0:0:0:0:
147,179,117278,1,0,0:0:0:0:
222,205,117421,2,0,L|283:225,1,45
134,101,117707,5,0,0:0:0:0:
72,153,117850,1,0,0:0:0:0:
85,231,117993,2,0,L|100:321,2,90
59,75,118850,1,0,0:0:0:0:
222,205,119136,5,0,0:0:0:0:
297,231,119421,1,0,0:0:0:0:
363,174,119707,2,0,P|363:130|338:92,1,90
222,205,120278,6,0,P|217:236|233:280,1,72
209,127,120850,6,0,P|185:135|157:160,1,53.9999983520508
376,252,121421,6,0,P|389:250|410:237,1,36
271,75,121921,5,0,0:0:0:0:
271,75,121993,2,0,P|236:49|188:47,1,90
314,304,122493,5,0,0:0:0:0:
314,304,122564,2,0,P|339:325|373:333,1,60
284,153,123136,1,0,0:0:0:0:
98,309,124278,5,0,0:0:0:0:
85,231,124564,1,0,0:0:0:0:
147,179,124850,2,0,P|190:163|243:177,2,90
408,49,126278,5,0,0:0:0:0:
421,127,126421,1,0,0:0:0:0:
359,179,126564,2,0,L|319:211,1,45
408,49,126850,5,0,0:0:0:0:
333,23,126993,1,0,0:0:0:0:
271,75,127135,2,0,L|201:132,2,90
483,75,127993,1,0,0:0:0:0:
235,283,128278,5,0,0:0:0:0:
173,335,128564,1,0,0:0:0:0:
98,309,128850,2,0,P|80:266|92:213,1,90
222,205,129421,6,0,P|224:169|207:125,1,72
160,257,129993,6,0,P|181:275|211:285,1,53.9999983520508
209,127,130564,6,0,P|196:114|175:104,1,36
310,309,131136,6,0,P|331:327|361:337,1,53.9999983520508
271,75,131707,6,0,P|240:55|194:47,1,72
372,257,132278,6,0,P|410:279|455:276,1,90
209,127,132850,6,0,P|162:99|102:111,1,107.999996704102
235,283,133421,6,0,L|329:316,1,90
319,312,134278,1,0,0:0:0:0:
421,127,134564,6,0,L|345:191,1,90
353,185,135421,1,0,0:0:0:0:
69,158,135707,5,0,0:0:0:0:
82,236,135850,1,0,0:0:0:0:
95,314,135993,1,0,0:0:0:0:
408,49,136278,5,0,0:0:0:0:
421,127,136421,1,0,0:0:0:0:
434,205,136564,1,0,0:0:0:0:
69,158,136850,5,0,0:0:0:0:
193,54,136993,1,0,0:0:0:0:
56,80,137135,1,0,0:0:0:0:
157,262,137278,1,0,0:0:0:0:
118,28,137421,1,0,0:0:0:0:
82,236,137564,1,0,0:0:0:0:
281,158,137707,5,0,0:0:0:0:
303,157,137778,1,0,0:0:0:0:
325,162,137849,1,0,0:0:0:0:
344,173,137921,1,0,0:0:0:0:
360,189,137993,6,0,P|378:250|358:296,1,116.999994644165
173,335,138421,2,0,P|140:333|112:318,2,58.4999973220826
297,231,138850,2,0,P|346:202|362:142,1,116.999994644165
134,101,139421,5,0,0:0:0:0:
222,205,139564,1,0,0:0:0:0:
284,153,139850,5,0,0:0:0:0:
72,153,139993,1,0,0:0:0:0:
235,283,140278,6,0,P|284:310|344:294,1,116.999994644165
297,231,140707,2,0,P|247:203|187:219,1,116.999994644165
175,236,141064,1,0,0:0:0:0:
160,257,141135,2,0,P|104:245|69:194,1,116.999994644165
121,23,141636,1,0,0:0:0:0:
131,46,141707,2,0,P|164:48|191:61,1,58.4999973220826
297,231,141993,2,0,P|319:249|347:258,2,58.4999973220826
69,98,142564,6,0,P|69:154|113:198,1,116.999994644165
183,222,142993,1,0,0:0:0:0:
144,124,143135,2,0,P|156:97|178:78,2,58.4999973220826
170,280,143564,1,0,0:0:0:0:
245,306,143707,2,0,P|301:305|345:261,1,116.999994644165
359,179,144135,1,0,0:0:0:0:
232,228,144278,2,0,P|183:257|167:317,1,116.999994644165
245,306,144707,1,0,0:0:0:0:
95,254,144850,6,0,P|52:215|47:153,1,116.999994644165
46,158,145421,1,0,0:0:0:0:
206,72,145564,1,0,0:0:0:0:
46,158,145707,1,0,0:0:0:0:
284,153,145993,6,0,P|340:165|376:216,1,116.999994644165
160,257,146421,2,0,P|112:287|96:348,1,116.999994644165
222,205,146850,5,0,0:0:0:0:
225,176,146921,1,0,0:0:0:0:
219,147,146992,1,0,0:0:0:0:
203,123,147064,1,0,0:0:0:0:
180,106,147135,2,0,P|123:103|75:143,1,116.999994644165
147,179,147564,2,0,P|148:235|193:279,1,116.999994644165
359,179,147993,2,0,B|388:107|388:107|372:68,2,116.999994644165
297,231,148707,1,0,0:0:0:0:
69,98,148993,1,0,0:0:0:0:
160,257,149135,1,0,0:0:0:0:
346,101,149421,6,0,P|401:113|435:161,1,116.999994644165
359,179,149850,2,0,P|310:207|292:263,1,116.999994644165
372,257,150207,1,0,0:0:0:0:
372,257,150278,2,0,P|420:228|438:172,1,116.999994644165
160,257,150778,1,0,0:0:0:0:
160,257,150850,2,0,P|125:255|95:239,1,58.4999973220826
284,153,151135,2,0,P|288:118|277:85,2,58.4999973220826
173,335,151707,6,0,P|118:323|84:275,1,116.999994644165
160,257,152135,1,0,0:0:0:0:
385,335,152278,2,0,P|420:339|453:327,2,58.4999973220826
310,309,152707,1,0,0:0:0:0:
147,179,152850,2,0,P|97:151|40:164,1,116.999994644165
85,231,153278,1,0,0:0:0:0:
284,153,153421,2,0,P|332:123|349:66,1,116.999994644165
271,75,153850,1,0,0:0:0:0:
310,309,153993,5,0,0:0:0:0:
147,179,154278,1,0,0:0:0:0:
310,309,154564,5,0,0:0:0:0:
147,179,154707,1,0,0:0:0:0:
310,309,154850,1,0,0:0:0:0:
421,127,155135,2,0,P|419:70|378:27,1,116.999994644165
346,101,155564,1,0,0:0:0:0:
235,283,155707,2,0,P|223:310|201:329,1,58.4999973220826
284,153,155993,2,0,P|296:126|318:107,1,58.4999973220826
160,257,156278,5,0,0:0:0:0:
359,179,156564,1,0,0:0:0:0:
160,257,156850,5,0,0:0:0:0:
359,179,156993,1,0,0:0:0:0:
160,257,157135,1,0,0:0:0:0:
346,101,157707,5,0,0:0:0:0:
98,309,158278,1,0,0:0:0:0:
346,101,158564,6,2,P|396:109|429:145,1,90
297,231,158993,2,2,B|244:266|244:266|208:248,1,90
72,153,159421,2,2,P|119:104|188:110,1,135,2|0,0:0|0:0,0:0:0:0:
310,309,159993,1,2,0:0:0:0:
59,75,160850,6,2,P|55:119|77:157,2,90
235,283,161707,2,2,P|314:309|375:243,2,180
346,101,164278,5,0,0:0:0:0:
359,179,164564,2,2,P|351:229|315:262,2,90
346,101,165278,1,2,0:0:0:0:
235,283,165421,6,0,B|206:298|206:298|126:283,1,112.5
372,257,165850,2,0,B|401:242|401:242|481:257,1,112.5
222,205,166278,1,0,0:0:0:0:
59,75,166564,5,0,0:0:0:0:
222,205,166850,5,0,0:0:0:0:
147,179,166993,1,0,0:0:0:0:
160,257,167278,5,0,0:0:0:0:
284,153,167421,1,0,0:0:0:0:
385,335,167707,6,0,P|434:305|450:253,1,112.5
310,309,168135,1,0,0:0:0:0:
372,257,168421,5,0,0:0:0:0:
222,205,168564,1,0,0:0:0:0:
98,309,168850,6,0,P|81:260|103:200,1,112.5
248,361,169278,1,0,0:0:0:0:
284,153,169564,5,0,0:0:0:0:
173,335,169707,1,0,0:0:0:0:
359,179,169993,6,0,P|357:121|320:81,1,112.5
284,153,170421,1,2,0:0:0:0:
284,153,170493,1,2,0:0:0:0:
284,153,170564,2,2,P|285:210|322:250,2,112.5
359,179,171421,5,0,0:0:0:0:
209,127,171564,2,0,P|151:128|111:165,1,112.5
235,283,171993,1,2,0:0:0:0:
310,309,172135,1,2,0:0:0:0:
372,257,172278,6,0,P|399:206|387:153,1,112.5,2|2,0:0|0:0,0:0:0:0:
322,195,172707,1,2,0:0:0:0:
235,283,172850,2,0,B|213:303|213:303|182:310,1,56.25,2|0,0:0|0:0,0:0:0:0:
85,231,173135,1,2,0:0:0:0:
85,231,173421,6,0,P|45:197|34:134,2,112.5,2|0|0,0:0|0:0|0:0,0:0:0:0:
160,257,174135,1,2,0:0:0:0:
421,127,174564,1,2,0:0:0:0:
284,153,175405,6,0,L|246:184,1,45
359,179,175635,2,0,L|367:228,1,45
346,101,175866,2,0,L|363:53,1,45
256,192,176328,12,0,178981,0:0:0:0:
