osu file format v14

[General]
AudioFilename: audio.mp3
AudioLeadIn: 0
PreviewTime: 137993
Countdown: 0
SampleSet: Normal
StackLeniency: 0.3
Mode: 0
LetterboxInBreaks: 0
WidescreenStoryboard: 1

[Editor]
Bookmarks: 160707,178993
DistanceSpacing: 2.5
BeatDivisor: 8
GridSize: 8
TimelineZoom: 1

[Metadata]
Title:Your Reality
TitleUnicode:Your Reality
Artist:Dan Salvato & Jillian Ashcraft
ArtistUnicode:Dan Salvato & Jillian Ashcraft
Creator:Incomp
Version:Afterthought (old)
Source:Doki Doki Literature Club
Tags:ddlc dan salvato vn visual novel just monika
BeatmapID:1479860
BeatmapSetID:698765

[Difficulty]
HPDrainRate:6
CircleSize:4
OverallDifficulty:8
ApproachRate:9
SliderMultiplier:1.8
SliderTickRate:1

[Events]
//Background and Video events
0,0,"bg.jpg",0,0
//Break Periods
2,113827,114536
//Storyboard Layer 0 (Background)
//Storyboard Layer 1 (Fail)
//Storyboard Layer 2 (Pass)
//Storyboard Layer 3 (Foreground)
//Storyboard Sound Samples

[TimingPoints]
0,571.428571428571,4,1,1,35,1,0
271,571.428571428571,4,1,1,35,1,0
699,-100,4,3,1,5,0,0
842,-100,4,1,1,35,0,0
1842,-100,4,3,1,5,0,0
1985,-100,4,1,1,35,0,0
5270,-100,4,3,1,5,0,0
5413,-200,4,1,1,35,0,0
5556,-200,4,3,1,5,0,0
5699,-100,4,1,1,35,0,0
7842,-100,4,3,1,5,0,0
7985,-100,4,1,1,35,0,0
9128,-100,4,3,1,5,0,0
9413,-200,4,1,1,35,0,0
13270,-200,4,3,1,5,0,0
13413,-200,4,1,1,35,0,0
14842,-100,4,1,1,35,0,0
18985,-100,4,3,1,5,0,0
19127,-100,4,1,1,35,0,0
20128,-100,4,3,1,5,0,0
20270,-100,4,1,1,35,0,0
23984,-100,4,1,1,35,0,0
27413,-100,4,1,1,35,0,0
27699,-100,4,1,1,35,0,0
28128,-100,4,1,1,35,0,0
28270,-100,4,1,1,35,0,0
35985,-100,4,3,1,5,0,0
36270,-100,4,1,1,35,0,0
39556,-100,4,1,1,35,0,0
45699,-100,4,3,1,5,0,0
45984,-100,4,3,1,5,0,0
45985,-100,4,1,1,35,0,0
50556,-100,4,1,1,35,0,0
55128,-90.9090909090909,4,1,1,35,0,0
59699,-80,4,1,1,35,0,0
68270,-100,4,1,1,35,0,0
70699,-100,4,3,1,5,0,0
70842,-100,4,1,1,35,0,0
71270,-100,4,3,1,5,0,0
71413,-100,4,1,1,35,0,0
71842,-100,4,3,1,5,0,0
71985,-100,4,1,1,35,0,0
72128,-100,4,3,1,5,0,0
72270,-100,4,1,1,35,0,0
77985,-80,4,1,1,35,0,0
81413,-80,4,3,1,5,0,0
81628,-80,4,1,1,35,0,0
96270,-71.4285714285714,4,1,1,35,0,0
107913,-71.4285714285714,4,3,1,5,0,0
107985,-71.4285714285714,4,1,1,35,0,0
109985,-66.6666666666667,4,1,1,35,0,0
112556,-80,4,1,1,35,0,0
113413,-100,4,1,1,35,0,0
115136,571.428571428571,4,1,1,35,1,0
115136,-100,4,1,1,35,0,0
120278,-125,4,1,1,35,0,0
120850,-166.666666666667,4,1,1,35,0,0
121421,-250.000000000001,4,1,1,35,0,0
121993,-100,4,1,1,35,0,0
128850,-100,4,1,1,35,0,0
129421,-125,4,1,1,35,0,0
129993,-166.666666666667,4,1,1,35,0,0
130564,-250,4,1,1,35,0,0
131136,-166.666666666667,4,1,1,35,0,0
131707,-125,4,1,1,35,0,0
132278,-100,4,1,1,35,0,0
132850,-83.3333333333333,4,1,1,35,0,0
133421,-100,4,1,1,35,0,0
137993,-76.9230769230769,4,1,1,35,0,1
156278,-100,4,1,1,35,0,0
160564,-100,4,3,1,5,0,0
160850,-100,4,1,1,35,0,0
165421,-80,4,1,1,35,0,0
166421,-80,4,3,1,5,0,0
166564,-80,4,1,1,35,0,0
167564,-80,4,3,1,5,0,0
167707,-80,4,1,1,35,0,0
169421,-80,4,3,1,5,0,0
169564,-80,4,1,1,35,0,0

[Colours]
Combo1 : 113,0,113
Combo2 : 255,145,200
Combo3 : 255,131,6
Combo4 : 255,162,117

[HitObjects]
174,152,0,6,2,L|155:128,3,22.5
174,152,271,2,0,P|228:186|318:163,1,135
252,94,842,1,0,0:0:0:0:
252,94,1128,1,0,0:0:0:0:
167,316,1413,2,0,P|106:342|42:324,1,135
101,247,1985,1,0,0:0:0:0:
101,247,2270,1,0,0:0:0:0:
280,90,2556,6,0,P|346:95|343:270,1,270
305,182,4270,1,0,0:0:0:0:
261,99,4413,1,0,0:0:0:0:
305,182,4556,1,0,0:0:0:0:
211,178,4842,6,0,B|183:166|166:133|165:108|165:108|142:154,1,135
102,229,5413,2,0,L|91:251,1,22.5
44,352,5699,1,0,0:0:0:0:
281,217,6556,1,0,0:0:0:0:
237,134,6842,1,0,0:0:0:0:
425,142,7128,6,0,B|418:158|418:178|421:192|421:192|440:217|446:252|429:291|390:316|336:300,1,225
367,235,7985,2,0,B|344:198|350:158|362:113|362:113|349:167|307:173|267:159|251:116|265:74|308:59|342:66|364:109,1,360
318,115,9413,5,0,0:0:0:0:
81,323,9985,1,0,0:0:0:0:
81,323,10270,1,0,0:0:0:0:
81,323,10556,2,0,P|57:272|60:231,1,90
152,258,11413,5,0,0:0:0:0:
152,258,11556,1,0,0:0:0:0:
152,258,11699,2,0,L|188:226,1,45
161,147,12128,1,0,0:0:0:0:
161,147,12270,2,0,L|128:178,1,45
286,258,12842,2,0,B|306:271|306:271|322:312,1,67.5
230,337,13413,2,0,B|214:326|214:326|201:294,1,45
143,131,13985,2,0,L|125:84,1,45
126,88,14556,1,0,0:0:0:0:
424,289,14842,5,2,0:0:0:0:
338,318,14985,1,2,0:0:0:0:
269,258,15128,1,2,0:0:0:0:
372,140,15413,5,2,0:0:0:0:
303,80,15556,1,2,0:0:0:0:
217,109,15699,1,2,0:0:0:0:
269,258,15985,5,2,0:0:0:0:
114,229,16270,2,0,P|159:143|234:102,1,180,0|2,0:0|0:0,0:0:0:0:
269,258,17128,5,2,0:0:0:0:
200,198,17270,1,2,0:0:0:0:
183,288,17556,5,2,0:0:0:0:
114,228,17699,1,2,0:0:0:0:
269,258,17985,5,2,0:0:0:0:
114,228,18270,1,2,0:0:0:0:
269,258,18556,6,0,P|334:214|347:153,1,135
253,164,19128,1,0,0:0:0:0:
342,8,19413,1,0,0:0:0:0:
433,163,19699,2,0,P|399:233|340:255,1,135
338,160,20270,1,0,0:0:0:0:
159,161,20556,5,0,0:0:0:0:
159,161,20699,1,0,0:0:0:0:
159,161,20842,2,0,P|137:203|98:229,1,90
183,267,21270,1,0,0:0:0:0:
183,267,21413,2,0,P|147:298|131:342,1,90
281,234,21985,2,0,P|255:194|214:171,1,90
121,140,22556,2,0,P|146:100|195:72,1,90
281,234,23128,1,0,0:0:0:0:
376,76,23413,1,0,0:0:0:0:
192,73,23699,1,0,0:0:0:0:
330,193,23985,5,2,0:0:0:0:
359,279,24128,1,2,0:0:0:0:
270,262,24270,1,2,0:0:0:0:
151,159,24556,5,2,0:0:0:0:
62,176,24699,1,2,0:0:0:0:
91,90,24842,1,2,0:0:0:0:
270,262,25128,5,2,0:0:0:0:
91,90,25413,2,0,B|116:86|134:74|146:57|146:57|154:77|173:104|211:119|253:113,1,180,0|2,0:0|0:0,0:0:0:0:
233,20,26270,5,2,0:0:0:0:
317,64,26413,1,2,0:0:0:0:
239,208,26699,5,2,0:0:0:0:
320,158,26842,1,2,0:0:0:0:
236,114,27128,5,2,0:0:0:0:
351,229,27413,6,2,L|370:219,3,22.5
351,229,27699,2,0,B|330:230|312:240|312:240|291:209|249:194|214:202,1,135
235,295,28270,2,0,P|180:283|148:251,1,90
144,175,29128,2,0,P|138:219|155:261,2,90
230,199,29985,6,0,B|241:196|253:196|262:199|262:199|288:202|312:186|321:177,1,90
253,114,30413,1,0,0:0:0:0:
167,137,30556,1,0,0:0:0:0:
378,237,30842,2,0,P|430:224|370:226,1,180
309,148,31699,2,0,P|327:127|346:115,2,45
201,258,32270,6,0,P|164:285|111:291,1,90
128,197,32842,2,0,P|105:197|81:186,1,45
217,164,33270,1,0,0:0:0:0:
217,164,33342,1,0,0:0:0:0:
217,164,33413,2,0,P|259:147|312:155,1,90
272,241,33985,2,0,P|316:246|366:225,1,90
302,151,34413,1,0,0:0:0:0:
302,151,34556,6,0,P|258:147|217:164,1,90
71,271,35128,1,0,0:0:0:0:
115,348,35270,1,0,0:0:0:0:
71,271,35413,2,0,B|60:232|60:232|98:231|131:210|159:184|170:139,1,180
52,112,36270,1,0,0:0:0:0:
165,153,36556,1,0,0:0:0:0:
242,245,36842,5,0,0:0:0:0:
283,133,37413,2,0,P|290:87|272:44,2,90
241,244,38270,2,0,P|233:288|249:330,2,90
165,153,39128,6,0,P|129:123|85:115,1,90
89,210,39556,1,0,0:0:0:0:
89,210,39699,1,0,0:0:0:0:
242,245,39985,2,0,P|303:230|343:123,1,180
251,149,40842,2,0,L|217:118,2,45
394,257,41413,5,0,0:0:0:0:
229,326,41699,1,0,0:0:0:0:
238,237,41985,2,0,L|243:189,1,45
229,326,42413,1,0,0:0:0:0:
229,326,42485,1,0,0:0:0:0:
229,326,42556,2,0,P|178:307|156:274,1,90
238,237,43128,1,0,0:0:0:0:
310,289,43413,1,0,0:0:0:0:
238,237,43556,6,0,B|213:225|204:199|211:173|214:150|193:125|182:113,1,135
114,180,44270,1,0,0:0:0:0:
186,117,44413,1,0,0:0:0:0:
114,180,44556,2,0,B|124:200|148:207|148:207|145:233|154:260|170:278|200:292|235:293|263:291|281:280|296:243|297:199|261:168|211:172|192:190|187:217|198:232|237:241,1,360
215,232,45985,5,2,0:0:0:0:
333,96,46270,1,2,0:0:0:0:
359,181,46556,1,2,0:0:0:0:
333,96,46699,1,2,0:0:0:0:
390,266,46985,1,2,0:0:0:0:
121,151,47699,5,2,0:0:0:0:
56,199,47985,1,2,0:0:0:0:
110,76,48128,1,2,0:0:0:0:
189,184,48270,1,2,0:0:0:0:
189,184,49699,5,2,0:0:0:0:
306,251,49985,1,2,0:0:0:0:
246,218,50128,1,2,0:0:0:0:
366,284,50270,1,2,0:0:0:0:
366,284,50413,1,2,0:0:0:0:
216,334,50556,6,0,P|161:332|128:313,1,90
91,237,50985,2,0,P|101:280|130:315,1,90
192,242,51413,1,0,0:0:0:0:
168,150,51699,2,0,P|223:152|256:170,1,90
292,246,52128,2,0,P|281:202|252:168,1,90
192,242,52556,1,0,0:0:0:0:
352,324,52842,6,0,P|383:284|390:241,1,90
333,170,53270,2,0,P|302:210|294:253,1,90
390,246,53699,1,0,0:0:0:0:
245,138,53985,2,0,P|194:131|154:146,1,90
121,231,54413,2,0,P|171:237|211:222,1,90
158,143,54842,1,0,0:0:0:0:
428,147,55128,6,0,P|398:184|390:234,1,99.0000030212403
389,233,55556,2,0,P|419:196|427:146,1,99.0000030212403
427,146,55985,1,0,0:0:0:0:
230,160,56270,2,0,P|212:115|173:83,1,99.0000030212403
175,83,56698,2,0,P|192:127|231:159,1,99.0000030212403
231,159,57128,1,0,0:0:0:0:
151,345,57413,6,0,P|198:352|245:334,1,99.0000030212403
245,333,57842,2,0,P|206:303|188:257,1,99.0000030212403
185,158,58270,1,0,0:0:0:0:
329,36,58556,2,0,P|358:73|366:122,1,99.0000030212403
367,123,58985,2,0,P|321:105|272:111,1,99.0000030212403
185,158,59413,1,0,0:0:0:0:
73,192,59699,6,0,B|61:179|47:160|44:140|45:124|49:108|47:96|34:82,1,112.5
141,125,60128,1,0,0:0:0:0:
186,227,60270,2,0,P|206:250|230:264,1,56.25
341,270,60556,2,0,P|365:283|383:305,1,56.25
278,365,60842,2,0,P|238:329|225:271,1,112.5
290,168,61270,1,0,0:0:0:0:
404,175,61413,1,0,0:0:0:0:
341,270,61699,5,0,0:0:0:0:
341,270,61842,1,0,0:0:0:0:
341,270,61985,2,0,L|291:168,1,112.5
314,82,62413,1,0,0:0:0:0:
375,143,62556,2,0,L|400:194,2,56.25
314,82,62985,1,0,0:0:0:0:
314,82,63056,1,0,0:0:0:0:
314,82,63128,2,0,P|254:48|202:54,1,112.5
239,142,63699,5,0,0:0:0:0:
258,323,63985,1,0,0:0:0:0:
349,165,64270,1,0,0:0:0:0:
183,239,64556,1,0,0:0:0:0:
361,277,64842,1,0,0:0:0:0:
239,142,65128,5,2,0:0:0:0:
183,239,65270,1,2,0:0:0:0:
239,142,65413,1,2,0:0:0:0:
349,165,65699,5,2,0:0:0:0:
361,277,65842,1,2,0:0:0:0:
349,165,65985,1,2,0:0:0:0:
258,323,66270,5,2,0:0:0:0:
126,142,66556,2,0,P|129:204|165:249,2,112.5,0|0|2,0:0|0:0|0:0,0:0:0:0:
220,167,67413,5,2,0:0:0:0:
297,317,67556,1,2,0:0:0:0:
336,199,67842,5,2,0:0:0:0:
186,276,67985,1,2,0:0:0:0:
286,155,68270,5,2,0:0:0:0:
234,315,68556,1,2,0:0:0:0:
121,189,68842,6,0,P|127:134|160:99,1,90
203,172,69270,1,0,0:0:0:0:
230,91,69413,2,0,P|267:114|287:154,2,84.375
217,293,70270,1,0,0:0:0:0:
217,293,70413,1,0,0:0:0:0:
217,293,70556,2,0,L|227:337,1,45
307,220,70842,5,0,0:0:0:0:
307,220,70985,1,0,0:0:0:0:
307,220,71128,2,0,L|263:232,1,45
202,172,71413,1,0,0:0:0:0:
202,172,71556,1,0,0:0:0:0:
202,172,71699,2,0,L|245:159,1,45
267,76,71985,2,0,L|223:88,1,45
139,111,72270,6,0,P|114:148|113:193,1,90
202,172,72842,2,0,P|221:148|226:125,2,45
113,193,73413,2,0,P|88:229|86:274,1,90
148,335,73842,1,0,0:0:0:0:
231,357,73985,1,0,0:0:0:0:
306,161,74270,5,2,0:0:0:0:
143,116,74413,1,2,0:0:0:0:
306,161,74556,1,2,0:0:0:0:
246,224,74842,5,2,0:0:0:0:
409,269,74985,1,2,0:0:0:0:
245,223,75128,2,0,P|228:202|218:176,2,45,2|0|2,0:0|0:0|0:0,0:0:0:0:
194,90,75699,6,0,P|148:120|129:171,2,90,0|0|2,0:0|0:0|0:0,0:0:0:0:
219,174,76556,5,2,0:0:0:0:
409,269,76699,1,2,0:0:0:0:
423,107,76985,5,2,0:0:0:0:
246,224,77128,1,2,0:0:0:0:
416,184,77413,5,0,0:0:0:0:
190,184,77699,6,2,L|169:191,3,22.5
190,184,77985,2,0,B|207:180|215:168|215:168|220:134|245:109|273:100,1,112.5
298,180,78413,2,0,B|322:202|322:202|321:252|362:296|414:297,1,168.75
417,202,79128,1,0,0:0:0:0:
417,202,79413,2,0,P|421:142|393:96,1,112.5
320,40,79842,1,0,0:0:0:0:
231,75,79985,1,0,0:0:0:0:
294,230,80270,6,0,P|242:255|183:248,1,112.5
226,156,80699,1,0,0:0:0:0:
188,250,80985,1,2,0:0:0:0:
188,250,81056,1,2,0:0:0:0:
188,250,81128,2,0,P|244:254|294:230,1,112.5,2|0,0:0|0:0,0:0:0:0:
226,156,81628,1,2,0:0:0:0:
226,156,81699,2,0,P|170:151|120:176,1,112.5,2|0,0:0|0:0,0:0:0:0:
188,250,82128,1,0,0:0:0:0:
188,250,82270,1,0,0:0:0:0:
365,48,82556,5,0,0:0:0:0:
353,317,82842,2,0,P|334:339|307:352,1,56.25
290,237,83128,2,0,P|261:231|236:214,1,56.25
177,137,83413,1,0,0:0:0:0:
163,37,83556,1,0,0:0:0:0:
257,75,83699,2,0,P|308:99|368:89,1,112.5
323,1,84128,1,0,0:0:0:0:
257,75,84270,2,0,L|221:117,1,56.25
234,217,84556,2,0,L|270:259,1,56.25
314,155,84842,6,0,P|270:123|211:119,1,112.5
234,217,85413,1,0,0:0:0:0:
354,123,85556,1,0,0:0:0:0:
234,217,85699,1,0,0:0:0:0:
234,217,85985,2,0,B|211:193|205:147|205:147|199:159|188:170|176:177,1,112.5
341,137,86413,2,0,P|365:187|362:255,1,112.5
234,217,86842,6,2,L|215:237,3,28.125
234,217,87128,2,0,P|178:208|138:170,1,112.5
124,70,87556,2,0,P|141:40|144:17,2,56.25
44,132,87985,2,0,P|37:195|63:240,1,112.5
326,250,88556,2,0,L|374:214,1,56.25
356,117,88842,2,0,L|404:81,1,56.25
450,153,89128,2,0,P|471:192|472:235,1,84.375
472,231,89413,6,0,L|455:287,1,56.25
372,217,89699,1,0,0:0:0:0:
372,217,89842,2,0,P|354:196|342:166,1,56.25
325,69,90128,1,2,0:0:0:0:
325,69,90199,1,2,0:0:0:0:
325,69,90270,2,0,P|271:96|244:138,1,112.5,2|0,0:0|0:0,0:0:0:0:
208,234,90770,1,2,0:0:0:0:
207,233,90842,2,0,P|176:279|126:303,1,112.5,2|0,0:0|0:0,0:0:0:0:
108,202,91271,1,0,0:0:0:0:
186,136,91413,1,0,0:0:0:0:
381,201,91699,6,0,P|432:178|461:132,1,112.5
363,101,92128,1,0,0:0:0:0:
285,166,92270,2,0,L|242:205,1,56.25
302,266,92556,2,0,L|259:305,1,56.25
164,267,92842,1,0,0:0:0:0:
164,267,93128,1,0,0:0:0:0:
147,165,93270,1,0,0:0:0:0:
226,99,93413,6,0,P|281:101|326:133,1,112.5
246,198,93842,1,0,0:0:0:0:
164,267,93985,1,0,0:0:0:0:
130,65,94270,1,0,0:0:0:0:
130,65,94556,1,0,0:0:0:0:
164,267,94699,1,0,0:0:0:0:
130,65,94842,1,0,0:0:0:0:
321,136,95128,2,0,B|385:161|389:243,1,112.5
276,237,95556,2,0,B|277:295|341:321,1,112.5
387,220,95984,1,0,0:0:0:0:
387,220,96270,6,0,P|369:158|302:122,1,125.999996154785
195,102,96699,1,0,0:0:0:0:
232,225,96842,1,2,0:0:0:0:
232,225,97128,2,0,P|201:243|171:244,1,62.9999980773926,2|0,0:0|0:0,0:0:0:0:
49,221,97413,2,0,P|21:206|3:180,2,62.9999980773926
49,221,97842,1,0,0:0:0:0:
195,102,97985,2,0,P|250:147|265:198,1,125.999996154785,0|0,2:0|2:0,2:0:0:0:
153,205,98556,6,0,P|215:220|280:180,1,125.999996154785,2|0,0:0|0:0,0:0:0:0:
357,101,98985,1,0,0:0:0:0:
231,71,99128,2,0,L|249:131,1,62.9999980773926,2|0,0:0|0:0,0:0:0:0:
287,256,99413,2,0,L|305:316,2,62.9999980773926,2|0|0,0:0|0:0|0:0,0:0:0:0:
249,131,99842,1,0,0:0:0:0:
249,131,99985,2,0,L|309:145,1,62.9999980773926,2|0,0:0|0:0,0:0:0:0:
432,175,100270,2,0,B|421:192|412:216|413:236|413:236|393:246|373:264|356:286,1,125.999996154785,0|2,0:0|0:0,0:0:0:0:
158,128,100842,6,0,P|135:196|147:247,1,125.999996154785
262,195,101270,1,0,0:0:0:0:
158,128,101413,2,0,P|143:97|142:65,2,62.9999980773926
268,71,101842,1,0,0:0:0:0:
372,138,101985,1,0,0:0:0:0:
366,262,102128,2,0,P|363:294|347:323,2,62.9999980773926
256,319,102556,2,0,P|197:298|158:249,1,125.999996154785
158,129,103128,6,0,P|146:67|168:9,1,125.999996154785,2|0,0:0|0:0,0:0:0:0:
272,77,103556,1,0,0:0:0:0:
372,138,103699,2,0,P|399:154|433:161,1,62.9999980773926,2|0,0:0|0:0,0:0:0:0:
429,249,103985,2,0,P|459:255|487:270,2,62.9999980773926,2|0|0,0:0|0:0|0:0,0:0:0:0:
304,243,104413,1,0,0:0:0:0:
372,138,104556,1,2,0:0:0:0:
247,132,104699,1,0,0:0:0:0:
247,132,104842,2,0,P|197:170|176:228,1,125.999996154785,0|2,0:0|0:0,0:0:0:0:
354,128,105413,6,0,P|377:196|365:247,1,125.999996154785
250,195,105841,1,0,0:0:0:0:
354,128,105984,2,0,P|368:97|369:65,2,62.9999980773926
244,71,106413,1,0,0:0:0:0:
140,138,106556,1,0,0:0:0:0:
250,195,106699,2,0,P|282:189|310:172,2,62.9999980773926
140,138,107128,2,0,P|124:198|142:257,1,125.999996154785
354,128,107699,6,0,P|348:174|316:213,1,94.499997116089
273,142,107985,2,0,L|229:95,1,62.9999980773926
192,170,108270,2,0,L|235:215,1,62.9999980773926
197,288,108556,2,0,L|153:242,2,62.9999980773926
278,261,108985,1,0,0:0:0:0:
295,177,109128,1,0,0:0:0:0:
268,95,109270,1,0,0:0:0:0:
278,261,109556,1,0,0:0:0:0:
268,95,109699,1,0,0:0:0:0:
129,186,109985,5,0,0:0:0:0:
129,186,110270,1,0,0:0:0:0:
268,95,110413,1,0,0:0:0:0:
268,95,110699,1,0,0:0:0:0:
278,261,110842,2,0,P|334:316|390:333,1,135.000005149842
417,170,111270,2,0,L|454:112,2,67.5000025749208
278,261,111699,1,0,0:0:0:0:
194,244,111842,1,0,0:0:0:0:
130,188,111985,1,0,0:0:0:0:
267,96,112270,6,0,B|301:93|301:93|318:65|351:42|399:41,1,135.000005149842
396,155,112699,2,0,P|396:216|370:268,1,112.5
130,188,113413,2,0,L|110:178,3,22.5
440,53,115136,5,0,0:0:0:0:
440,53,115421,1,0,0:0:0:0:
440,53,115707,2,0,P|441:101|421:140,2,90
349,78,117136,5,0,0:0:0:0:
325,169,117278,1,0,0:0:0:0:
234,194,117421,2,0,P|257:235|295:258,2,90
258,103,118279,1,0,0:0:0:0:
258,103,118564,2,0,P|209:102|171:123,1,90
234,194,119136,1,0,0:0:0:0:
234,194,119421,1,0,0:0:0:0:
422,137,119707,6,0,P|461:165|482:208,1,90
389,227,120278,2,0,P|384:273|369:304,1,72
294,242,120850,2,0,P|269:257|236:263,1,53.9999983520508
233,167,121421,2,0,P|215:158|198:144,1,36
268,76,121850,5,0,0:0:0:0:
268,76,121921,1,0,0:0:0:0:
268,76,121993,2,0,P|308:103|328:143,1,90
233,167,122421,1,0,0:0:0:0:
233,167,122493,1,0,0:0:0:0:
233,167,122564,1,0,0:0:0:0:
142,192,122707,1,2,0:0:0:0:
394,206,123136,1,2,0:0:0:0:
118,287,124278,5,0,0:0:0:0:
118,287,124564,1,0,0:0:0:0:
118,287,124850,2,0,P|86:254|72:205,1,90
173,203,125421,1,0,0:0:0:0:
394,287,126278,5,0,0:0:0:0:
394,287,126421,1,0,0:0:0:0:
394,287,126564,2,0,P|426:254|440:205,1,90
339,203,126993,1,0,0:0:0:0:
248,228,127135,2,0,P|247:182|270:136,1,90
282,57,127707,2,0,P|283:101|264:142,1,90
190,83,128278,1,0,0:0:0:0:
394,287,128850,6,0,P|441:269|470:231,1,90
383,192,129421,2,0,P|390:142|381:111,1,72
295,154,129993,2,0,P|270:130|248:120,1,53.9999983520508
218,211,130564,2,0,P|201:215|184:222,1,36
218,211,131136,6,0,P|235:207|269:188,1,53.9999983520508
120,79,131707,2,0,P|112:123|120:153,1,72
207,116,132278,2,0,P|253:97|279:65,1,90
120,79,132850,2,0,P|115:139|138:180,1,107.999996704102
359,284,133421,6,0,P|311:263|287:233,1,90
395,97,134278,1,0,0:0:0:0:
31,197,134564,2,0,P|73:228|111:233,1,90
175,72,135421,1,0,0:0:0:0:
443,337,135707,5,2,0:0:0:0:
417,247,135850,1,2,0:0:0:0:
391,157,135993,1,2,0:0:0:0:
241,139,136278,5,2,0:0:0:0:
151,165,136421,1,2,0:0:0:0:
61,191,136564,1,2,0:0:0:0:
151,312,136850,5,2,0:0:0:0:
241,287,136993,1,2,0:0:0:0:
307,221,137135,1,2,0:0:0:0:
217,100,137278,5,2,0:0:0:0:
368,264,137421,5,2,0:0:0:0:
391,173,137564,1,2,0:0:0:0:
367,83,137707,2,2,L|393:68,3,22.5
367,83,137993,6,0,B|344:93|344:93|322:67|302:61|282:54|247:59,1,116.999994644165
270,152,138421,2,0,P|255:181|234:199,1,58.4999973220826
262,57,138850,2,0,P|210:77|176:136,1,116.999994644165
270,152,139421,1,0,0:0:0:0:
201,220,139564,1,0,0:0:0:0:
387,272,139850,1,0,0:0:0:0:
363,178,139993,1,0,0:0:0:0:
224,313,140278,5,0,0:0:0:0:
363,178,140564,1,0,0:0:0:0:
339,84,140707,1,0,0:0:0:0:
201,220,140993,1,2,0:0:0:0:
201,220,141064,1,2,0:0:0:0:
201,220,141135,2,0,P|153:255|95:259,1,116.999994644165,2|0,0:0|0:0,0:0:0:0:
120,163,141635,1,2,0:0:0:0:
120,163,141707,2,2,P|168:128|226:124,1,116.999994644165,0|0,0:0|0:0,0:0:0:0:
316,149,142135,1,0,0:0:0:0:
246,216,142278,1,0,0:0:0:0:
357,338,142564,6,0,B|375:323|386:304|393:286|393:286|411:287|434:285|450:278,1,116.999994644165
408,176,142992,1,0,0:0:0:0:
316,149,143135,2,0,L|258:132,1,58.4999973220826
339,242,143421,1,0,0:0:0:0:
362,335,143564,1,0,0:0:0:0:
431,268,143707,1,0,0:0:0:0:
120,163,143993,5,0,0:0:0:0:
120,163,144135,1,0,0:0:0:0:
120,163,144278,2,0,P|125:230|169:275,1,116.999994644165
212,189,144707,1,0,0:0:0:0:
189,96,144850,1,0,0:0:0:0:
419,335,145135,5,0,0:0:0:0:
235,282,145421,1,0,0:0:0:0:
419,335,145564,1,0,0:0:0:0:
235,282,145707,2,0,P|169:275|131:242,1,116.999994644165
212,189,146278,1,0,0:0:0:0:
281,123,146421,1,0,0:0:0:0:
327,309,146707,1,0,0:0:0:0:
235,282,146851,2,2,L|216:305,4,22.5
235,282,147135,6,0,B|238:264|238:264|216:236|216:194|238:165,1,116.999994644165
304,215,147564,1,0,0:0:0:0:
350,55,147850,1,0,0:0:0:0:
373,148,147993,1,0,0:0:0:0:
212,189,148279,2,0,P|146:182|108:149,1,116.999994644165
189,96,148707,1,0,0:0:0:0:
281,122,148850,2,0,L|339:142,1,58.4999973220826
212,189,149135,2,0,L|156:169,1,58.4999973220826
234,281,149421,6,0,P|280:316|338:320,1,116.999994644165
315,227,149849,1,0,0:0:0:0:
189,96,150135,1,2,0:0:0:0:
189,96,150207,1,2,0:0:0:0:
189,96,150278,2,0,P|131:88|79:114,1,116.999994644165,2|0,0:0|0:0,0:0:0:0:
145,183,150778,1,2,0:0:0:0:
145,183,150850,2,0,P|203:191|255:165,1,116.999994644165
189,96,151278,1,0,0:0:0:0:
189,96,151421,1,0,0:0:0:0:
419,335,151707,6,0,P|468:303|491:249,1,116.999994644165
396,242,152135,1,0,0:0:0:0:
373,149,152278,2,0,L|359:91,2,58.4999973220826
304,215,152707,1,0,0:0:0:0:
211,188,152850,2,0,P|186:136|195:78,1,116.999994644165
281,122,153278,1,0,0:0:0:0:
304,215,153421,2,0,P|273:263|218:285,1,116.999994644165
211,188,153850,1,0,0:0:0:0:
281,122,153993,5,0,0:0:0:0:
420,335,154278,1,0,0:0:0:0:
420,335,154564,1,0,0:0:0:0:
293,342,154707,1,0,0:0:0:0:
166,349,154850,1,0,0:0:0:0:
213,190,155135,2,0,P|248:140|298:121,1,116.999994644165
306,218,155564,1,0,0:0:0:0:
399,245,155707,2,0,P|364:295|314:314,1,116.999994644165
306,218,156135,1,0,0:0:0:0:
376,152,156278,5,0,0:0:0:0:
166,350,156564,1,0,0:0:0:0:
100,69,156850,1,0,0:0:0:0:
216,189,156993,1,0,0:0:0:0:
262,29,157135,1,0,0:0:0:0:
262,29,157707,2,0,B|318:76|276:84|301:100|301:100|325:118|274:128|344:197,1,180
402,243,158564,5,2,0:0:0:0:
239,282,158850,1,0,0:0:0:0:
402,243,158993,1,2,0:0:0:0:
402,243,159278,1,0,0:0:0:0:
287,121,159421,2,0,P|244:96|196:93,1,90,2|0,0:0|0:0,0:0:0:0:
76,321,159993,2,0,B|107:335|142:338|171:327|171:327|192:337|192:337|222:341|264:326|289:293,1,225,2|0,0:0|0:0,0:0:0:0:
379,150,160850,6,2,P|381:99|359:58,2,90
286,123,161707,2,2,B|248:125|227:136|210:174|162:156|156:123|166:98|181:85|209:90|216:106|205:128,2,180
425,336,164278,5,0,0:0:0:0:
309,216,164564,1,2,0:0:0:0:
471,175,164850,1,2,0:0:0:0:
471,175,165135,2,2,L|425:160,1,45
192,96,165421,6,0,P|136:108|93:155,1,112.5
191,208,165850,2,0,L|288:262,1,112.5
288,153,166278,2,0,P|271:130|247:113,1,56.25
96,43,166564,1,0,0:0:0:0:
97,265,166850,1,0,0:0:0:0:
193,320,166993,2,0,P|248:307|291:260,1,112.5
191,208,167421,2,0,P|203:182|222:162,1,56.25
383,318,167707,5,0,0:0:0:0:
382,96,167993,1,0,0:0:0:0:
285,151,168135,1,0,0:0:0:0:
93,41,168421,1,0,0:0:0:0:
189,97,168563,1,0,0:0:0:0:
383,318,168850,6,0,P|343:356|288:368,1,112.5
287,263,169278,2,0,P|311:230|349:215,1,56.25
190,318,169564,1,0,0:0:0:0:
94,263,169707,1,0,0:0:0:0:
285,151,169993,6,0,P|338:166|375:207,1,112.5
284,261,170421,1,2,0:0:0:0:
284,261,170493,1,2,0:0:0:0:
284,261,170564,2,0,L|185:206,2,112.5,2|2|2,0:0|0:0|0:0,0:0:0:0:
92,151,171421,1,0,0:0:0:0:
189,96,171564,2,0,P|242:82|295:99,1,112.5
188,206,171993,5,2,0:0:0:0:
92,151,172135,1,2,0:0:0:0:
188,206,172278,2,2,P|242:223|303:204,1,112.5
391,154,172707,1,2,0:0:0:0:
390,264,172850,2,2,P|350:302|295:314,1,112.5
475,149,173421,2,0,P|488:202|471:255,2,112.5,2|0|0,0:0|0:0|0:0,0:0:0:0:
375,200,174135,2,0,P|321:184|284:143,1,112.5,2|0,0:0|0:0,0:0:0:0:
376,90,174564,1,2,0:0:0:0:
376,90,175421,6,0,L|339:111,1,42.1875
279,145,175635,1,0,0:0:0:0:
375,200,175755,2,0,L|411:222,1,42.1875
471,255,175957,1,0,0:0:0:0:
256,192,176278,12,0,178993,0:0:0:0:
