osu file format v14

[General]
AudioFilename: audio.mp3
AudioLeadIn: 0
PreviewTime: 88628
Countdown: 0
SampleSet: Soft
StackLeniency: 0.7
Mode: 0
LetterboxInBreaks: 0
WidescreenStoryboard: 0

[Editor]
DistanceSpacing: 1.1
BeatDivisor: 2
GridSize: 8
TimelineZoom: 1.6

[Metadata]
Title:Stood In The Dark (Cut Ver.)
TitleUnicode:Stood In The Dark (Cut Ver.)
Artist:Dan Dakota
ArtistUnicode:Dan Dakota
Creator:Garden
Version:Normal
Source:
Tags:Liquicity Records We Let Em Go Yearmix 2016 drum and bass dnb instrumental electronic english
BeatmapID:3890266
BeatmapSetID:1888924

[Difficulty]
HPDrainRate:3
CircleSize:3
OverallDifficulty:4
ApproachRate:5.5
SliderMultiplier:0.999999999999999
SliderTickRate:1

[Events]
//Background and Video events
0,0,"stood_in_the_dark.jpg",0,0
//Break Periods
2,44776,54486
//Storyboard Layer 0 (Background)
//Storyboard Layer 1 (Fail)
//Storyboard Layer 2 (Pass)
//Storyboard Layer 3 (Foreground)
//Storyboard Layer 4 (Overlay)
//Storyboard Sound Samples

[TimingPoints]
439,344.827586206897,4,2,1,44,1,0
22507,-125,4,2,1,60,0,0
44576,-125,4,2,1,50,0,0
55611,-111.111111111111,4,3,1,50,0,0
61128,-111.111111111111,4,3,1,60,0,0
63887,-111.111111111111,4,2,1,60,0,0
66645,-100,4,2,1,70,0,0
83197,-111.111111111111,4,2,1,70,0,0
88714,-100,4,2,1,70,0,0
105266,-111.111111111111,4,2,1,70,0,0
108025,-100,4,2,1,70,0,0
127335,-111.111111111111,4,2,1,70,0,0
132852,-100,4,2,1,70,0,0
149404,-111.111111111111,4,2,1,60,0,0

[Colours]
Combo1 : 128,128,192
Combo2 : 0,128,192

[HitObjects]
36,193,22507,6,0,P|27:118|9:27,1,160,4|2,3:2|0:0,0:0:0:0:
175,100,23887,2,0,P|253:86|331:66,1,160,2|2,0:0|0:0,0:0:0:0:
402,120,24921,1,2,0:0:0:0:
343,185,25266,2,0,P|283:195|214:214,2,120,2|2|2,0:0|0:0|0:0,0:0:0:0:
402,120,26645,2,0,P|476:116|506:192,1,160,2|2,0:0|0:0,0:0:0:0:
393,320,28025,6,0,P|317:305|233:292,1,160,2|0,0:0|0:0,0:0:0:0:
68,349,29404,2,0,P|82:273|96:189,1,160,2|0,0:0|0:0,0:0:0:0:
164,136,30439,1,2,0:0:0:0:
118,61,30783,2,0,P|58:55|-1:48,2,120,2|2|2,0:0|0:0|0:0,0:0:0:0:
164,136,32163,2,0,P|251:128|270:55,1,160,2|0,0:0|0:0,0:0:0:0:
439,13,33542,6,0,P|426:78|411:192,1,160,4|2,3:2|0:0,0:0:0:0:
479,228,34576,2,0,P|477:286|376:307,1,160,0|2,0:0|0:0,0:0:0:0:
321,262,35611,2,0,P|279:254|221:248,1,80
181,185,36301,6,0,B|193:117|232:152|242:64,1,120,2|2,0:0|0:0,0:0:0:0:
127,13,37335,2,0,B|115:81|76:46|66:134,1,120,2|2,0:0|0:0,0:0:0:0:
3,229,38370,2,0,B|99:248|44:291|143:310,1,160,2|4,0:0|3:2,0:0:0:0:
220,285,39404,5,8,0:0:0:0:
376,365,40094,2,0,L|391:279,1,80,10|2,0:0|3:2,0:0:0:0:
473,260,40783,1,8,0:0:0:0:
422,91,41473,2,0,L|342:78,1,80,10|2,0:0|3:2,0:0:0:0:
271,27,42163,6,0,P|194:47|205:138,1,160,8|10,0:0|0:0,0:0:0:0:
256,172,43197,1,0,3:0:0:0:
278,257,43542,2,0,P|268:331|194:347,1,160,10|10,0:0|0:0,0:0:0:0:
112,315,44576,1,4,3:2:0:0:
220,173,55611,6,0,P|210:217|203:261,2,89.999997253418,4|10|2,0:2|0:2|0:2,0:0:0:0:
159,95,56645,2,0,P|89:107|5:123,2,134.999995880127,10|2|2,0:2|0:2|0:2,0:0:0:0:
239,36,58025,1,10,0:2:0:0:
302,112,58370,6,0,P|352:102|398:94,1,89.999997253418,2|10,0:2|0:2,0:0:0:0:
460,165,59059,1,2,0:2:0:0:
404,247,59404,2,0,P|407:318|477:335,2,134.999995880127,10|2|2,0:2|0:2|0:2,0:0:0:0:
460,165,60783,1,10,0:2:0:0:
390,95,61128,6,0,P|346:103|302:112,1,89.999997253418,2|8,0:2|0:2,0:0:0:0:
239,36,61818,1,2,0:2:0:0:
159,95,62163,2,0,P|148:158|135:227,2,134.999995880127,8|2|2,0:2|0:2|0:2,0:0:0:0:
239,36,63542,1,10,0:2:0:0:
302,112,63887,6,0,P|293:157|286:214,2,89.999997253418,2|10|2,3:2|1:2|0:0,0:0:0:0:
385,58,64921,1,10,1:2:0:0:
458,187,65439,2,0,P|459:276|403:297,1,134.999995880127,2|2,0:0|1:2,0:0:0:0:
339,340,66301,2,0,L|327:279,1,44.999998626709,10|2,1:2|1:2,0:0:0:0:
318,247,66645,5,4,3:2:0:0:
226,308,66990,2,0,P|179:303|101:296,1,99.9999999999999,10|2,1:2|0:0,0:0:0:0:
75,294,67507,1,0,3:0:0:0:
75,294,67680,1,10,1:2:0:0:
10,211,68025,1,0,3:0:0:0:
10,211,68197,2,0,P|17:164|33:103,1,99.9999999999999,2|2,0:0|0:0,0:0:0:0:
49,61,68714,1,0,0:0:0:0:
158,49,69059,2,0,L|172:1,2,50,10|2|2,1:2|0:0|3:2,0:0:0:0:
133,156,69749,5,10,1:2:0:0:
241,137,70094,2,0,L|262:74,1,50,2|0,0:0|3:0,0:0:0:0:
292,47,70439,2,0,P|355:43|385:80,1,99.9999999999999,10|0,1:2|3:0,0:0:0:0:
397,123,70956,1,2,0:0:0:0:
397,123,71128,1,8,1:2:0:0:
505,105,71473,2,0,P|514:152|486:192,1,99.9999999999999,0|10,0:0|1:2,0:0:0:0:
441,222,71990,1,0,0:0:0:0:
441,222,72163,6,0,P|431:272|420:333,1,99.9999999999999,4|10,3:2|1:2,0:0:0:0:
322,366,72852,2,0,P|294:360|255:355,1,50,2|0,0:0|3:0,0:0:0:0:
236,315,73197,1,10,1:2:0:0:
331,257,73542,1,0,3:0:0:0:
331,257,73714,2,0,P|338:210|354:149,1,99.9999999999999,2|2,0:0|0:0,0:0:0:0:
366,106,74232,1,2,0:0:0:0:
333,0,74576,2,0,P|279:15|268:81,1,99.9999999999999,10|2,1:2|3:2,0:0:0:0:
255,162,75266,5,10,1:2:0:0:
160,105,75611,2,0,L|80:88,1,50,2|0,0:0|3:0,0:0:0:0:
56,87,75956,2,0,P|64:130|75:194,1,99.9999999999999,10|0,1:2|3:0,0:0:0:0:
84,244,76473,1,2,0:0:0:0:
84,244,76645,1,10,1:2:0:0:
17,331,76990,2,0,P|51:364|99:359,1,99.9999999999999,2|10,0:0|1:2,0:0:0:0:
150,334,77507,1,2,0:0:0:0:
150,334,77680,5,2,3:2:0:0:
249,380,78025,1,10,1:2:0:0:
309,288,78370,2,0,L|297:239,1,50,2|0,0:0|3:0,0:0:0:0:
247,216,78714,2,0,P|218:160|242:117,1,99.9999999999999,10|0,1:2|3:0,0:0:0:0:
275,95,79232,1,2,0:0:0:0:
275,95,79404,1,10,1:2:0:0:
357,22,79749,2,0,L|406:14,1,50,2|0,0:0|3:0,0:0:0:0:
460,21,80094,2,0,P|489:77|465:120,1,99.9999999999999,10|2,1:2|3:2,0:0:0:0:
391,177,80783,5,10,1:2:0:0:
462,260,81128,2,0,L|511:253,2,50,2|0|10,0:0|3:0|1:2,0:0:0:0:
379,332,81818,1,0,3:0:0:0:
379,332,81990,2,0,P|332:338|265:349,1,99.9999999999999,2|2,0:0|0:0,0:0:0:0:
234,315,82507,2,0,P|184:323|135:329,1,99.9999999999999,2|10,0:0|1:2,0:0:0:0:
98,295,83025,1,4,0:3:0:0:
98,295,83197,6,0,B|104:211|149:257|154:158,1,134.999995880127,2|2,3:2|0:0,0:0:0:0:
58,60,84232,2,0,B|52:144|7:98|2:197,2,134.999995880127,2|2|2,0:0|0:0|0:0,0:0:0:0:
147,16,85611,1,2,1:2:0:0:
222,80,85956,6,0,B|306:74|260:29|359:24,1,134.999995880127,2|2,1:2|1:2,0:0:0:0:
428,145,86990,2,0,B|344:151|390:196|291:201,2,134.999995880127,2|2|2,1:2|0:0|0:0,0:0:0:0:
488,223,88370,2,0,P|481:260|474:317,1,89.999997253418,0|4,1:0|3:2,0:0:0:0:
380,369,89059,5,10,1:2:0:0:
297,295,89404,2,0,L|216:285,1,50,2|0,0:0|3:0,0:0:0:0:
205,322,89749,1,10,1:2:0:0:
205,322,89921,2,0,P|144:351|75:296,1,150,2|8,0:0|1:2,0:0:0:0:
62,257,90611,2,0,P|70:209|84:140,1,99.9999999999999,2|2,0:0|3:2,0:0:0:0:
118,118,91128,1,10,1:2:0:0:
181,28,91473,6,0,P|229:61|226:106,1,99.9999999999999,2|10,3:2|1:2,0:0:0:0:
223,153,91990,2,0,L|288:162,1,50,2|0,0:0|0:0,0:0:0:0:
299,266,92507,2,0,P|315:318|369:322,1,99.9999999999999,10|2,1:2|3:2,0:0:0:0:
456,284,93197,2,0,P|468:203|485:104,1,150,10|0,1:2|3:0,0:0:0:0:
486,81,93887,1,10,1:2:0:0:
382,42,94232,6,0,P|373:95|363:155,1,99.9999999999999,2|10,3:2|1:2,0:0:0:0:
360,199,94749,1,2,0:0:0:0:
360,199,94921,2,0,L|413:192,2,50,2|2|10,0:2|3:2|1:2,0:0:0:0:
258,156,95611,1,2,3:2:0:0:
272,265,95956,2,0,P|260:321|160:329,1,150,10|2,1:2|3:2,0:0:0:0:
130,314,96645,1,10,1:2:0:0:
34,259,96990,6,0,P|45:211|58:152,1,99.9999999999999,2|10,3:2|1:2,0:0:0:0:
34,110,97507,2,0,P|35:63|82:37,1,99.9999999999999,2|0,0:0|3:0,0:0:0:0:
131,46,98025,1,10,1:2:0:0:
169,149,98370,1,0,3:0:0:0:
272,112,98714,2,0,P|345:98|419:86,1,150,10|2,1:2|3:2,0:0:0:0:
474,78,99404,1,10,1:2:0:0:
464,187,99749,6,0,P|413:196|340:209,1,99.9999999999999,0|10,3:0|1:2,0:0:0:0:
315,220,100266,1,2,0:0:0:0:
315,220,100439,2,0,L|295:300,2,50,2|2|10,0:0|3:2|1:2,0:0:0:0:
270,119,101128,1,2,3:2:0:0:
165,154,101473,2,0,P|107:205|128:275,1,150,10|0,1:2|3:0,0:0:0:0:
162,305,102163,1,10,1:2:0:0:
254,364,102507,6,0,P|310:354|378:344,1,99.9999999999999,2|10,3:2|1:2,0:0:0:0:
403,368,103025,1,2,0:0:0:0:
467,279,103370,1,2,3:2:0:0:
467,279,103542,2,0,P|459:231|454:177,1,99.9999999999999,10|2,1:2|3:2,0:0:0:0:
409,148,104059,2,0,P|407:119|403:85,1,50,2|10,0:0|1:2,0:0:0:0:
441,57,104404,1,2,0:0:0:0:
441,57,104576,2,0,L|514:49,2,50,2|0|10,0:0|3:0|1:2,0:0:0:0:
349,17,105266,6,0,P|296:28|278:74,1,89.999997253418,2|2,1:2|1:2,0:0:0:0:
260,153,105956,1,2,0:0:0:0:
339,211,106301,2,0,P|353:284|288:313,2,134.999995880127,2|2|2,0:0|0:0|0:0,0:0:0:0:
260,153,107680,6,0,L|192:164,2,44.999998626709,2|0|2,1:2|3:0|3:2,0:0:0:0:
343,97,108370,2,0,L|334:37,1,50,10|2,1:2|3:2,0:0:0:0:
296,16,108714,1,2,3:2:0:0:
210,63,109059,1,10,1:2:0:0:
210,63,109232,2,0,P|160:69|78:80,1,99.9999999999999,2|2,3:2|3:2,0:0:0:0:
70,106,109749,2,0,L|75:155,1,50,10|0,1:2|3:0,0:0:0:0:
82,205,110094,1,2,3:2:0:0:
91,314,110439,2,0,L|140:309,1,50,10|2,1:2|3:2,0:0:0:0:
195,301,110783,5,4,3:2:0:0:
276,374,111128,2,0,P|309:339|282:272,1,99.9999999999999,10|2,1:2|0:0,0:0:0:0:
281,247,111645,1,0,3:0:0:0:
281,247,111818,1,10,1:2:0:0:
187,199,112163,1,0,3:0:0:0:
187,199,112335,2,0,P|174:149|213:108,1,99.9999999999999,2|2,0:0|0:0,0:0:0:0:
245,80,112852,1,2,0:0:0:0:
350,48,113197,2,0,L|363:-16,2,50,10|2|2,1:2|0:0|3:2,0:0:0:0:
324,155,113887,5,10,1:2:0:0:
429,124,114232,2,0,L|491:136,1,50,2|0,0:0|3:0,0:0:0:0:
511,175,114576,2,0,P|524:222|492:257,1,99.9999999999999,10|0,1:2|3:0,0:0:0:0:
445,281,115094,1,2,0:0:0:0:
445,281,115266,1,8,1:2:0:0:
343,324,115611,2,0,P|297:313|230:302,1,99.9999999999999,0|10,0:0|1:2,0:0:0:0:
209,270,116128,1,0,0:0:0:0:
209,270,116301,6,0,P|220:219|230:159,1,99.9999999999999,4|10,3:2|1:2,0:0:0:0:
175,75,116990,2,0,P|147:69|108:64,1,50,2|0,0:0|3:0,0:0:0:0:
71,59,117335,1,10,1:2:0:0:
5,148,117680,1,0,3:0:0:0:
5,148,117852,2,0,P|28:197|97:186,1,99.9999999999999,2|2,0:0|0:0,0:0:0:0:
124,208,118370,2,0,L|112:267,1,50,2|0,0:0|3:0,0:0:0:0:
103,310,118714,1,10,1:2:0:0:
203,354,119059,6,0,P|212:304|223:256,1,99.9999999999999,2|10,3:2|1:2,0:0:0:0:
252,149,119749,2,0,L|317:155,1,50,2|0,0:0|3:0,0:0:0:0:
346,186,120094,2,0,P|404:185|424:128,1,99.9999999999999,10|0,1:2|3:0,0:0:0:0:
437,103,120611,1,2,0:0:0:0:
437,103,120783,1,10,1:2:0:0:
342,46,121128,2,0,P|287:42|231:36,1,99.9999999999999,2|10,0:0|1:2,0:0:0:0:
195,61,121645,1,2,0:0:0:0:
195,61,121818,5,2,3:2:0:0:
251,155,122163,1,10,1:2:0:0:
149,196,122507,2,0,L|141:245,1,50,2|0,0:0|3:0,0:0:0:0:
104,286,122852,2,0,P|93:333|132:369,1,99.9999999999999,10|0,1:2|3:0,0:0:0:0:
185,378,123370,1,2,0:0:0:0:
185,378,123542,1,10,1:2:0:0:
264,301,123887,2,0,L|273:241,1,50,2|0,0:0|3:0,0:0:0:0:
233,211,124232,2,0,P|240:161|249:112,1,99.9999999999999,10|2,1:2|3:2,0:0:0:0:
308,19,124921,5,10,1:2:0:0:
388,94,125266,2,0,L|437:87,1,50,2|0,0:0|3:0,0:0:0:0:
491,78,125611,1,10,1:2:0:0:
469,189,125956,1,0,3:0:0:0:
469,189,126128,2,0,P|422:195|349:203,1,99.9999999999999,2|2,0:0|0:0,0:0:0:0:
328,237,126645,2,0,P|335:290|295:316,1,99.9999999999999,2|10,0:0|1:2,0:0:0:0:
250,322,127163,1,4,0:3:0:0:
250,322,127335,6,0,B|166:316|212:271|113:266,1,134.999995880127,4|2,3:2|0:0,0:0:0:0:
118,119,128370,2,0,B|34:125|80:170|-19:175,2,134.999995880127,2|2|2,1:2|0:0|3:2,0:0:0:0:
192,184,129749,1,2,1:2:0:0:
273,127,130094,6,0,B|267:44|222:90|218:9,2,134.999995880127,2|2|2,3:2|0:0|1:2,0:0:0:0:
192,184,131473,2,0,P|166:231|194:277,1,89.999997253418,2|2,3:2|1:2,0:0:0:0:
260,315,132163,2,0,L|311:310,1,44.999998626709,8|8,3:3|3:3,0:0:0:0:
343,280,132507,2,0,L|394:275,1,44.999998626709,10|4,1:2|0:3,0:0:0:0:
435,303,132852,5,4,3:2:0:0:
500,214,133197,1,10,1:2:0:0:
400,167,133542,2,0,L|394:117,1,50,2|0,0:0|3:0,0:0:0:0:
415,68,133887,1,10,1:2:0:0:
415,68,134059,2,0,P|378:11|290:28,1,150,2|8,0:0|1:2,0:0:0:0:
275,63,134749,2,0,P|222:69|150:77,1,99.9999999999999,2|0,0:0|3:0,0:0:0:0:
129,44,135266,1,10,1:2:0:0:
68,135,135611,5,2,3:2:0:0:
162,192,135956,2,0,P|215:186|277:178,1,99.9999999999999,10|2,1:2|0:2,0:0:0:0:
308,151,136473,2,0,L|389:141,1,50,0|10,3:0|1:2,0:0:0:0:
436,221,136990,1,2,3:2:0:0:
359,300,137335,2,0,P|309:305|259:311,1,99.9999999999999,10|2,1:2|0:0,0:0:0:0:
209,325,137852,1,0,3:0:0:0:
209,325,138025,1,10,1:2:0:0:
110,373,138370,5,2,3:2:0:0:
35,292,138714,2,0,P|30:254|73:214,1,99.9999999999999,10|2,1:2|0:0,0:0:0:0:
127,210,139232,2,0,L|140:144,1,50,0|10,3:0|1:2,0:0:0:0:
57,83,139749,1,2,3:2:0:0:
154,32,140094,2,0,P|214:24|274:16,1,99.9999999999999,10|2,1:2|0:0,0:0:0:0:
309,40,140611,1,0,3:0:0:0:
309,40,140783,1,10,1:2:0:0:
258,137,141128,6,0,P|250:179|236:260,1,99.9999999999999,2|10,3:2|1:2,0:0:0:0:
213,283,141645,2,0,P|223:335|290:338,1,99.9999999999999,2|0,0:0|3:0,0:0:0:0:
317,341,142163,1,10,1:2:0:0:
420,303,142507,1,2,3:2:0:0:
354,214,142852,2,0,P|361:169|376:102,1,99.9999999999999,10|2,1:2|0:0,0:0:0:0:
415,79,143370,1,0,3:0:0:0:
415,79,143542,2,0,P|408:31|364:12,1,99.9999999999999,10|2,1:2|3:2,0:0:0:0:
269,66,144232,6,0,P|216:60|140:55,1,99.9999999999999,10|2,1:2|0:0,0:0:0:0:
120,76,144749,1,0,3:0:0:0:
120,76,144921,1,10,1:2:0:0:
180,168,145266,1,2,3:2:0:0:
91,234,145611,2,0,P|77:318|135:350,1,150,8|0,1:2|3:0,0:0:0:0:
178,350,146301,1,10,1:2:0:0:
263,281,146645,5,2,3:2:0:0:
339,359,146990,2,0,P|401:347|453:340,1,99.9999999999999,10|2,1:2|0:2,0:0:0:0:
479,306,147507,2,0,P|475:278|472:242,1,50,0|10,3:0|1:2,0:0:0:0:
508,151,148025,1,2,3:2:0:0:
427,76,148370,2,0,P|377:83|328:92,1,99.9999999999999,10|2,1:2|0:0,0:0:0:0:
278,105,148887,1,0,3:0:0:0:
278,105,149059,1,10,1:2:0:0:
179,118,149404,6,0,P|170:60|229:13,2,134.999995880127,4|2|2,3:2|0:0|0:0,0:0:0:0:
159,215,150783,2,0,P|101:224|54:165,2,134.999995880127,2|2|2,1:2|1:2|1:2,0:0:0:0:
256,192,152163,1,2,0:0:0:0:
256,192,152335,12,4,154921,0:1:0:0:
