osu file format v14

[General]
AudioFilename: audio.mp3
AudioLeadIn: 0
PreviewTime: 88628
Countdown: 0
SampleSet: Soft
StackLeniency: 0.7
Mode: 0
LetterboxInBreaks: 0
WidescreenStoryboard: 0

[Editor]
DistanceSpacing: 0.5
BeatDivisor: 4
GridSize: 8
TimelineZoom: 2.599999

[Metadata]
Title:Stood In The Dark (Cut Ver.)
TitleUnicode:Stood In The Dark (Cut Ver.)
Artist:Dan Dakota
ArtistUnicode:Dan Dakota
Creator:Garden
Version:Insane
Source:
Tags:Liquicity Records We Let Em Go Yearmix 2016 drum and bass dnb instrumental electronic english
BeatmapID:3890265
BeatmapSetID:1888924

[Difficulty]
HPDrainRate:6
CircleSize:4
OverallDifficulty:8
ApproachRate:9
SliderMultiplier:1.8
SliderTickRate:1

[Events]
//Background and Video events
0,0,"stood_in_the_dark.jpg",0,0
//Break Periods
//Storyboard Layer 0 (Background)
//Storyboard Layer 1 (Fail)
//Storyboard Layer 2 (Pass)
//Storyboard Layer 3 (Foreground)
//Storyboard Layer 4 (Overlay)
//Storyboard Sound Samples

[TimingPoints]
439,344.827586206897,4,2,1,44,1,0
439,-400,4,2,1,44,0,0
16990,-250,4,2,1,52,0,0
22507,-133.333333333333,4,2,1,60,0,0
26645,-200,4,2,1,60,0,0
28025,-133.333333333333,4,2,1,60,0,0
39059,-100,4,2,1,60,0,0
44576,-133.333333333333,4,2,1,50,0,0
55611,-133.333333333333,4,3,1,50,0,0
61128,-100,4,3,1,60,0,0
63887,-100,4,2,1,60,0,0
65956,-83.3333333333333,4,2,1,60,0,0
66645,-83.3333333333333,4,2,1,70,0,0
68714,-111.111111111111,4,2,1,70,0,0
69404,-83.3333333333333,4,2,1,70,0,0
71473,-111.111111111111,4,2,1,70,0,0
71818,-83.3333333333333,4,2,1,70,0,0
74232,-111.111111111111,4,2,1,70,0,0
74576,-71.4285714285714,4,2,1,70,0,0
74921,-83.3333333333333,4,2,1,70,0,0
75956,-111.111111111111,4,2,1,70,0,0
77335,-83.3333333333333,4,2,1,70,0,0
83197,-111.111111111111,4,2,1,70,0,0
88025,-83.3333333333333,4,2,1,70,0,0
90611,-111.111111111111,4,2,1,70,0,0
91473,-83.3333333333333,4,2,1,70,0,0
92507,-111.111111111111,4,2,1,70,0,0
92852,-83.3333333333333,4,2,1,70,0,0
95956,-111.111111111111,4,2,1,70,0,0
96473,-83.3333333333333,4,2,1,70,0,0
97335,-111.111111111111,4,2,1,70,0,0
98025,-83.3333333333333,4,2,1,70,0,0
102507,-100,4,2,1,70,0,0
103887,-125,4,2,1,70,0,0
104576,-83.3333333333333,4,2,1,70,0,0
105266,-100,4,2,1,70,0,0
108025,-83.3333333333333,4,2,1,70,0,0
112852,-111.111111111111,4,2,1,70,0,0
113542,-83.3333333333333,4,2,1,70,0,0
115611,-111.111111111111,4,2,1,70,0,0
115956,-83.3333333333333,4,2,1,70,0,0
118370,-111.111111111111,4,2,1,70,0,0
118714,-71.4285714285714,4,2,1,70,0,0
119059,-83.3333333333333,4,2,1,70,0,0
120094,-111.111111111111,4,2,1,70,0,0
120439,-83.3333333333333,4,2,1,70,0,0
127335,-111.111111111111,4,2,1,70,0,0
128714,-100,4,2,1,70,0,0
130094,-90.9090909090909,4,2,1,70,0,0
131473,-83.3333333333333,4,2,1,70,0,0
149404,-111.111111111111,4,2,1,60,0,0
152680,-133.333333333333,4,2,1,60,0,0
153197,-166.666666666667,4,2,1,60,0,0
153542,-250,4,2,1,60,0,0

[Colours]
Combo1 : 128,128,192
Combo2 : 0,128,192

[HitObjects]
212,179,439,6,0,L|160:167,7,45,2|0|2|0|2|0|2|0,0:0|0:0|0:0|0:0|0:0|0:0|0:0|0:0,0:0:0:0:
300,205,3197,2,0,L|352:217,7,45,2|0|2|0|2|0|2|0,0:0|0:0|0:0|0:0|0:0|0:0|0:0|0:0,0:0:0:0:
78,155,5956,6,0,L|89:199,7,45,2|0|2|0|2|0|2|0,0:0|0:0|0:0|0:0|0:0|0:0|0:0|0:0,0:0:0:0:
433,228,8714,2,0,L|423:185,7,45,2|0|2|0|2|0|2|0,0:0|0:0|0:0|0:0|0:0|0:0|0:0|0:0,0:0:0:0:
29,94,11473,6,0,L|41:146,1,45,4|0,0:0|0:0,0:0:0:0:
118,182,12163,2,0,L|170:170,1,45,2|0,0:0|0:0,0:0:0:0:
219,102,12852,2,0,L|207:50,1,45,2|0,0:0|0:0,0:0:0:0:
130,14,13542,2,0,L|78:26,1,45,2|0,0:0|0:0,0:0:0:0:
303,325,14232,6,0,L|293:282,1,45,2|0,0:0|0:0,0:0:0:0:
350,212,14921,2,0,L|394:202,1,45,2|0,0:0|0:0,0:0:0:0:
472,246,15611,2,0,L|483:290,1,45,2|0,0:0|0:0,0:0:0:0:
425,359,16301,2,0,L|382:370,1,45,2|0,0:0|0:0,0:0:0:0:
487,81,16990,6,0,L|467:159,1,72,2|0,0:0|0:0,0:0:0:0:
395,202,17680,2,0,L|325:184,1,72,2|0,0:0|0:0,0:0:0:0:
261,121,18370,2,0,L|281:43,1,72,2|0,0:0|0:0,0:0:0:0:
353,0,19059,2,0,L|422:17,1,72,2|0,0:0|0:0,0:0:0:0:
233,332,19749,6,0,L|251:263,1,72,2|0,0:0|0:0,0:0:0:0:
186,199,20439,2,0,L|117:182,1,72,2|0,0:0|0:0,0:0:0:0:
42,233,21128,2,0,L|25:303,1,72,2|0,0:0|0:0,0:0:0:0:
89,366,21818,2,0,L|159:384,1,72,2|0,0:0|0:0,0:0:0:0:
4,103,22507,5,4,3:2:0:0:
4,103,22852,2,0,P|20:154|46:246,1,135.000005149842,2|0,0:0|0:0,0:0:0:0:
152,291,23370,2,0,P|141:254|128:207,1,67.5000025749208,2|0,0:0|0:0,0:0:0:0:
207,73,23714,2,0,P|143:75|117:133,1,135.000005149842,2|0,0:0|0:0,0:0:0:0:
117,133,24232,1,0,0:0:0:0:
3,189,24404,2,0,P|69:205|151:233,1,135.000005149842,2|0,0:0|0:0,0:0:0:0:
218,253,24921,2,0,P|224:288|238:339,1,67.5000025749208,2|0,0:0|0:0,0:0:0:0:
399,384,25266,6,0,P|388:325|311:318,1,135.000005149842,2|0,0:0|0:0,0:0:0:0:
322,311,25783,2,0,P|384:300|398:238,1,135.000005149842,2|0,0:0|0:0,0:0:0:0:
443,161,26301,2,0,P|476:170|510:175,1,67.5000025749208,2|0,0:0|0:0,0:0:0:0:
377,109,26645,6,0,P|396:21|481:17,2,180,2|2|2,0:0|0:0|0:0,0:0:0:0:
427,227,28197,6,0,P|433:193|443:161,2,67.5000025749208
488,283,28714,1,2,0:0:0:0:
407,311,28887,2,0,P|370:303|316:294,1,67.5000025749208,2|0,0:0|0:0,0:0:0:0:
249,300,29232,2,0,P|309:318|306:381,1,135.000005149842,2|0,0:0|0:0,0:0:0:0:
137,384,29749,2,0,P|154:318|169:241,1,135.000005149842,2|0,0:0|0:0,0:0:0:0:
167,252,30266,1,2,0:0:0:0:
274,152,30439,2,0,P|262:190|257:234,1,67.5000025749208,2|0,0:0|0:0,0:0:0:0:
81,229,30783,6,0,P|106:170|171:165,1,135.000005149842,2|0,0:0|0:0,0:0:0:0:
171,165,31301,2,0,P|106:159|81:100,1,135.000005149842,2|0,0:0|0:0,0:0:0:0:
103,18,31818,2,0,P|67:7|24:-5,1,67.5000025749208,2|0,0:0|0:0,0:0:0:0:
187,47,32163,5,2,0:0:0:0:
187,47,32507,2,0,P|196:121|207:193,1,135.000005149842,2|0,0:0|0:0,0:0:0:0:
275,0,33025,2,0,P|283:67|292:133,1,135.000005149842,2|0,0:0|0:0,0:0:0:0:
307,222,33542,5,4,3:2:0:0:
307,222,33887,2,0,P|340:215|373:211,1,67.5000025749208,2|0,0:0|0:0,0:0:0:0:
445,268,34232,1,2,0:0:0:0:
397,338,34404,2,0,P|363:343|330:347,1,67.5000025749208,2|0,0:0|0:0,0:0:0:0:
257,298,34749,2,0,P|192:308|181:371,1,135.000005149842,2|0,0:0|0:0,0:0:0:0:
307,222,35266,2,0,P|299:154|282:90,1,135.000005149842,2|0,0:0|0:0,0:0:0:0:
367,0,35783,2,0,P|367:33|374:66,1,67.5000025749208
374,66,36301,6,0,P|438:76|450:139,1,135.000005149842,2|0,0:0|0:0,0:0:0:0:
468,225,36818,2,0,P|431:219|388:210,1,67.5000025749208,2|0,0:0|0:0,0:0:0:0:
332,150,37163,1,2,0:0:0:0:
332,150,37335,2,0,P|265:138|198:130,1,135.000005149842,2|0,0:0|0:0,0:0:0:0:
27,0,37852,2,0,P|36:27|49:79,1,67.5000025749208,2|0,0:0|0:0,0:0:0:0:
138,65,38197,1,2,0:0:0:0:
138,65,38370,2,0,P|158:154|55:184,1,202.500007724762,2|0,0:0|0:0,0:0:0:0:
0,313,39059,6,0,P|94:290|199:269,1,180,4|8,3:2|0:0,0:0:0:0:
276,246,39576,2,0,P|265:289|255:343,1,90,2|0,0:0|0:0,0:0:0:0:
466,242,39921,1,2,3:2:0:0:
347,384,40094,2,0,P|357:340|368:287,1,90,10|2,0:0|0:0,0:0:0:0:
372,264,40352,1,0,0:0:0:0:
372,264,40439,6,0,P|449:229|441:145,1,180,2|8,3:2|0:0,0:0:0:0:
449,12,40956,1,2,0:0:0:0:
449,12,41042,1,2,0:0:0:0:
449,12,41128,2,0,P|436:36|429:58,2,45,2|0|0,0:0|0:0|3:0,0:0:0:0:
353,109,41473,2,0,P|309:95|248:82,1,90,10|0,0:0|0:0,0:0:0:0:
80,22,41818,6,0,P|172:55|163:132,1,180,2|8,3:2|0:0,0:0:0:0:
238,222,42335,1,2,0:0:0:0:
238,222,42421,1,2,0:0:0:0:
238,222,42507,2,0,L|258:160,2,45,2|0|0,0:0|0:0|3:0,0:0:0:0:
35,350,42852,2,0,P|122:328|210:312,1,180,10|0,0:0|3:0,0:0:0:0:
374,360,43370,5,2,0:0:0:0:
374,360,43456,1,2,0:0:0:0:
374,360,43542,2,0,P|328:367|264:380,1,90,10|0,0:0|0:0,0:0:0:0:
417,274,43887,1,2,0:0:0:0:
362,111,44059,2,0,P|353:134|346:166,1,45,2|2,3:2|0:0,0:0:0:0:
417,274,44232,2,0,P|426:228|445:170,1,90,10|0,0:0|0:0,0:0:0:0:
464,59,44576,5,4,3:2:0:0:
464,59,44921,2,0,P|442:150|347:153,1,202.500007724762,10|0,0:0|3:0,0:0:0:0:
281,99,45611,1,10,0:0:0:0:
48,325,45956,5,2,3:2:0:0:
48,325,46301,2,0,P|70:234|165:231,1,202.500007724762,10|0,0:0|3:0,0:0:0:0:
231,285,46990,1,10,0:0:0:0:
382,80,47335,5,2,3:2:0:0:
382,80,47680,2,0,L|350:286,1,202.500007724762,10|0,0:0|3:0,0:0:0:0:
402,351,48370,1,10,0:0:0:0:
130,304,48714,5,2,3:2:0:0:
130,304,49059,2,0,L|162:98,1,202.500007724762,10|0,0:0|3:0,0:0:0:0:
110,33,49749,1,10,0:0:0:0:
438,266,50094,5,2,3:2:0:0:
350,280,50439,1,10,0:0:0:0:
350,280,50956,1,0,3:0:0:0:
438,266,51128,1,10,0:0:0:0:
74,118,51473,5,2,3:2:0:0:
162,104,51818,1,10,0:0:0:0:
162,104,52335,1,0,3:0:0:0:
74,118,52507,1,10,0:0:0:0:
407,71,52852,5,2,3:2:0:0:
383,193,53197,1,10,0:0:0:0:
383,193,53714,1,0,3:0:0:0:
407,71,53887,1,10,0:0:0:0:
105,313,54232,5,2,3:2:0:0:
129,191,54576,1,10,0:0:0:0:
129,191,55094,1,0,3:0:0:0:
105,313,55266,1,10,0:0:0:0:
403,330,55611,6,0,P|373:318|329:309,1,67.5000025749208,4|0,0:2|0:0,0:0:0:0:
502,229,55956,2,0,P|490:258|481:303,1,67.5000025749208,10|0,0:2|0:0,0:0:0:0:
392,136,56301,2,0,P|421:147|466:157,1,67.5000025749208,2|0,0:2|0:0,0:0:0:0:
293,238,56645,1,10,0:2:0:0:
293,238,56818,2,0,P|304:208|314:164,1,67.5000025749208,2|0,0:2|0:0,0:0:0:0:
502,229,57163,2,0,P|490:258|481:303,1,67.5000025749208,2|8,0:2|0:2,0:0:0:0:
392,136,57507,1,0,0:0:0:0:
392,136,57680,2,0,P|421:147|466:157,1,67.5000025749208,2|0,0:2|0:0,0:0:0:0:
403,330,58025,2,0,P|373:318|329:309,1,67.5000025749208,10|0,0:2|0:0,0:0:0:0:
174,74,58370,6,0,P|141:67|110:54,1,67.5000025749208,2|0,0:2|0:0,0:0:0:0:
200,211,58714,2,0,P|207:178|220:146,1,67.5000025749208,10|0,0:2|0:0,0:0:0:0:
56,229,59059,2,0,P|89:236|121:248,1,67.5000025749208,2|0,0:2|0:0,0:0:0:0:
30,90,59404,1,10,0:2:0:0:
30,90,59576,2,0,P|22:123|11:155,1,67.5000025749208,2|0,0:2|0:0,0:0:0:0:
200,211,59921,2,0,P|207:179|219:147,1,67.5000025749208,2|8,0:2|0:2,0:0:0:0:
56,229,60266,1,0,0:0:0:0:
56,229,60439,2,0,P|88:237|120:249,1,67.5000025749208,2|0,0:2|0:0,0:0:0:0:
174,74,60783,2,0,P|141:67|109:55,1,67.5000025749208,10|0,0:2|0:0,0:0:0:0:
200,211,61128,5,2,0:2:0:0:
214,233,61214,1,0,0:0:0:0:
238,244,61301,1,0,0:0:0:0:
264,242,61387,1,0,0:0:0:0:
287,228,61473,2,0,L|304:164,3,45,8|0|0|0,0:2|0:0|0:0|0:0,0:0:0:0:
378,214,61818,5,2,0:2:0:0:
400,200,61904,1,0,0:0:0:0:
411,176,61990,1,0,0:0:0:0:
409,150,62076,1,0,0:0:0:0:
395,127,62163,2,0,L|331:110,1,45,8|0,0:2|0:0,0:0:0:0:
256,29,62335,2,0,L|299:39,3,45,2|0|0|0,0:2|0:0|0:0|0:0,0:0:0:0:
175,76,62680,6,0,L|183:120,1,45,2|0,0:2|0:0,0:0:0:0:
298,184,62852,2,0,L|306:228,1,45,10|0,0:2|0:0,0:0:0:0:
214,308,63025,1,0,0:0:0:0:
214,308,63111,1,0,0:0:0:0:
214,308,63197,2,0,L|222:352,3,45,2|0|0|0,0:2|0:0|0:0|0:0,0:0:0:0:
337,372,63542,1,10,0:2:0:0:
372,365,63628,1,0,0:0:0:0:
407,357,63714,1,0,0:0:0:0:
442,347,63801,1,0,0:0:0:0:
476,337,63887,6,0,P|468:301|460:237,1,90,2|2,3:2|0:0,0:0:0:0:
460,215,64145,1,2,0:0:0:0:
460,215,64232,1,10,1:2:0:0:
437,50,64404,1,2,0:0:0:0:
458,43,64490,1,2,0:0:0:0:
480,47,64576,1,2,0:0:0:0:
497,61,64663,1,2,0:0:0:0:
506,82,64749,1,2,0:0:0:0:
504,104,64835,1,2,0:0:0:0:
492,123,64921,2,0,L|423:138,1,45,10|0,1:2|0:0,0:0:0:0:
331,204,65094,2,0,L|374:194,1,45,2|0,0:0|0:0,0:0:0:0:
358,104,65266,5,2,1:2:0:0:
358,104,65439,2,0,P|263:124|160:143,1,180,2|0,0:0|1:0,0:0:0:0:
29,275,65956,1,2,1:2:0:0:
49,308,66042,1,2,1:2:0:0:
85,321,66128,1,2,1:2:0:0:
124,317,66214,1,2,1:2:0:0:
153,289,66301,2,0,L|164:223,1,53.9999983520508,10|0,1:2|0:0,0:0:0:0:
98,110,66473,2,0,L|88:163,1,53.9999983520508,2|0,1:2|0:0,0:0:0:0:
260,193,66645,6,0,P|270:137|281:88,1,107.999996704102,4|0,3:2|0:0,0:0:0:0:
403,310,66990,2,0,P|350:299|297:285,1,107.999996704102,10|0,1:2|0:0,0:0:0:0:
455,224,67335,1,2,0:0:0:0:
243,369,67507,1,0,3:0:0:0:
455,224,67680,2,0,P|468:115|381:100,1,215.999993408203,10|0,1:2|3:0,0:0:0:0:
228,18,68197,6,0,P|235:72|285:85,1,107.999996704102,2|8,0:0|1:2,0:0:0:0:
324,181,68542,1,2,0:0:0:0:
324,181,68628,1,2,0:0:0:0:
324,181,68714,2,0,P|307:223|298:272,1,80.9999975280763,0|0,0:0|3:0,0:0:0:0:
360,384,69059,1,10,1:2:0:0:
391,293,69232,1,2,0:0:0:0:
197,286,69404,6,0,P|146:273|68:261,1,107.999996704102,2|0,3:2|0:0,0:0:0:0:
24,37,69749,2,0,P|133:84|104:175,1,215.999993408203,10|2,1:2|0:0,0:0:0:0:
299,257,70266,1,0,3:0:0:0:
166,382,70439,2,0,P|189:277|224:175,1,215.999993408203,10|0,1:2|3:0,0:0:0:0:
366,332,70956,6,0,P|323:367|273:360,1,107.999996704102,2|8,0:0|1:2,0:0:0:0:
155,252,71301,1,2,0:0:0:0:
155,252,71387,1,2,0:0:0:0:
155,252,71473,2,0,P|197:269|246:278,1,80.9999975280763,0|0,0:0|3:0,0:0:0:0:
452,384,71818,2,0,P|466:331|474:270,1,107.999996704102,10|0,1:2|0:0,0:0:0:0:
488,184,72076,1,0,3:0:0:0:
488,184,72163,6,0,P|434:207|370:221,1,107.999996704102,4|0,3:2|0:0,0:0:0:0:
275,62,72507,2,0,P|292:111|303:167,1,107.999996704102,10|0,1:2|0:0,0:0:0:0:
196,137,72852,1,2,0:0:0:0:
359,5,73025,1,0,3:0:0:0:
196,137,73197,2,0,P|87:126|78:21,1,215.999993408203,10|0,1:2|3:0,0:0:0:0:
245,241,73714,6,0,P|291:217|302:166,1,107.999996704102,2|10,0:0|1:2,0:0:0:0:
289,70,74059,1,2,0:0:0:0:
289,70,74145,1,2,0:0:0:0:
289,70,74232,2,0,P|325:85|365:95,1,80.9999975280763,2|0,0:0|3:0,0:0:0:0:
70,36,74576,2,0,P|176:50|174:114,1,188.999994232178,10|0,1:2|0:0,0:0:0:0:
196,137,74921,6,0,P|140:169|148:234,1,107.999996704102,2|0,3:2|0:0,0:0:0:0:
23,278,75266,2,0,P|127:248|234:231,1,215.999993408203,10|2,1:2|0:0,0:0:0:0:
295,159,75783,1,0,3:0:0:0:
230,331,75956,2,0,P|306:318|333:246,1,161.999995056153,10|0,1:2|3:0,0:0:0:0:
196,137,76473,5,2,0:0:0:0:
332,245,76645,1,10,1:2:0:0:
354,80,76818,1,2,0:0:0:0:
295,159,76990,1,2,0:0:0:0:
295,159,77249,5,0,3:0:0:0:
295,159,77335,2,0,P|347:167|411:169,1,107.999996704102,10|2,1:2|0:0,0:0:0:0:
242,71,77680,6,0,P|144:69|128:190,2,215.999993408203,2|10|2,3:2|1:2|0:0,0:0:0:0:
402,169,78542,1,0,3:0:0:0:
350,0,78714,2,0,P|326:88|297:221,1,215.999993408203,10|0,1:2|3:0,0:0:0:0:
450,332,79232,6,0,P|429:279|378:272,1,107.999996704102,2|10,0:0|1:2,0:0:0:0:
242,382,79576,1,2,0:0:0:0:
242,382,79663,1,2,0:0:0:0:
242,382,79749,2,0,P|298:369|354:359,1,107.999996704102,2|0,0:0|3:0,0:0:0:0:
58,333,80094,2,0,P|111:322|163:311,1,107.999996704102,10|0,1:2|0:0,0:0:0:0:
299,209,80439,5,2,3:2:0:0:
299,209,80783,2,0,P|307:263|259:285,1,107.999996704102,10|0,1:2|0:0,0:0:0:0:
226,140,81128,1,2,0:0:0:0:
401,188,81301,1,0,3:0:0:0:
226,140,81473,2,0,P|242:25|322:25,1,215.999993408203,10|0,1:2|3:0,0:0:0:0:
496,65,81990,6,0,P|444:76|386:94,1,107.999996704102,2|10,0:0|1:2,0:0:0:0:
512,169,82335,1,2,0:0:0:0:
512,169,82421,1,2,0:0:0:0:
512,169,82507,1,2,0:0:0:0:
359,340,82680,2,0,P|367:312|375:281,1,53.9999983520508,0|0,3:0|0:0,0:0:0:0:
512,169,82852,2,0,P|497:207|479:281,1,107.999996704102,10|4,1:2|0:3,0:0:0:0:
476,311,83111,1,4,0:3:0:0:
476,311,83197,5,2,3:2:0:0:
401,188,83370,2,0,L|334:200,2,40.4999987640381,2|2|2,0:0|0:0|1:2,0:0:0:0:
512,46,83714,1,2,0:0:0:0:
495,48,83801,1,2,0:0:0:0:
479,51,83887,1,2,0:0:0:0:
463,55,83973,1,2,0:0:0:0:
447,58,84059,2,0,L|434:111,1,40.4999987640381,2|0,1:2|0:0,0:0:0:0:
340,106,84232,2,0,P|349:66|361:13,1,80.9999975280763,2|4,0:0|0:3,0:0:0:0:
267,27,84490,1,4,0:3:0:0:
255,18,84576,6,0,L|212:28,5,40.4999987640381,2|2|2|2|2|2,1:2|0:0|0:0|0:0|0:0|0:0,0:0:0:0:
135,117,85094,2,0,L|174:107,5,40.4999987640381,2|2|2|2|2|2,1:2|0:0|0:0|0:0|0:0|0:0,0:0:0:0:
276,164,85611,2,0,L|237:174,1,40.4999987640381,2|2,1:2|0:0,0:0:0:0:
147,215,85783,1,4,0:3:0:0:
147,215,85870,1,4,0:3:0:0:
147,215,85956,6,0,P|138:256|128:300,1,80.9999975280763,2|2,1:2|0:0,0:0:0:0:
197,353,86214,1,2,0:0:0:0:
211,346,86301,2,0,L|225:285,1,40.4999987640381,2|2,0:0|0:0,0:0:0:0:
317,270,86473,2,0,L|307:309,5,40.4999987640381,2|2|2|2|0|0,1:2|0:0|0:0|0:0|0:0|0:0,0:0:0:0:
391,361,86990,2,0,L|404:300,1,40.4999987640381,2|0,1:2|0:0,0:0:0:0:
418,236,87163,1,4,0:3:0:0:
418,236,87249,1,4,0:3:0:0:
418,236,87335,6,0,P|469:229|510:198,1,80.9999975280763,2|0,1:2|0:0,0:0:0:0:
403,63,87680,2,0,P|421:95|430:147,1,80.9999975280763,2|2,1:2|0:0,0:0:0:0:
348,173,87939,1,2,0:0:0:0:
334,163,88025,6,0,P|305:169|273:181,1,53.9999983520508,2|0,0:0|0:0,0:0:0:0:
264,282,88197,2,0,P|291:277|322:267,1,53.9999983520508,2|0,0:0|0:0,0:0:0:0:
265,81,88370,1,0,1:0:0:0:
219,88,88456,1,0,1:0:0:0:
184,120,88542,1,0,1:0:0:0:
173,165,88628,1,0,1:0:0:0:
188,209,88714,1,4,3:2:0:0:
188,209,89059,6,0,P|137:221|68:244,1,107.999996704102,10|2,1:2|0:0,0:0:0:0:
49,251,89318,1,2,0:0:0:0:
49,251,89404,1,2,0:0:0:0:
264,282,89576,1,0,3:0:0:0:
93,133,89749,1,10,1:2:0:0:
215,382,89921,1,2,0:0:0:0:
215,382,90007,1,2,0:0:0:0:
215,382,90094,6,0,P|249:273|286:163,1,215.999993408203,2|8,3:2|1:2,0:0:0:0:
427,49,90611,2,0,P|398:137|375:216,1,161.999995056153,2|2,0:0|3:2,0:0:0:0:
378,203,91042,1,0,3:0:0:0:
378,203,91128,1,10,1:2:0:0:
0,146,91473,6,0,P|21:48|121:48,1,215.999993408203,2|10,3:2|1:2,0:0:0:0:
84,187,91990,2,0,P|55:230|3:240,1,107.999996704102,2|0,0:0|0:0,0:0:0:0:
121,48,92335,1,0,3:0:0:0:
181,208,92507,2,0,P|200:128|224:50,2,161.999995056153,10|2|10,1:2|3:2|1:2,0:0:0:0:
166,311,93370,5,2,0:0:0:0:
166,311,93456,1,2,0:0:0:0:
166,311,93542,1,2,0:0:0:0:
296,176,93714,1,0,3:0:0:0:
244,384,93887,2,0,P|257:331|270:279,1,107.999996704102,10|0,1:2|0:0,0:0:0:0:
457,289,94232,5,2,3:2:0:0:
457,289,94576,2,0,P|433:339|347:320,1,107.999996704102,10|2,1:2|0:0,0:0:0:0:
358,349,94835,1,2,0:0:0:0:
358,349,94921,1,2,0:2:0:0:
475,199,95094,1,2,3:2:0:0:
319,86,95266,1,10,1:2:0:0:
372,254,95439,1,2,0:0:0:0:
372,254,95525,1,2,0:0:0:0:
372,254,95611,6,0,P|395:148|428:20,1,215.999993408203,2|10,3:2|1:2,0:0:0:0:
285,197,96128,2,0,P|275:244|255:309,1,80.9999975280763,2|0,0:0|0:0,0:0:0:0:
372,254,96473,1,2,3:2:0:0:
190,187,96645,2,0,P|216:107|297:110,1,161.999995056153,10|0,1:2|0:0,0:0:0:0:
319,86,96990,6,0,P|211:65|72:30,1,215.999993408203,2|10,3:2|1:2,0:0:0:0:
30,245,97507,2,0,P|69:253|109:261,1,80.9999975280763,2|0,0:0|0:0,0:0:0:0:
190,187,97852,1,0,3:0:0:0:
0,29,98025,2,0,P|96:64|88:167,1,215.999993408203,10|0,1:2|3:0,0:0:0:0:
90,163,98714,6,0,P|72:270|46:376,1,215.999993408203,10|0,1:2|0:0,0:0:0:0:
256,252,99232,1,2,3:2:0:0:
256,252,99318,1,2,3:2:0:0:
256,252,99404,2,0,P|240:204|180:188,1,107.999996704102,10|0,1:2|0:0,0:0:0:0:
220,349,99749,1,0,3:0:0:0:
220,349,100094,6,0,P|283:357|342:368,1,107.999996704102,10|2,1:2|0:0,0:0:0:0:
364,376,100352,1,2,0:0:0:0:
364,376,100439,1,2,0:0:0:0:
507,259,100611,1,2,3:2:0:0:
356,118,100783,1,10,1:2:0:0:
404,286,100956,1,2,0:0:0:0:
404,286,101042,1,2,0:0:0:0:
404,286,101128,6,0,P|418:228|443:157,1,107.999996704102,2|0,3:2|0:0,0:0:0:0:
258,17,101473,2,0,P|355:19|356:117,1,215.999993408203,10|2,1:2|0:0,0:0:0:0:
433,182,101990,1,0,3:0:0:0:
251,115,102163,2,0,P|355:86|461:65,1,215.999993408203,10|2,1:2|3:2,0:0:0:0:
461,65,102852,5,10,1:2:0:0:
257,18,103025,2,0,P|289:101|309:189,1,180,2|2,0:0|3:2,0:0:0:0:
337,363,103542,1,10,1:2:0:0:
337,363,103887,5,2,3:2:0:0:
209,292,104059,2,0,P|247:284|287:276,1,72,2|10,0:0|1:2,0:0:0:0:
309,189,104404,1,2,0:0:0:0:
309,189,104490,1,2,0:0:0:0:
309,189,104576,5,2,0:0:0:0:
122,314,104749,1,0,3:0:0:0:
309,189,104921,2,0,P|302:161|295:124,1,53.9999983520508,10|0,1:2|0:0,0:0:0:0:
274,43,105094,2,0,L|290:9,4,26.9999991760254,2|2|2|2|2,0:0|0:0|0:0|0:0|1:2,0:0:0:0:
405,217,105439,5,2,0:0:0:0:
405,217,105525,1,2,0:0:0:0:
405,217,105611,2,0,L|462:227,5,45,2|2|2|2|2|2,1:2|0:0|0:0|0:0|0:0|0:0,0:0:0:0:
512,317,106128,2,0,L|455:307,5,45,2|2|2|2|2|2,1:2|0:0|0:0|0:0|0:0|0:0,0:0:0:0:
379,341,106645,6,0,L|367:284,1,45,2|2,1:2|0:0,0:0:0:0:
271,238,106818,2,0,L|280:282,3,45,2|2|2|2,0:0|0:0|0:0|0:0,0:0:0:0:
405,217,107163,2,0,L|395:172,1,45,2|2,1:2|0:0,0:0:0:0:
287,88,107335,1,2,0:0:0:0:
291,105,107421,1,2,0:0:0:0:
295,122,107507,1,2,0:0:0:0:
300,139,107594,1,2,0:0:0:0:
305,156,107680,2,0,P|262:144|210:137,1,90,2|0,1:2|3:0,0:0:0:0:
426,88,108025,5,2,3:2:0:0:
395,173,108197,1,2,3:2:0:0:
293,0,108370,5,10,1:2:0:0:
389,190,108542,1,2,3:2:0:0:
186,222,108714,5,2,3:2:0:0:
217,137,108887,1,2,3:2:0:0:
319,310,109059,5,10,1:2:0:0:
223,120,109232,2,0,P|162:106|108:88,1,107.999996704102,2|0,3:2|3:0,0:0:0:0:
293,0,109576,1,2,3:2:0:0:
293,0,109663,1,2,3:2:0:0:
293,0,109749,2,0,P|332:45|287:93,1,107.999996704102,10|0,1:2|3:0,0:0:0:0:
389,190,110094,5,2,3:2:0:0:
223,120,110266,1,0,3:0:0:0:
428,4,110439,5,10,1:2:0:0:
217,137,110611,1,2,3:2:0:0:
483,226,110783,6,0,P|502:175|512:122,1,107.999996704102,4|0,3:2|0:0,0:0:0:0:
309,265,111128,2,0,P|360:284|413:294,1,107.999996704102,10|0,1:2|0:0,0:0:0:0:
229,339,111473,1,2,0:0:0:0:
389,190,111645,1,0,3:0:0:0:
229,339,111818,2,0,P|180:241|64:257,1,215.999993408203,10|0,1:2|3:0,0:0:0:0:
72,12,112335,6,0,P|120:29|124:80,1,107.999996704102,2|8,0:0|1:2,0:0:0:0:
12,178,112680,1,2,0:0:0:0:
12,178,112766,1,2,0:0:0:0:
12,178,112852,2,0,P|26:131|38:78,1,80.9999975280763,0|0,0:0|3:0,0:0:0:0:
84,241,113197,1,10,1:2:0:0:
160,178,113370,1,2,0:0:0:0:
271,325,113542,6,0,P|218:312|165:304,1,107.999996704102,2|0,3:2|0:0,0:0:0:0:
371,80,113887,2,0,P|277:117|283:218,1,215.999993408203,10|2,1:2|0:0,0:0:0:0:
477,250,114404,1,0,3:0:0:0:
355,384,114576,2,0,P|372:278|405:171,1,215.999993408203,10|0,1:2|3:0,0:0:0:0:
445,30,115094,6,0,P|421:76|370:79,1,107.999996704102,2|8,0:0|1:2,0:0:0:0:
411,181,115439,1,2,0:0:0:0:
411,181,115525,1,2,0:0:0:0:
411,181,115611,2,0,P|455:187|502:200,1,80.9999975280763,0|0,0:0|3:0,0:0:0:0:
293,0,115956,2,0,P|285:53|271:105,1,107.999996704102,10|0,1:2|0:0,0:0:0:0:
184,110,116214,1,0,3:0:0:0:
184,110,116301,6,0,P|128:93|62:84,1,107.999996704102,4|0,3:2|0:0,0:0:0:0:
80,295,116645,2,0,P|97:243|107:191,1,107.999996704102,10|0,1:2|0:0,0:0:0:0:
187,324,116990,1,2,0:0:0:0:
11,163,117163,1,0,3:0:0:0:
187,324,117335,2,0,P|296:313|305:208,1,215.999993408203,10|0,1:2|3:0,0:0:0:0:
423,58,117852,6,0,P|373:82|368:138,1,107.999996704102,2|10,0:0|1:2,0:0:0:0:
261,137,118197,1,2,0:0:0:0:
261,137,118283,1,2,0:0:0:0:
261,137,118370,2,0,P|225:122|185:112,1,80.9999975280763,2|0,0:0|3:0,0:0:0:0:
423,336,118714,2,0,P|428:248|344:226,1,188.999994232178,10|0,1:2|0:0,0:0:0:0:
312,222,119059,6,0,P|304:270|284:335,1,107.999996704102,2|0,3:2|0:0,0:0:0:0:
248,26,119404,2,0,P|347:29|363:127,1,215.999993408203,10|2,1:2|0:0,0:0:0:0:
362,128,119921,1,0,3:0:0:0:
203,236,120094,2,0,P|271:201|261:126,1,161.999995056153,10|0,1:2|3:0,0:0:0:0:
163,140,120611,5,2,0:0:0:0:
348,261,120783,2,0,P|416:269|477:280,1,107.999996704102,10|0,1:2|0:0,0:0:0:0:
290,340,121128,1,2,0:0:0:0:
408,179,121301,1,0,3:0:0:0:
290,340,121473,2,0,P|236:331|178:325,1,107.999996704102,10|2,1:2|0:0,0:0:0:0:
44,168,121818,6,0,P|71:269|87:390,2,215.999993408203,2|10|2,3:2|1:2|0:0,0:0:0:0:
168,130,122680,1,0,3:0:0:0:
29,43,122852,2,0,P|47:135|168:124,1,215.999993408203,10|0,1:2|3:0,0:0:0:0:
311,141,123370,6,0,P|286:91|232:90,1,107.999996704102,2|10,0:0|1:2,0:0:0:0:
211,302,123714,1,2,0:0:0:0:
211,302,123801,1,2,0:0:0:0:
211,302,123887,2,0,P|224:246|234:190,1,107.999996704102,2|0,0:0|3:0,0:0:0:0:
80,384,124232,2,0,P|91:331|102:279,1,107.999996704102,10|0,1:2|0:0,0:0:0:0:
316,342,124576,5,2,3:2:0:0:
316,342,124921,2,0,P|372:331|437:322,1,107.999996704102,10|0,1:2|0:0,0:0:0:0:
489,245,125266,1,2,0:0:0:0:
347,98,125439,1,0,3:0:0:0:
356,239,125611,2,0,P|377:138|406:18,1,215.999993408203,10|0,1:2|3:0,0:0:0:0:
210,114,126128,6,0,P|236:166|286:166,1,107.999996704102,2|10,0:0|1:2,0:0:0:0:
494,88,126473,1,2,0:0:0:0:
494,88,126559,1,2,0:0:0:0:
494,88,126645,1,2,0:0:0:0:
356,239,126818,2,0,P|362:211|372:180,1,53.9999983520508,0|0,3:0|0:0,0:0:0:0:
494,88,126990,2,0,P|477:146|462:210,1,107.999996704102,10|4,1:2|0:3,0:0:0:0:
462,231,127249,1,4,0:3:0:0:
462,231,127335,5,4,3:2:0:0:
503,356,127507,2,0,L|512:316,2,40.4999987640381,2|2|0,0:0|0:0|1:0,0:0:0:0:
396,365,127852,1,2,0:0:0:0:
396,365,127939,1,2,0:0:0:0:
396,365,128025,2,0,L|407:313,1,40.4999987640381,2|0,3:2|0:0,0:0:0:0:
356,239,128197,2,0,L|364:199,1,40.4999987640381,2|0,3:2|0:0,0:0:0:0:
465,192,128370,1,2,1:2:0:0:
486,180,128456,1,2,0:0:0:0:
499,159,128542,1,2,3:2:0:0:
500,134,128628,1,2,3:2:0:0:
486,110,128714,6,0,P|442:103|393:91,1,90,2|2,3:2|0:0,0:0:0:0:
368,77,128973,1,2,0:0:0:0:
368,77,129059,2,0,L|356:12,2,45,2|2|2,1:2|0:0|0:0,0:0:0:0:
254,18,129404,1,2,3:2:0:0:
229,7,129490,1,2,0:0:0:0:
202,10,129576,1,2,3:2:0:0:
180,26,129663,1,2,0:0:0:0:
172,51,129749,2,0,P|182:93|190:134,1,45,2|0,1:2|0:0,0:0:0:0:
299,200,129921,1,0,3:2:0:0:
299,200,130007,1,0,3:2:0:0:
299,200,130094,6,0,P|284:146|276:98,1,99.0000030212403,2|0,3:2|0:0,0:0:0:0:
316,87,130352,1,2,0:0:0:0:
316,87,130439,2,0,L|371:98,3,49.5000015106202,2|2|2|2,1:2|0:0|0:0|0:0,0:0:0:0:
461,93,130783,1,2,3:2:0:0:
478,117,130870,1,2,0:0:0:0:
473,146,130956,1,2,3:2:0:0:
455,169,131042,1,2,0:0:0:0:
426,175,131128,2,0,L|443:253,1,49.5000015106202,2|0,1:2|0:0,0:0:0:0:
404,342,131301,1,2,3:2:0:0:
404,342,131387,1,2,3:2:0:0:
404,342,131473,6,0,P|380:291|316:286,1,107.999996704102,2|0,3:2|0:0,0:0:0:0:
183,223,131818,2,0,P|236:205|289:186,1,107.999996704102,2|2,1:2|0:0,0:0:0:0:
284,187,132076,1,2,0:0:0:0:
284,187,132163,1,8,3:3:0:0:
132,145,132335,1,8,3:3:0:0:
333,280,132507,1,10,1:2:0:0:
117,157,132680,1,4,0:3:0:0:
369,2,132852,1,4,3:2:0:0:
369,2,133197,6,0,P|355:51|341:121,1,107.999996704102,10|2,1:2|0:0,0:0:0:0:
370,135,133456,1,2,0:0:0:0:
370,135,133542,1,2,0:0:0:0:
268,0,133714,1,0,3:0:0:0:
465,136,133887,1,10,1:2:0:0:
267,172,134059,1,2,0:0:0:0:
267,172,134145,1,2,0:0:0:0:
267,172,134232,6,0,P|372:197|373:297,1,215.999993408203,2|8,3:2|1:2,0:0:0:0:
179,291,134749,2,0,P|229:277|288:264,1,107.999996704102,2|2,0:0|0:2,0:0:0:0:
142,196,135094,1,0,3:0:0:0:
55,384,135266,2,0,P|67:329|88:252,1,107.999996704102,10|0,1:2|0:0,0:0:0:0:
33,71,135611,6,0,P|45:165|154:172,1,215.999993408203,2|10,3:2|1:2,0:0:0:0:
358,131,136128,1,2,0:0:0:0:
358,131,136214,1,2,0:0:0:0:
358,131,136301,1,2,0:2:0:0:
183,77,136473,1,0,3:0:0:0:
232,254,136645,2,0,P|244:199|262:128,1,107.999996704102,10|0,1:2|0:0,0:0:0:0:
447,11,136990,6,0,P|372:27|254:52,1,161.999995056153,2|0,3:2|0:0,0:0:0:0:
260,26,137335,2,0,P|191:49|188:105,1,107.999996704102,10|0,1:2|0:0,0:0:0:0:
149,175,137680,1,2,0:0:0:0:
97,6,137852,1,0,3:0:0:0:
256,148,138025,2,0,P|244:197|232:263,1,107.999996704102,10|0,1:2|3:0,0:0:0:0:
264,279,138283,1,0,3:0:0:0:
264,279,138370,6,0,P|328:266|341:217,1,107.999996704102,2|0,3:2|0:0,0:0:0:0:
473,157,138714,2,0,P|461:59|362:56,1,215.999993408203,10|2,1:2|0:0,0:0:0:0:
342,231,139232,1,0,3:0:0:0:
184,111,139404,2,0,P|235:126|288:139,1,107.999996704102,10|0,1:2|0:0,0:0:0:0:
137,10,139749,1,2,3:2:0:0:
137,10,140094,6,0,P|80:54|85:101,1,107.999996704102,10|2,1:2|0:0,0:0:0:0:
91,122,140352,1,2,0:0:0:0:
91,122,140439,1,2,0:0:0:0:
242,23,140611,1,0,3:0:0:0:
151,203,140783,2,0,P|134:252|120:319,1,107.999996704102,10|2,1:2|0:0,0:0:0:0:
148,340,141042,1,2,0:0:0:0:
148,340,141128,6,0,P|262:302|246:203,1,215.999993408203,2|10,3:2|1:2,0:0:0:0:
221,121,141645,2,0,P|271:131|333:144,1,107.999996704102,2|2,0:0|0:0,0:0:0:0:
364,324,141990,1,0,3:0:0:0:
498,253,142163,2,0,P|445:241|391:230,1,107.999996704102,10|0,1:2|0:0,0:0:0:0:
303,43,142507,6,0,P|403:42|425:140,2,215.999993408203,2|10|2,3:2|1:2|0:0,0:0:0:0:
326,142,143370,1,0,3:0:0:0:
194,11,143542,2,0,P|208:58|220:123,1,107.999996704102,10|0,1:2|0:0,0:0:0:0:
243,314,143887,1,2,3:2:0:0:
243,314,144232,6,0,P|195:294|193:242,1,107.999996704102,10|2,1:2|0:0,0:0:0:0:
208,217,144490,1,2,0:0:0:0:
208,217,144576,1,2,0:0:0:0:
348,337,144749,1,0,3:0:0:0:
413,85,144921,1,10,1:2:0:0:
313,248,145094,1,2,0:0:0:0:
313,248,145180,1,2,0:0:0:0:
313,248,145266,6,0,P|214:272|93:308,1,215.999993408203,2|8,3:2|1:2,0:0:0:0:
135,97,145783,2,0,P|186:99|214:146,1,107.999996704102,2|2,0:0|0:2,0:0:0:0:
43,149,146128,1,0,3:0:0:0:
104,304,146301,2,0,P|115:251|129:198,1,107.999996704102,10|0,1:2|0:0,0:0:0:0:
276,36,146645,6,0,P|252:139|227:263,1,215.999993408203,2|10,3:2|1:2,0:0:0:0:
400,384,147163,1,2,0:0:0:0:
400,384,147249,1,2,0:0:0:0:
400,384,147335,1,2,0:2:0:0:
338,228,147507,1,0,3:0:0:0:
201,353,147680,2,0,P|257:340|309:330,1,107.999996704102,10|0,1:2|0:0,0:0:0:0:
441,206,148025,6,0,P|366:205|351:131,1,161.999995056153,2|0,3:2|0:0,0:0:0:0:
368,100,148370,2,0,P|344:47|290:53,1,107.999996704102,10|0,1:2|0:0,0:0:0:0:
252,142,148714,1,2,0:0:0:0:
435,2,148887,1,0,3:0:0:0:
252,142,149059,2,0,P|240:191|228:257,1,107.999996704102,10|8,1:2|3:0,0:0:0:0:
229,247,149318,1,4,3:0:0:0:
229,247,149404,5,4,3:2:0:0:
159,114,149576,2,0,L|167:73,2,40.4999987640381,2|2|2,0:0|0:0|1:2,0:0:0:0:
269,42,149921,1,2,0:0:0:0:
269,42,150007,1,2,1:2:0:0:
269,42,150094,2,0,L|280:-17,2,40.4999987640381,2|2|2,0:0|0:0|1:2,0:0:0:0:
328,190,150439,1,2,0:0:0:0:
331,170,150525,1,0,1:0:0:0:
335,150,150611,1,2,0:0:0:0:
340,130,150697,1,0,1:0:0:0:
345,110,150783,6,0,P|386:100|445:88,1,80.9999975280763,2|0,1:2|0:0,0:0:0:0:
460,85,151042,1,2,0:0:0:0:
460,85,151128,2,0,L|467:40,2,40.4999987640381,2|2|2,0:0|0:0|1:2,0:0:0:0:
506,221,151473,2,0,P|487:186|449:178,1,80.9999975280763,2|0,0:0|0:0,0:0:0:0:
383,244,151818,2,0,L|369:323,1,80.9999975280763,2|0,1:2|0:0,0:0:0:0:
195,355,152163,6,0,P|213:278|294:269,1,161.999995056153,2|0,0:0|0:0,0:0:0:0:
206,147,152680,6,0,P|259:123|310:180,1,135.000005149842,2|0,0:0|0:0,0:0:0:0:
369,68,153197,6,0,P|416:104|395:157,1,107.999996704102,2|0,0:0|0:0,0:0:0:0:
407,145,153887,6,0,P|448:120|453:90,1,72,2|0,0:0|0:0,0:0:0:0:
512,46,154576,2,0,P|498:13|466:0,1,72,2|4,0:0|0:1,0:0:0:0:
