osu file format v14

[General]
AudioFilename: audio.mp3
AudioLeadIn: 0
PreviewTime: 88628
Countdown: 0
SampleSet: None
StackLeniency: 0.7
Mode: 0
LetterboxInBreaks: 0
WidescreenStoryboard: 0

[Editor]
DistanceSpacing: 1.4
BeatDivisor: 4
GridSize: 8
TimelineZoom: 1.6

[Metadata]
Title:Stood In The Dark (Cut Ver.)
TitleUnicode:Stood In The Dark (Cut Ver.)
Artist:Dan Dakota
ArtistUnicode:Dan Dakota
Creator:Garden
Version:Hard
Source:
Tags:Liquicity Records We Let Em Go Yearmix 2016 drum and bass dnb instrumental electronic english
BeatmapID:3914313
BeatmapSetID:1888924

[Difficulty]
HPDrainRate:5
CircleSize:3.8
OverallDifficulty:6
ApproachRate:7.8
SliderMultiplier:1.4
SliderTickRate:1

[Events]
//Background and Video events
0,0,"stood_in_the_dark.jpg",0,0
//Break Periods
2,44776,54832
//Storyboard Layer 0 (Background)
//Storyboard Layer 1 (Fail)
//Storyboard Layer 2 (Pass)
//Storyboard Layer 3 (Foreground)
//Storyboard Layer 4 (Overlay)
//Storyboard Sound Samples

[TimingPoints]
439,344.827586206897,4,2,1,44,1,0
22507,-125,4,2,1,60,0,0
40439,-111.111111111111,4,2,1,60,0,0
44576,-111.111111111111,4,2,1,50,0,0
55611,-100,4,3,1,50,0,0
61128,-100,4,3,1,60,0,0
63887,-100,4,2,1,60,0,0
66645,-90.9090909090909,4,2,1,70,0,0
83197,-111.111111111111,4,2,1,70,0,0
88714,-90.9090909090909,4,2,1,70,0,0
105266,-111.111111111111,4,2,1,70,0,0
108025,-100,4,2,1,70,0,0
110783,-90.9090909090909,4,2,1,70,0,0
127335,-111.111111111111,4,2,1,70,0,0
132852,-90.9090909090909,4,2,1,70,0,0
149404,-111.111111111111,4,2,1,60,0,0

[Colours]
Combo1 : 128,128,192
Combo2 : 0,128,192

[HitObjects]
120,287,22507,5,4,3:2:0:0:
120,287,22852,2,0,P|174:274|229:262,1,112,2|0,0:0|0:0,0:0:0:0:
319,252,23370,2,0,P|312:278|307:306,1,56,2|0,0:0|0:0,0:0:0:0:
378,360,23714,2,0,P|442:346|448:254,1,168,2|0,0:0|0:0,0:0:0:0:
389,189,24404,2,0,P|394:135|443:114,1,112,2|0,0:0|0:0,0:0:0:0:
442,113,24921,1,2,0:0:0:0:
321,8,25266,6,0,P|403:25|497:41,2,168,2|2|2,0:0|0:0|0:0,0:0:0:0:
150,53,26645,1,2,0:0:0:0:
150,53,26990,2,0,P|217:72|232:112,1,112,0|2,0:0|0:0,0:0:0:0:
321,101,27507,2,0,P|338:168|310:201,1,112
334,286,28025,6,0,P|298:214|218:217,1,168,2|0,0:0|0:0,0:0:0:0:
190,302,28714,2,0,P|161:290|129:279,1,56,2|2,0:0|0:0,0:0:0:0:
63,330,29059,1,0,0:0:0:0:
63,330,29232,2,0,P|48:242|33:161,2,168,2|2|2,0:0|0:0|0:0,0:0:0:0:
63,330,30439,1,2,0:0:0:0:
132,165,30783,6,0,P|112:86|24:83,2,168,2|2|2,0:0|0:0|0:0,0:0:0:0:
63,330,32163,1,2,0:0:0:0:
63,330,32507,2,0,P|149:322|167:292,1,112,2|0,0:0|0:0,0:0:0:0:
249,321,33025,2,0,P|285:242|268:211,1,112,2|0,0:0|0:0,0:0:0:0:
222,154,33542,5,4,3:2:0:0:
222,154,33887,2,0,P|282:138|346:122,1,112,2|2,0:0|0:0,0:0:0:0:
415,97,34404,2,0,L|431:35,1,56,2|0,0:0|0:0,0:0:0:0:
443,64,34749,2,0,P|428:119|412:188,1,112,2|0,0:0|0:0,0:0:0:0:
391,259,35266,2,0,P|450:277|441:338,1,112,2|0,0:0|0:0,0:0:0:0:
309,381,35956,1,0,0:0:0:0:
304,224,36301,6,0,P|323:124|345:37,1,168,2|2,0:0|0:0,0:0:0:0:
190,25,37163,1,2,0:0:0:0:
190,25,37335,2,0,P|174:107|155:189,1,168,2|2,0:0|0:0,0:0:0:0:
304,224,38197,1,2,0:0:0:0:
304,224,38370,2,0,P|323:124|345:37,1,168,2|0,0:0|0:0,0:0:0:0:
413,10,39059,5,4,3:2:0:0:
413,10,39404,2,0,P|483:34|466:113,1,168,8|2,0:0|3:2,0:0:0:0:
404,177,40094,1,10,0:0:0:0:
512,288,40439,5,2,3:2:0:0:
512,288,40783,2,0,P|470:296|429:302,1,62.9999980773926,8|2,0:0|0:0,0:0:0:0:
416,306,41042,1,2,0:0:0:0:
416,306,41128,2,0,L|426:260,2,31.4999990386963,2|0|0,0:0|0:0|3:0,0:0:0:0:
469,384,41473,1,10,0:0:0:0:
288,347,41818,5,2,3:2:0:0:
288,347,42163,2,0,P|294:308|303:268,1,62.9999980773926,8|2,0:0|0:0,0:0:0:0:
309,255,42421,1,2,0:0:0:0:
309,255,42507,2,0,L|350:248,2,31.4999990386963,2|0|0,0:0|0:0|3:0,0:0:0:0:
234,196,42852,1,10,0:0:0:0:
153,366,43197,6,0,P|94:352|86:289,1,125.999996154785,0|10,3:0|0:0,0:0:0:0:
136,218,43714,1,0,0:0:0:0:
136,218,43801,1,0,0:0:0:0:
136,218,43887,2,0,P|103:210|61:201,1,62.9999980773926,2|2,0:0|3:2,0:0:0:0:
129,126,44232,2,0,P|117:67|59:54,1,125.999996154785,10|4,0:0|3:2,0:0:0:0:
457,233,55611,6,0,P|422:237|388:244,1,70,4|0,0:2|0:0,0:0:0:0:
373,341,55956,2,0,P|338:348|304:352,1,70,10|0,0:2|0:0,0:0:0:0:
264,262,56301,2,0,P|229:266|195:273,1,70,2|0,0:2|0:0,0:0:0:0:
162,366,56645,2,0,P|95:367|57:311,1,140,10|0,0:2|0:0,0:0:0:0:
107,226,57163,2,0,P|95:157|77:76,1,140,2|0,0:2|0:0,0:0:0:0:
143,14,57680,1,2,0:2:0:0:
143,14,58025,1,10,0:2:0:0:
80,88,58197,1,0,0:0:0:0:
176,106,58370,6,0,P|210:100|245:95,1,70,2|0,0:2|0:0,0:0:0:0:
301,174,58714,2,0,P|266:179|231:184,1,70,10|0,0:2|0:0,0:0:0:0:
212,281,59059,2,0,P|246:275|281:270,1,70,2|0,0:2|0:0,0:0:0:0:
346,343,59404,2,0,P|411:346|437:285,1,140,10|0,0:2|0:0,0:0:0:0:
393,197,59921,2,0,P|410:118|427:44,1,140,2|0,0:2|0:0,0:0:0:0:
345,8,60439,1,2,0:2:0:0:
345,8,60783,1,10,0:2:0:0:
423,60,60956,1,0,0:0:0:0:
333,100,61128,6,0,P|303:95|235:83,1,70,2|0,0:2|0:0,0:0:0:0:
233,103,61387,1,0,0:0:0:0:
233,103,61473,2,0,L|225:55,3,35,8|0|0|0,0:2|0:0|0:0|0:0,0:0:0:0:
192,53,61818,2,0,L|184:5,3,35,2|0|0|0,0:2|0:0|0:0|0:0,0:0:0:0:
153,3,62163,2,0,P|88:17|80:83,1,140,8|0,0:2|0:0,0:0:0:0:
157,160,62680,5,2,0:2:0:0:
157,160,62766,1,0,0:0:0:0:
157,160,62852,2,0,L|100:173,3,35,10|0|0|0,0:2|0:0|0:0|0:0,0:0:0:0:
105,198,63197,2,0,L|48:211,3,35,2|0|0|0,0:2|0:0|0:0|0:0,0:0:0:0:
54,237,63542,2,0,L|44:283,3,35,10|0|0|0,0:2|0:0|0:0|0:0,0:0:0:0:
38,303,63887,6,0,P|110:285|191:267,1,140,2|10,3:2|1:2,0:0:0:0:
277,257,64404,1,2,0:0:0:0:
277,257,64490,1,2,0:0:0:0:
277,257,64576,2,0,L|269:291,3,35,2|2|2|2,0:0|0:0|0:0|0:0,0:0:0:0:
289,315,64921,2,0,P|323:306|357:298,1,70,10|2,1:2|0:0,0:0:0:0:
438,353,65266,1,2,1:2:0:0:
484,267,65439,2,0,P|481:201|418:179,1,140,2|0,0:0|1:0,0:0:0:0:
326,145,65956,2,0,L|315:197,2,35,2|2|2,1:2|1:2|1:2,0:0:0:0:
403,83,66301,2,0,L|488:62,1,70,10|2,1:2|1:2,0:0:0:0:
309,48,66645,6,0,P|226:66|148:83,2,154.000004699707,4|10|2,3:2|1:2|0:0,0:0:0:0:
403,83,67507,1,0,3:0:0:0:
326,145,67680,2,0,P|315:220|302:314,1,154.000004699707,10|0,1:2|3:0,0:0:0:0:
220,353,68197,1,2,0:0:0:0:
138,294,68370,1,8,1:2:0:0:
138,294,68714,2,0,P|105:301|46:313,1,77.0000023498536,0|0,0:0|3:0,0:0:0:0:
26,221,69059,1,10,1:2:0:0:
123,198,69232,1,2,0:0:0:0:
26,221,69404,6,0,P|34:183|42:145,1,77.0000023498536,2|0,3:2|0:0,0:0:0:0:
31,45,69749,2,0,P|61:111|136:107,1,154.000004699707,10|2,1:2|0:0,0:0:0:0:
218,54,70266,1,0,3:0:0:0:
128,9,70439,1,10,1:2:0:0:
331,25,70783,1,0,3:0:0:0:
331,25,70956,2,0,P|324:64|316:117,1,77.0000023498536,2|8,0:0|1:2,0:0:0:0:
408,145,71301,1,2,0:0:0:0:
321,195,71473,2,0,P|283:200|225:211,1,77.0000023498536,0|0,0:0|3:0,0:0:0:0:
171,275,71818,1,10,1:2:0:0:
274,309,71990,1,0,3:0:0:0:
274,309,72076,1,0,3:0:0:0:
274,309,72163,6,0,P|353:295|446:280,2,154.000004699707,4|10|2,3:2|1:2|0:0,0:0:0:0:
195,372,73025,1,0,3:0:0:0:
171,275,73197,2,0,P|185:189|202:99,1,154.000004699707,10|0,1:2|3:0,0:0:0:0:
129,49,73714,1,2,0:0:0:0:
43,98,73887,1,10,1:2:0:0:
43,98,74232,1,2,0:0:0:0:
108,173,74404,1,0,3:0:0:0:
19,219,74576,2,0,P|12:254|4:300,1,77.0000023498536,10|0,1:2|0:0,0:0:0:0:
84,355,74921,6,0,P|157:359|182:281,2,154.000004699707,2|10|2,3:2|1:2|0:0,0:0:0:0:
4,294,75783,1,0,3:0:0:0:
99,262,75956,2,0,P|105:226|114:181,1,77.0000023498536,10|0,1:2|0:0,0:0:0:0:
33,133,76301,1,0,3:0:0:0:
33,133,76473,2,0,P|21:48|104:27,1,154.000004699707,2|2,0:0|0:0,0:0:0:0:
156,73,76990,2,0,P|214:61|286:48,1,115.50000352478,2|0,0:0|3:0,0:0:0:0:
299,62,77335,2,0,P|292:97|284:143,1,77.0000023498536,10|2,1:2|0:0,0:0:0:0:
296,237,77680,6,0,P|266:173|182:170,2,154.000004699707,2|10|2,3:2|1:2|0:0,0:0:0:0:
219,302,78542,1,0,3:0:0:0:
313,335,78714,2,0,P|392:321|475:305,1,154.000004699707,10|0,1:2|3:0,0:0:0:0:
511,217,79232,1,2,0:0:0:0:
421,173,79404,1,10,1:2:0:0:
421,173,79749,2,0,P|430:126|440:81,1,77.0000023498536,2|0,0:0|3:0,0:0:0:0:
350,45,80094,6,0,P|448:40|471:-17,2,154.000004699707,10|2|10,1:2|3:2|1:2,0:0:0:0:
259,1,80956,1,0,0:0:0:0:
267,100,81128,2,0,P|230:104|171:114,1,77.0000023498536,2|0,0:0|3:0,0:0:0:0:
98,149,81473,2,0,P|185:154|206:226,1,154.000004699707,10|0,1:2|3:0,0:0:0:0:
308,194,81990,2,0,P|298:231|288:276,1,77.0000023498536,2|10,0:0|1:2,0:0:0:0:
197,309,82335,1,2,0:0:0:0:
278,366,82507,2,0,P|324:360|365:355,1,77.0000023498536,2|0,0:0|3:0,0:0:0:0:
480,266,82852,2,0,P|434:272|393:277,1,77.0000023498536,10|4,1:2|0:3,0:0:0:0:
378,252,83111,1,4,0:3:0:0:
378,252,83197,6,0,P|369:178|417:162,1,125.999996154785,2|2,3:2|1:2,0:0:0:0:
483,117,83714,2,0,L|493:148,2,31.4999990386963,2|2|2,0:0|0:0|0:0,0:0:0:0:
406,72,84059,2,0,P|359:63|320:56,1,62.9999980773926,2|2,1:2|0:0,0:0:0:0:
268,97,84404,1,4,0:3:0:0:
268,97,84490,1,4,0:3:0:0:
268,97,84576,2,0,P|260:53|256:24,1,62.9999980773926,2|2,1:2|0:0,0:0:0:0:
173,5,84921,1,2,0:0:0:0:
98,52,85094,2,0,P|76:112|137:146,1,125.999996154785,2|2,1:2|0:0,0:0:0:0:
203,167,85611,1,2,1:2:0:0:
150,238,85783,1,4,0:3:0:0:
150,238,85870,1,4,0:3:0:0:
150,238,85956,6,0,P|94:250|10:269,1,125.999996154785,2|2,1:2|0:0,0:0:0:0:
30,353,86473,2,0,L|0:359,2,31.4999990386963,2|2|2,1:2|0:0|0:0,0:0:0:0:
115,375,86818,2,0,P|149:369|184:362,1,62.9999980773926,0|2,0:0|1:2,0:0:0:0:
253,316,87163,1,4,0:3:0:0:
253,316,87249,1,4,0:3:0:0:
253,316,87335,2,0,P|260:346|269:385,1,62.9999980773926,2|0,1:2|0:0,0:0:0:0:
355,376,87680,1,2,1:2:0:0:
343,297,87852,1,2,0:0:0:0:
343,297,87939,1,2,0:0:0:0:
343,297,88025,2,0,L|332:253,3,31.4999990386963,2|0|2|0,0:0|0:0|0:0|0:0,0:0:0:0:
364,241,88370,2,0,L|353:197,3,31.4999990386963,0|0|0|0,1:0|1:0|1:0|1:0,0:0:0:0:
316,194,88714,5,4,3:2:0:0:
463,26,89059,2,0,P|453:65|445:102,1,77.0000023498536,10|2,1:2|0:0,0:0:0:0:
349,118,89404,1,2,0:0:0:0:
349,118,89576,2,0,P|359:79|367:42,1,77.0000023498536,0|10,3:0|1:2,0:0:0:0:
272,9,89921,1,2,0:0:0:0:
249,106,90094,2,0,P|176:118|90:133,1,154.000004699707,2|8,3:2|1:2,0:0:0:0:
73,229,90611,2,0,P|110:222|149:216,1,77.0000023498536,2|0,0:0|0:0,0:0:0:0:
220,301,90956,1,2,3:2:0:0:
220,301,91042,1,0,3:0:0:0:
220,301,91128,1,10,1:2:0:0:
220,301,91473,6,0,P|310:283|303:216,1,154.000004699707,2|10,3:2|1:2,0:0:0:0:
243,163,91990,2,0,P|249:132|261:83,1,77.0000023498536,2|0,0:0|0:0,0:0:0:0:
348,40,92335,1,0,3:0:0:0:
352,139,92507,2,0,P|435:126|510:117,1,154.000004699707,10|2,1:2|3:2,0:0:0:0:
504,117,93197,2,0,P|414:135|421:202,1,154.000004699707,10|2,1:2|0:0,0:0:0:0:
482,252,93714,1,0,3:0:0:0:
384,278,93887,2,0,P|343:283|283:290,1,77.0000023498536,10|0,1:2|0:0,0:0:0:0:
234,218,94232,6,0,P|253:143|273:69,1,154.000004699707,2|10,3:2|1:2,0:0:0:0:
190,21,94749,1,2,0:0:0:0:
190,21,94921,2,0,P|176:68|163:117,1,77.0000023498536,2|2,0:2|3:2,0:0:0:0:
140,191,95266,1,10,1:2:0:0:
68,119,95439,2,0,P|17:172|67:243,1,154.000004699707,2|0,0:0|0:0,0:0:0:0:
21,332,95956,2,0,P|96:316|172:304,1,154.000004699707,10|0,1:2|0:0,0:0:0:0:
255,247,96473,1,2,3:2:0:0:
273,349,96645,1,10,1:2:0:0:
273,349,96990,6,0,P|345:323|346:239,1,154.000004699707,2|10,3:2|1:2,0:0:0:0:
255,247,97507,2,0,P|265:208|278:168,1,77.0000023498536,2|0,0:0|0:0,0:0:0:0:
374,151,97852,1,0,3:0:0:0:
305,77,98025,2,0,P|231:89|144:102,1,154.000004699707,10|0,1:2|3:0,0:0:0:0:
152,100,98714,2,0,P|144:18|81:20,1,154.000004699707,10|0,1:2|0:0,0:0:0:0:
54,116,99232,1,2,3:2:0:0:
54,116,99318,1,2,3:2:0:0:
54,116,99404,2,0,P|59:150|69:203,1,77.0000023498536,10|0,1:2|0:0,0:0:0:0:
58,291,99749,6,0,P|89:224|163:221,1,154.000004699707,0|10,3:0|1:2,0:0:0:0:
160,325,100266,1,2,0:0:0:0:
160,325,100439,2,0,P|204:333|265:343,1,77.0000023498536,2|2,0:0|3:2,0:0:0:0:
333,361,100783,1,10,1:2:0:0:
307,263,100956,2,0,P|296:198|279:95,1,154.000004699707,2|0,0:0|0:0,0:0:0:0:
325,20,101473,2,0,P|402:22|419:99,1,154.000004699707,10|2,1:2|0:0,0:0:0:0:
400,183,101990,1,0,3:0:0:0:
500,160,102163,1,10,1:2:0:0:
500,160,102507,6,0,P|486:233|473:324,1,154.000004699707,2|10,3:2|1:2,0:0:0:0:
368,350,103025,2,0,P|374:309|380:268,1,77.0000023498536,2|0,0:0|0:0,0:0:0:0:
292,223,103370,1,2,3:2:0:0:
272,320,103542,2,0,P|191:333|109:345,1,154.000004699707,10|2,1:2|3:2,0:0:0:0:
20,361,104059,2,0,P|26:322|34:285,1,77.0000023498536,2|10,0:0|1:2,0:0:0:0:
128,249,104404,1,2,0:0:0:0:
49,186,104576,2,0,P|55:147|63:110,1,77.0000023498536,2|0,0:0|3:0,0:0:0:0:
156,72,104921,1,10,1:2:0:0:
204,171,105094,1,2,0:0:0:0:
204,171,105180,1,2,0:0:0:0:
204,171,105266,6,0,P|286:148|288:103,1,125.999996154785,2|2,1:2|1:2,0:0:0:0:
310,38,105783,1,2,0:0:0:0:
310,38,105870,1,2,0:0:0:0:
310,38,105956,2,0,L|260:27,2,31.4999990386963,2|2|2,0:0|0:0|1:2,0:0:0:0:
377,94,106301,2,0,P|429:120|409:190,1,125.999996154785,2|2,0:0|1:2,0:0:0:0:
475,250,106818,2,0,P|443:257|406:268,1,62.9999980773926,2|2,0:0|0:0,0:0:0:0:
356,333,107163,1,2,1:2:0:0:
356,333,107249,1,2,0:0:0:0:
356,333,107335,2,0,P|324:320|287:306,1,62.9999980773926,2|2,0:0|0:0,0:0:0:0:
226,257,107680,1,2,1:2:0:0:
226,257,107852,1,0,3:0:0:0:
312,210,108025,6,0,P|301:173|292:137,1,70,2|2,3:2|3:2,0:0:0:0:
196,133,108370,2,0,P|187:99|177:65,1,70,10|2,1:2|3:2,0:0:0:0:
80,67,108714,2,0,P|71:33|61:0,1,70,2|2,3:2|3:2,0:0:0:0:
0,117,109059,1,10,1:2:0:0:
0,117,109232,2,0,P|9:150|18:184,1,70,2|0,3:2|3:0,0:0:0:0:
117,182,109576,1,2,3:2:0:0:
117,182,109749,2,0,P|126:215|135:249,1,70,10|0,1:2|3:0,0:0:0:0:
233,259,110094,2,0,P|242:292|251:326,1,70,2|0,3:2|3:0,0:0:0:0:
348,336,110439,1,10,1:2:0:0:
324,241,110611,1,2,3:2:0:0:
417,271,110783,6,0,P|488:255|497:184,2,154.000004699707,4|10|2,3:2|1:2|0:0,0:0:0:0:
324,241,111645,1,0,3:0:0:0:
400,175,111818,2,0,P|386:99|365:25,1,154.000004699707,10|0,1:2|3:0,0:0:0:0:
267,2,112335,1,2,0:0:0:0:
294,102,112507,1,8,1:2:0:0:
294,102,112852,2,0,P|252:110|199:124,1,77.0000023498536,0|0,0:0|3:0,0:0:0:0:
139,179,113197,1,10,1:2:0:0:
230,220,113370,1,2,0:0:0:0:
139,179,113542,6,0,P|131:141|123:103,1,77.0000023498536,2|0,3:2|0:0,0:0:0:0:
95,6,113887,2,0,P|19:32|42:112,1,154.000004699707,10|2,1:2|0:0,0:0:0:0:
123,103,114404,1,0,3:0:0:0:
190,29,114576,1,10,1:2:0:0:
304,199,114921,1,0,3:0:0:0:
304,199,115094,2,0,P|265:206|214:220,1,77.0000023498536,2|8,0:0|1:2,0:0:0:0:
150,277,115439,1,2,0:0:0:0:
225,342,115611,2,0,P|264:335|315:321,1,77.0000023498536,0|0,0:0|3:0,0:0:0:0:
379,263,115956,1,10,1:2:0:0:
304,199,116128,1,0,3:0:0:0:
304,199,116214,1,0,3:0:0:0:
304,199,116301,6,0,P|307:124|387:111,2,154.000004699707,4|10|2,3:2|1:2|0:0,0:0:0:0:
379,263,117163,1,0,3:0:0:0:
452,195,117335,2,0,P|466:109|483:19,1,154.000004699707,10|0,1:2|3:0,0:0:0:0:
385,5,117852,1,2,0:0:0:0:
373,104,118025,2,0,P|292:89|208:79,1,154.000004699707,10|2,1:2|0:0,0:0:0:0:
146,13,118542,1,0,3:0:0:0:
120,109,118714,2,0,P|81:105|43:99,1,77.0000023498536,10|0,1:2|0:0,0:0:0:0:
15,198,119059,5,2,3:2:0:0:
15,198,119404,2,0,P|53:201|91:207,1,77.0000023498536,10|0,1:2|0:0,0:0:0:0:
189,183,119749,1,2,0:0:0:0:
120,109,119921,1,0,3:0:0:0:
91,207,120094,2,0,P|83:244|77:282,1,77.0000023498536,10|0,1:2|0:0,0:0:0:0:
149,359,120439,1,0,3:0:0:0:
149,359,120611,2,0,P|219:285|273:306,1,154.000004699707,2|0,0:0|0:0,0:0:0:0:
335,359,121128,1,2,0:0:0:0:
407,289,121301,1,0,3:0:0:0:
332,222,121473,2,0,P|338:184|346:146,1,77.0000023498536,10|2,1:2|0:0,0:0:0:0:
442,116,121818,6,0,P|458:45|397:6,2,154.000004699707,2|10|2,3:2|1:2|0:0,0:0:0:0:
346,146,122680,1,0,3:0:0:0:
305,54,122852,2,0,P|229:68|153:81,1,154.000004699707,10|0,1:2|3:0,0:0:0:0:
57,51,123370,1,2,0:0:0:0:
80,152,123542,1,10,1:2:0:0:
80,152,123887,2,0,P|88:189|95:227,1,77.0000023498536,2|0,0:0|3:0,0:0:0:0:
124,323,124232,6,0,P|84:261|4:277,2,154.000004699707,10|2|10,1:2|3:2|1:2,0:0:0:0:
204,384,125094,1,0,0:0:0:0:
220,285,125266,2,0,P|258:279|296:274,1,77.0000023498536,2|0,0:0|3:0,0:0:0:0:
390,238,125611,2,0,P|316:242|279:179,1,154.000004699707,10|0,1:2|3:0,0:0:0:0:
196,123,126128,2,0,P|186:160|176:205,1,77.0000023498536,2|10,0:0|1:2,0:0:0:0:
103,265,126473,1,2,0:0:0:0:
51,179,126645,2,0,P|61:141|69:104,1,77.0000023498536,2|0,0:0|3:0,0:0:0:0:
138,31,126990,1,10,1:2:0:0:
196,123,127163,1,4,0:3:0:0:
196,123,127249,1,4,0:3:0:0:
196,123,127335,6,0,P|256:112|327:98,1,125.999996154785,4|0,3:2|1:0,0:0:0:0:
373,28,127852,2,0,L|403:21,2,31.4999990386963,2|2|2,0:0|0:0|3:2,0:0:0:0:
319,99,128197,2,0,P|328:146|335:185,1,62.9999980773926,2|2,3:2|1:2,0:0:0:0:
421,198,128542,1,2,3:2:0:0:
421,198,128628,1,2,3:2:0:0:
421,198,128714,2,0,P|426:228|432:259,1,62.9999980773926,2|2,3:2|0:0,0:0:0:0:
447,347,129059,1,2,1:2:0:0:
361,324,129232,2,0,P|329:319|298:315,1,62.9999980773926,2|2,0:0|3:2,0:0:0:0:
232,257,129576,1,2,3:2:0:0:
212,343,129749,2,0,P|180:338|149:334,1,62.9999980773926,2|0,1:2|3:2,0:0:0:0:
125,360,130007,1,0,3:2:0:0:
125,360,130094,6,0,P|61:321|87:272,1,125.999996154785,2|2,3:2|1:2,0:0:0:0:
51,197,130611,2,0,L|19:193,2,31.4999990386963,2|2|2,0:0|0:0|3:2,0:0:0:0:
136,218,130956,2,0,P|141:187|147:156,1,62.9999980773926,2|2,3:2|1:2,0:0:0:0:
80,116,131301,1,2,3:2:0:0:
80,116,131387,1,2,3:2:0:0:
80,116,131473,2,0,P|86:85|91:54,1,62.9999980773926,2|0,3:2|0:0,0:0:0:0:
168,11,131818,2,0,P|238:22|249:78,1,125.999996154785,2|8,1:2|3:3,0:0:0:0:
238,155,132335,1,8,3:3:0:0:
320,125,132507,1,10,1:2:0:0:
306,212,132680,1,4,0:3:0:0:
388,182,132852,5,4,3:2:0:0:
452,384,133197,2,0,P|460:347|469:309,1,77.0000023498536,10|2,1:2|0:0,0:0:0:0:
382,274,133542,1,2,0:0:0:0:
382,274,133714,2,0,P|372:313|364:350,1,77.0000023498536,0|10,3:0|1:2,0:0:0:0:
268,384,134059,1,2,0:0:0:0:
199,310,134232,2,0,P|218:231|239:144,1,154.000004699707,2|8,3:2|1:2,0:0:0:0:
255,62,134749,2,0,P|218:69|178:74,1,77.0000023498536,2|2,0:0|0:2,0:0:0:0:
86,34,135094,1,0,3:0:0:0:
101,136,135266,1,10,1:2:0:0:
101,136,135611,6,0,P|21:160|25:228,1,154.000004699707,2|10,3:2|1:2,0:0:0:0:
119,234,136128,2,0,P|108:270|98:308,1,77.0000023498536,2|2,0:0|0:2,0:0:0:0:
177,370,136473,1,0,3:0:0:0:
211,276,136645,2,0,P|294:263|369:254,1,154.000004699707,10|2,1:2|3:2,0:0:0:0:
363,254,137335,2,0,P|291:256|269:188,1,154.000004699707,10|2,1:2|0:0,0:0:0:0:
362,152,137852,1,0,3:0:0:0:
284,88,138025,2,0,P|246:94|205:101,1,77.0000023498536,10|0,1:2|3:0,0:0:0:0:
178,109,138283,1,0,3:0:0:0:
178,109,138370,6,0,P|155:40|84:43,1,154.000004699707,2|10,3:2|1:2,0:0:0:0:
35,130,138887,2,0,P|27:171|20:241,1,77.0000023498536,0|2,0:0|0:0,0:0:0:0:
80,288,139232,1,0,3:0:0:0:
134,204,139404,2,0,P|172:198|213:191,1,77.0000023498536,10|0,1:2|0:0,0:0:0:0:
295,254,139749,1,2,3:2:0:0:
295,254,140094,2,0,P|308:171|324:80,1,154.000004699707,10|2,1:2|0:0,0:0:0:0:
386,26,140611,1,0,3:0:0:0:
462,90,140783,2,0,P|455:126|447:180,1,77.0000023498536,10|2,1:2|0:0,0:0:0:0:
458,265,141128,6,0,P|432:200|341:200,1,154.000004699707,2|10,3:2|1:2,0:0:0:0:
302,275,141645,2,0,P|263:280|226:288,1,77.0000023498536,2|2,0:0|0:0,0:0:0:0:
183,379,141990,1,0,3:0:0:0:
115,304,142163,2,0,P|131:221|148:133,1,154.000004699707,10|2,1:2|3:2,0:0:0:0:
144,152,142852,2,0,P|82:123|98:41,1,154.000004699707,10|2,1:2|0:0,0:0:0:0:
181,3,143370,1,0,3:0:0:0:
224,92,143542,2,0,P|258:87|311:77,1,77.0000023498536,10|0,1:2|0:0,0:0:0:0:
393,116,143887,6,0,P|323:110|289:186,1,154.000004699707,2|10,3:2|1:2,0:0:0:0:
385,214,144404,1,2,0:0:0:0:
385,214,144576,2,0,P|376:252|370:300,1,77.0000023498536,2|0,0:0|3:0,0:0:0:0:
411,381,144921,1,10,1:2:0:0:
479,307,145094,2,0,P|489:230|502:154,1,154.000004699707,2|0,0:0|0:0,0:0:0:0:
508,54,145611,2,0,P|474:118|402:114,1,154.000004699707,8|2,1:2|0:2,0:0:0:0:
328,46,146128,1,0,3:0:0:0:
306,146,146301,1,10,1:2:0:0:
306,146,146645,6,0,P|236:132|142:119,1,154.000004699707,2|10,3:2|1:2,0:0:0:0:
56,146,147163,2,0,P|65:102|74:63,1,77.0000023498536,2|2,0:0|0:2,0:0:0:0:
154,120,147507,1,0,3:0:0:0:
128,217,147680,2,0,P|134:290|207:313,1,154.000004699707,10|2,1:2|3:2,0:0:0:0:
273,243,148197,2,0,P|313:237|351:232,1,77.0000023498536,2|10,0:0|1:2,0:0:0:0:
434,285,148542,1,0,0:0:0:0:
364,356,148714,2,0,P|323:361|286:367,1,77.0000023498536,2|0,0:0|3:0,0:0:0:0:
202,314,149059,1,10,1:2:0:0:
273,243,149232,1,8,3:0:0:0:
273,243,149318,1,4,3:0:0:0:
273,243,149404,6,0,P|259:171|205:167,1,125.999996154785,4|2,3:2|1:2,0:0:0:0:
147,216,149921,1,2,0:0:0:0:
147,216,150007,1,2,1:2:0:0:
147,216,150094,2,0,L|136:262,2,31.4999990386963,2|2|2,0:0|0:0|1:2,0:0:0:0:
89,149,150439,2,0,L|96:118,3,31.4999990386963,2|0|2|0,0:0|1:0|0:0|1:0,0:0:0:0:
81,89,150783,2,0,P|108:27|177:36,1,125.999996154785,2|2,1:2|0:0,0:0:0:0:
237,86,151301,1,2,1:2:0:0:
237,86,151387,1,2,0:0:0:0:
237,86,151473,2,0,P|271:80|312:71,1,62.9999980773926,2|0,0:0|0:0,0:0:0:0:
396,142,151818,2,0,P|365:147|335:154,1,62.9999980773926,2|0,1:2|0:0,0:0:0:0:
256,192,152163,1,2,0:0:0:0:
256,192,152249,12,4,154921,0:1:0:0:
