osu file format v14

[General]
AudioFilename: audio.mp3
AudioLeadIn: 0
PreviewTime: -1
Countdown: 0
SampleSet: Soft
StackLeniency: 0.9
Mode: 0
LetterboxInBreaks: 0
WidescreenStoryboard: 1

[Editor]
DistanceSpacing: 2.2
BeatDivisor: 8
GridSize: 8
TimelineZoom: 2.7

[Metadata]
Title:Famikon
TitleUnicode:Famikon
Artist:Dan Balan
ArtistUnicode:Dan Balan
Creator:Efso
Version:Insane AR 9
Source:
Tags:
BeatmapID:1891669
BeatmapSetID:906506

[Difficulty]
HPDrainRate:6
CircleSize:4.2
OverallDifficulty:9
ApproachRate:9
SliderMultiplier:2.6
SliderTickRate:1

[Events]
//Background and Video events
0,0,"BG.jpg",0,0
//Break Periods
//Storyboard Layer 0 (Background)
//Storyboard Layer 1 (Fail)
//Storyboard Layer 2 (Pass)
//Storyboard Layer 3 (Foreground)
//Storyboard Sound Samples

[TimingPoints]
200,428.571428571429,4,2,0,50,1,0
13914,-133.333333333333,4,2,0,65,0,0
41342,-100,4,2,0,65,0,1
55057,-133.333333333333,4,2,0,65,0,0
68771,-100,4,2,0,65,0,1
82485,-133.333333333333,4,2,0,65,0,0

[HitObjects]
72,288,200,5,0,0:0:0:0:
112,96,414,1,0,0:0:0:0:
72,288,842,5,0,0:0:0:0:
236,180,1057,1,0,0:0:0:0:
72,288,1271,1,0,0:0:0:0:
236,180,1485,1,0,0:0:0:0:
184,96,1914,5,0,0:0:0:0:
184,96,2128,1,0,0:0:0:0:
256,336,2557,1,0,0:0:0:0:
312,40,2771,1,0,0:0:0:0:
336,272,2985,1,0,0:0:0:0:
208,192,3414,5,0,0:0:0:0:
48,48,3628,1,0,0:0:0:0:
112,344,3842,1,0,0:0:0:0:
256,56,4271,5,0,0:0:0:0:
328,336,4485,1,0,0:0:0:0:
352,136,4700,1,0,0:0:0:0:
104,240,5128,5,0,0:0:0:0:
256,32,5342,1,0,0:0:0:0:
224,192,5557,1,0,0:0:0:0:
464,344,5985,5,0,0:0:0:0:
160,264,6200,1,0,0:0:0:0:
368,192,6414,1,0,0:0:0:0:
184,120,6628,1,0,0:0:0:0:
312,56,6842,1,0,0:0:0:0:
56,136,7057,5,0,0:0:0:0:
128,352,7271,1,0,0:0:0:0:
192,48,7700,1,0,0:0:0:0:
424,288,7914,1,0,0:0:0:0:
256,192,8128,1,0,0:0:0:0:
432,104,8557,5,0,0:0:0:0:
256,328,8771,1,0,0:0:0:0:
224,88,8985,1,0,0:0:0:0:
376,336,9414,5,0,0:0:0:0:
48,176,9628,1,0,0:0:0:0:
192,56,9842,1,0,0:0:0:0:
72,328,10271,5,0,0:0:0:0:
112,40,10485,1,0,0:0:0:0:
152,232,10700,1,0,0:0:0:0:
416,96,11128,5,0,0:0:0:0:
288,312,11342,1,0,0:0:0:0:
320,120,11557,1,0,0:0:0:0:
104,208,11985,5,0,0:0:0:0:
256,40,12200,1,0,0:0:0:0:
40,136,12414,1,0,0:0:0:0:
256,328,12842,5,0,0:0:0:0:
224,72,13057,1,0,0:0:0:0:
296,216,13271,1,0,0:0:0:0:
144,176,13700,5,0,0:0:0:0:
144,176,13914,2,0,P|184:168|248:168,2,97.50000371933
40,40,14557,1,0,0:0:0:0:
152,264,14771,1,0,0:0:0:0:
224,80,14985,1,0,0:0:0:0:
272,296,15200,2,0,P|304:304|368:304,1,97.50000371933
256,80,15628,6,0,P|208:72|144:72,1,97.50000371933
400,192,16057,1,0,0:0:0:0:
480,32,16271,1,0,0:0:0:0:
256,192,16485,2,0,P|208:208|160:208,1,97.50000371933
368,120,16914,2,0,P|376:160|376:224,1,97.50000371933
144,296,17342,6,0,P|136:256|136:192,2,97.50000371933
48,64,17985,1,0,0:0:0:0:
256,160,18200,1,0,0:0:0:0:
184,48,18414,1,0,0:0:0:0:
240,312,18628,2,0,B|272:288|296:304|312:296|312:296|344:280|344:280,1,97.50000371933
432,104,19057,5,0,0:0:0:0:
184,40,19271,1,0,0:0:0:0:
424,232,19485,1,0,0:0:0:0:
144,176,19700,1,0,0:0:0:0:
432,104,19914,2,0,B|448:144|400:168|400:168|400:192|408:192,1,97.50000371933
80,280,20342,2,0,B|64:240|112:216|112:216|112:192|104:192,1,97.50000371933
312,48,20771,5,0,0:0:0:0:
416,352,20985,1,0,0:0:0:0:
432,112,21200,1,0,0:0:0:0:
328,320,21414,1,0,0:0:0:0:
152,112,21628,2,0,P|112:104|48:104,2,97.50000371933
344,192,22271,1,0,0:0:0:0:
256,344,22485,5,0,0:0:0:0:
32,152,22700,1,0,0:0:0:0:
344,192,22914,1,0,0:0:0:0:
104,48,23128,1,0,0:0:0:0:
72,344,23342,1,0,0:0:0:0:
256,128,23557,1,0,0:0:0:0:
40,240,23771,2,0,P|80:224|136:216,1,97.50000371933
344,192,24200,6,0,P|304:208|248:216,2,97.50000371933
112,48,24842,1,0,0:0:0:0:
192,320,25057,1,0,0:0:0:0:
256,88,25271,1,0,0:0:0:0:
56,192,25485,1,0,0:0:0:0:
360,352,25700,1,0,0:0:0:0:
432,112,25914,5,0,0:0:0:0:
72,352,26128,1,0,0:0:0:0:
312,56,26342,1,0,0:0:0:0:
40,144,26557,1,0,0:0:0:0:
256,336,26771,2,0,P|272:272|288:224,1,97.50000371933
112,40,27200,2,0,P|96:104|80:152,1,97.50000371933
432,192,27628,6,0,P|448:128|464:80,1,97.50000371933
184,40,28057,1,0,0:0:0:0:
464,272,28271,1,0,0:0:0:0:
136,192,28485,2,0,P|120:144|120:80,1,97.50000371933
352,192,28914,2,0,P|368:240|368:304,1,97.50000371933
48,40,29342,5,0,0:0:0:0:
112,352,29557,1,0,0:0:0:0:
192,136,29771,1,0,0:0:0:0:
256,344,29985,1,0,0:0:0:0:
440,192,30200,5,0,0:0:0:0:
280,72,30414,1,0,0:0:0:0:
464,304,30628,2,0,B|424:304|424:304|384:320|384:320|368:320,1,97.50000371933
144,176,31057,6,0,P|136:128|120:72,1,97.50000371933
72,320,31485,1,0,0:0:0:0:
320,128,31700,1,0,0:0:0:0:
256,336,31914,2,0,P|192:344|136:344,1,97.50000371933
256,48,32342,2,0,P|320:40|376:40,1,97.50000371933
56,176,32771,5,0,0:0:0:0:
368,232,32985,1,0,0:0:0:0:
148,120,33200,1,0,0:0:0:0:
328,344,33414,1,0,0:0:0:0:
392,80,33628,1,0,0:0:0:0:
200,328,33842,1,0,0:0:0:0:
192,48,34057,2,0,P|144:40|88:40,1,97.50000371933
320,336,34485,6,0,P|368:344|424:344,1,97.50000371933
224,136,34914,1,0,0:0:0:0:
72,344,35128,1,0,0:0:0:0:
40,64,35342,2,0,B|80:64|96:48|104:48|104:48|136:48,1,97.50000371933
320,336,35771,2,0,B|280:336|264:352|256:352|256:352|224:352,1,97.50000371933
480,48,36200,5,0,0:0:0:0:
152,176,36414,1,0,0:0:0:0:
464,248,36628,1,0,0:0:0:0:
256,40,36842,1,0,0:0:0:0:
346,234,37057,5,0,0:0:0:0:
152,325,37271,1,0,0:0:0:0:
61,130,37485,2,0,B|88:120|104:120|104:120|128:104|160:104,1,97.50000371933
451,254,37914,6,0,B|424:264|408:264|408:264|384:280|352:280,1,97.50000371933
136,192,38342,1,0,0:0:0:0:
416,72,38557,1,0,0:0:0:0:
256,144,38771,2,0,P|248:176|248:248,1,97.50000371933
160,64,39200,2,0,P|112:56|64:56,1,97.50000371933
352,200,39628,5,0,0:0:0:0:
160,320,39842,1,0,0:0:0:0:
160,64,40057,1,0,0:0:0:0:
352,200,40271,1,0,0:0:0:0:
448,120,40485,2,0,P|464:152|464:224,1,97.50000371933
64,264,40914,2,0,P|48:232|48:160,1,97.50000371933
400,192,41342,6,0,P|361:243|311:295,2,130,0|0|8,0:0|0:0|0:0,0:0:0:0:
256,56,41985,1,0,0:0:0:0:
136,168,42146,2,0,L|104:184,1,32.5
256,136,42414,1,0,0:0:0:0:
136,328,42628,1,8,0:0:0:0:
72,40,42842,1,0,0:0:0:0:
176,192,43057,5,0,0:0:0:0:
64,352,43271,2,0,P|48:304|48:208,1,130,0|8,0:0|0:0,0:0:0:0:
256,56,43700,1,0,0:0:0:0:
296,312,43914,2,0,B|328:328|368:328|400:304|400:304|432:304,1,130
192,192,44342,2,0,B|160:176|120:176|88:200|88:200|56:200,1,130,8|0,0:0|0:0,0:0:0:0:
256,48,44771,6,0,B|288:64|320:48|344:48|344:48|368:64|352:96,2,130,0|0|8,0:0|0:0|0:0,0:0:0:0:
344,240,45414,1,0,0:0:0:0:
128,304,45575,2,0,L|136:264,1,32.5
56,56,45842,1,0,0:0:0:0:
408,112,46057,1,8,0:0:0:0:
152,160,46271,1,0,0:0:0:0:
448,312,46485,5,0,0:0:0:0:
216,336,46646,2,0,L|200:304,1,32.5
480,232,46914,1,8,0:0:0:0:
152,192,47128,1,0,0:0:0:0:
456,48,47342,2,0,P|472:96|472:176,1,130
168,318,47771,2,0,P|152:270|152:190,1,130,8|0,0:0|0:0,0:0:0:0:
312,72,48200,6,0,B|288:88|248:56|248:56|248:56|216:32|176:48,2,130,0|0|8,0:0|0:0|0:0,0:0:0:0:
48,256,48842,1,0,0:0:0:0:
264,184,49003,2,0,L|280:224,1,32.5
56,64,49271,1,0,0:0:0:0:
424,104,49485,1,8,0:0:0:0:
208,296,49700,1,0,0:0:0:0:
304,48,49914,5,0,0:0:0:0:
344,272,50128,2,0,B|376:296|400:280|400:280|408:272|408:288|416:272|416:288|424:272|424:288|432:272|432:288|440:272|440:288|448:272|448:288|456:272|456:288|464:272|464:288|472:280,1,130,0|8,0:0|0:0,0:0:0:0:
224,80,50557,1,0,0:0:0:0:
168,272,50771,2,0,P|128:280|32:280,1,130
344,112,51200,2,0,P|384:104|480:104,1,130,8|0,0:0|0:0,0:0:0:0:
168,272,51628,6,0,P|152:232|152:136,2,130,0|0|8,0:0|0:0|0:0,0:0:0:0:
48,48,52271,1,0,0:0:0:0:
240,344,52432,2,0,L|256:296,1,32.5
184,56,52700,1,0,0:0:0:0:
136,344,52914,1,8,0:0:0:0:
288,88,53128,1,0,0:0:0:0:
384,304,53342,5,0,0:0:0:0:
184,176,53503,2,0,L|160:208,1,32.5
472,112,53771,1,8,0:0:0:0:
152,48,53985,1,0,0:0:0:0:
376,232,54200,2,0,B|392:200|416:176|432:176|432:176|432:112,1,130
128,192,54628,2,0,B|112:224|88:248|72:248|72:248|72:312,1,130,8|0,0:0|0:0,0:0:0:0:
256,72,55057,6,0,P|296:64|360:64,1,97.50000371933
256,312,55485,2,0,P|216:320|152:320,1,97.50000371933
376,191,55914,2,0,P|384:232|384:296,1,97.50000371933
136,192,56342,2,0,P|128:152|128:88,1,97.50000371933
312,248,56771,5,0,0:0:0:0:
72,296,56985,1,0,0:0:0:0:
312,248,57200,1,0,0:0:0:0:
74,190,57414,1,0,0:0:0:0:
312,248,57628,5,0,0:0:0:0:
368,48,57842,1,0,0:0:0:0:
312,248,58057,2,0,P|320:280|352:336,1,97.50000371933
36,34,58485,6,0,P|74:65|104:104,1,97.50000371933
256,280,58914,2,0,P|280:312|328:352,1,97.50000371933
36,173,59342,2,0,P|60:141|108:101,1,97.50000371933
256,280,59771,2,0,P|232:312|184:352,1,97.50000371933
400,88,60200,5,0,0:0:0:0:
96,192,60360,2,0,L|112:152,1,24.3750009298325
400,296,60628,1,0,0:0:0:0:
256,48,60842,1,0,0:0:0:0:
112,296,61057,2,0,P|152:304|216:304,1,97.50000371933
400,88,61485,2,0,P|360:80|296:80,1,97.50000371933
40,192,61914,6,0,P|32:152|32:96,1,97.50000371933
472,192,62342,2,0,P|480:232|480:288,1,97.50000371933
256,48,62771,2,0,P|296:40|352:40,1,97.50000371933
256,336,63199,2,0,P|216:344|160:344,1,97.50000371933
424,112,63628,5,0,0:0:0:0:
48,224,63842,1,0,0:0:0:0:
344,56,64057,1,0,0:0:0:0:
149,272,64271,1,0,0:0:0:0:
368,40,64485,5,0,0:0:0:0:
448,296,64700,1,0,0:0:0:0:
208,136,64914,2,0,P|176:128|112:128,1,97.50000371933
416,192,65342,6,0,P|432:152|440:96,2,97.50000371933
472,344,65985,1,0,0:0:0:0:
216,280,66200,2,0,P|176:272|112:272,1,97.50000371933
256,48,66628,1,0,0:0:0:0:
256,48,66842,1,0,0:0:0:0:
256,336,67057,5,0,0:0:0:0:
56,72,67271,1,0,0:0:0:0:
256,336,67485,1,0,0:0:0:0:
186,12,67699,1,0,0:0:0:0:
256,336,67914,2,0,P|224:344|152:344,1,97.50000371933
256,48,68342,2,0,P|288:40|360:40,1,97.50000371933
176,192,68771,6,0,B|136:200|128:176|136:152|160:144|184:152|184:104,2,130
480,40,69414,1,0,0:0:0:0:
256,336,69575,2,0,L|240:304,1,32.5
280,72,69842,1,0,0:0:0:0:
424,312,70057,1,0,0:0:0:0:
144,264,70271,1,0,0:0:0:0:
224,48,70485,5,0,0:0:0:0:
296,336,70700,2,0,B|304:288|320:256|352:256|352:208,1,130
152,112,71128,1,0,0:0:0:0:
480,40,71342,2,0,B|464:80|440:80|464:80|440:80|464:80|464:112|464:112|464:160,1,130
32,344,71771,2,0,B|48:304|72:304|48:304|72:304|48:304|48:272|48:272|48:224,1,130
256,64,72200,6,0,B|304:48|336:48|336:72|304:72|304:120,2,130
440,296,72842,1,0,0:0:0:0:
208,216,73003,2,0,L|232:176,1,32.5
432,104,73271,1,0,0:0:0:0:
144,48,73485,1,0,0:0:0:0:
288,320,73700,1,0,0:0:0:0:
40,192,73914,5,0,0:0:0:0:
400,152,74075,2,0,L|384:120,1,32.5
144,48,74342,1,0,0:0:0:0:
112,336,74557,1,0,0:0:0:0:
256,112,74771,2,0,B|296:88|328:104|328:104|368:80|368:48,1,130
208,216,75200,2,0,B|168:240|136:224|136:224|96:248|96:280,1,130
360,160,75628,6,0,B|384:192|384:232|360:264|360:264|392:296,2,130
144,40,76271,1,0,0:0:0:0:
64,184,76432,2,0,L|16:160,1,32.5
200,344,76700,1,0,0:0:0:0:
160,120,76914,1,0,0:0:0:0:
80,304,77128,1,0,0:0:0:0:
256,48,77342,5,0,0:0:0:0:
336,296,77557,2,0,B|288:296|288:296|232:328|232:328|192:328,1,130
424,112,77985,1,0,0:0:0:0:
160,224,78200,2,0,B|136:176|152:144|152:144|112:112,1,130
291,186,78628,2,0,B|315:234|299:266|299:266|339:298,1,130
256,48,79057,6,0,P|216:40|128:40,2,130
144,272,79700,1,0,0:0:0:0:
56,128,79860,2,0,L|80:88,1,32.5
256,184,80128,1,0,0:0:0:0:
32,40,80342,1,0,0:0:0:0:
240,272,80557,1,0,0:0:0:0:
432,104,80771,5,0,0:0:0:0:
344,272,80932,2,0,L|376:296,1,32.5
280,72,81200,1,0,0:0:0:0:
216,336,81414,1,0,0:0:0:0:
144,104,81628,2,0,P|88:88|16:88,1,130
344,272,82057,2,0,P|400:288|472:288,1,130
