osu file format v14

[General]
AudioFilename: audio.mp3
AudioLeadIn: 0
PreviewTime: 69236
Countdown: 0
SampleSet: Normal
StackLeniency: 0.7
Mode: 1
LetterboxInBreaks: 0
WidescreenStoryboard: 1

[Editor]
DistanceSpacing: 1.8
BeatDivisor: 4
GridSize: 32
TimelineZoom: 1

[Metadata]
Title:Crazy Loop (Mm-Ma-Ma) (Cut Ver.)
TitleUnicode:Crazy Loop (Mm-Ma-Ma) (Cut Ver.)
Artist:Dan Balan
ArtistUnicode:Dan Bălan
Creator:Ognjen3800
Version:Cry's Crazy Oni
Source:
Tags:english cryceptio dance pop electronic short version euro
BeatmapID:4485001
BeatmapSetID:2131377

[Difficulty]
HPDrainRate:6
CircleSize:5
OverallDifficulty:5
ApproachRate:5
SliderMultiplier:1.4
SliderTickRate:1

[Events]
//Background and Video events
0,0,"crazyloop.jpg",0,15
//Break Periods
//Storyboard Layer 0 (Background)
//Storyboard Layer 1 (Fail)
//Storyboard Layer 2 (Pass)
//Storyboard Layer 3 (Foreground)
//Storyboard Layer 4 (Overlay)
//Storyboard Sound Samples

[TimingPoints]
446,451.127819548872,4,1,0,50,1,0
446,-100,4,1,0,50,0,0
2244,-100,4,1,0,70,0,0
14876,-100,4,1,0,65,0,0
16686,-100,4,1,0,85,0,1
29318,-100,4,1,0,80,0,0
30552,-100,4,1,0,60,0,0
31003,-100,4,1,0,65,0,0
36868,-100,4,1,0,75,0,0
42733,-100,4,1,0,60,0,0
43635,-100,4,1,0,65,0,0
49500,-100,4,1,0,75,0,0
56718,-100,4,1,0,80,0,0
67770,-100,4,1,0,60,0,0
69011,-100,4,1,0,50,0,0
70026,-100,4,1,0,65,0,0
70821,-100,4,1,0,85,0,1
83453,-100,4,1,0,90,0,0
85258,-100,4,1,0,85,0,1
97889,-100,4,1,0,80,0,0
98221,-100,4,1,0,80,0,0
99694,-100,4,1,0,85,0,1
112325,-100,4,1,0,75,0,0
114130,-100,4,1,0,85,0,1
126536,-100,4,1,0,80,0,0

[HitObjects]
288,192,15333,5,0,0:0:0:0:
448,64,15784,1,8,0:0:0:0:
288,192,16235,1,0,0:0:0:0:
448,320,16686,1,12,0:0:0:0:
288,192,17137,1,0,0:0:0:0:
448,64,17363,1,8,0:0:0:0:
448,64,17476,1,8,0:0:0:0:
288,192,17588,1,0,0:0:0:0:
448,64,17814,1,8,0:0:0:0:
288,192,17927,1,0,0:0:0:0:
448,64,18039,1,8,0:0:0:0:
288,192,18265,1,0,0:0:0:0:
288,192,18491,1,0,0:0:0:0:
448,64,18716,1,8,0:0:0:0:
288,192,18942,1,0,0:0:0:0:
448,64,19167,1,8,0:0:0:0:
448,64,19280,1,8,0:0:0:0:
288,192,19393,1,0,0:0:0:0:
448,64,19618,1,8,0:0:0:0:
288,192,19844,1,0,0:0:0:0:
288,192,19957,1,0,0:0:0:0:
448,64,20070,1,8,0:0:0:0:
288,192,20295,1,0,0:0:0:0:
448,64,20746,1,8,0:0:0:0:
448,64,20972,1,8,0:0:0:0:
448,64,21423,1,8,0:0:0:0:
288,192,21649,1,0,0:0:0:0:
288,192,21761,1,0,0:0:0:0:
448,64,21874,1,8,0:0:0:0:
288,192,22100,1,0,0:0:0:0:
448,64,22325,1,8,0:0:0:0:
288,192,22551,1,0,0:0:0:0:
448,64,22776,1,8,0:0:0:0:
448,64,22889,1,8,0:0:0:0:
288,192,23002,1,0,0:0:0:0:
448,64,23227,1,8,0:0:0:0:
448,64,23453,1,8,0:0:0:0:
448,64,23904,1,8,0:0:0:0:
448,64,24130,1,8,0:0:0:0:
288,192,24355,1,0,0:0:0:0:
448,64,24581,1,8,0:0:0:0:
288,192,24694,1,0,0:0:0:0:
288,192,24806,1,0,0:0:0:0:
448,64,25032,1,8,0:0:0:0:
288,192,25145,1,0,0:0:0:0:
448,64,25258,1,8,0:0:0:0:
448,64,25483,1,8,0:0:0:0:
288,192,25709,1,0,0:0:0:0:
448,64,25934,1,8,0:0:0:0:
288,192,26160,1,0,0:0:0:0:
448,64,26385,1,8,0:0:0:0:
288,192,26498,1,0,0:0:0:0:
288,192,26611,1,0,0:0:0:0:
448,64,26836,1,8,0:0:0:0:
448,64,26949,1,8,0:0:0:0:
288,192,27062,1,0,0:0:0:0:
448,64,27288,1,8,0:0:0:0:
288,192,27513,1,0,0:0:0:0:
288,192,27964,1,0,0:0:0:0:
448,64,28190,1,8,0:0:0:0:
288,192,28303,1,0,0:0:0:0:
288,192,28415,1,0,0:0:0:0:
448,64,28641,1,8,0:0:0:0:
448,64,28754,1,8,0:0:0:0:
288,192,28867,1,0,0:0:0:0:
448,64,29092,1,8,0:0:0:0:
288,192,29318,1,0,0:0:0:0:
448,320,30671,1,12,0:0:0:0:
288,192,31122,1,0,0:0:0:0:
448,64,31799,1,8,0:0:0:0:
288,192,32024,1,0,0:0:0:0:
448,64,32363,1,8,0:0:0:0:
448,64,32588,1,8,0:0:0:0:
288,192,32701,1,0,0:0:0:0:
448,64,32927,1,8,0:0:0:0:
448,64,33378,1,8,0:0:0:0:
288,192,33603,1,0,0:0:0:0:
448,64,33829,1,8,0:0:0:0:
448,64,34167,1,8,0:0:0:0:
288,192,34506,1,0,0:0:0:0:
448,64,34731,1,8,0:0:0:0:
448,64,35408,1,8,0:0:0:0:
288,192,35633,1,0,0:0:0:0:
448,64,35972,1,8,0:0:0:0:
288,192,36197,1,0,0:0:0:0:
288,192,36310,1,0,0:0:0:0:
448,320,36536,1,12,0:0:0:0:
448,64,36987,1,8,0:0:0:0:
288,192,37212,1,0,0:0:0:0:
288,192,37325,1,0,0:0:0:0:
448,64,37438,1,8,0:0:0:0:
288,192,37664,1,0,0:0:0:0:
448,64,37889,1,8,0:0:0:0:
448,64,38115,1,8,0:0:0:0:
448,64,38227,1,8,0:0:0:0:
288,192,38340,1,0,0:0:0:0:
448,64,38566,1,8,0:0:0:0:
448,64,39017,1,8,0:0:0:0:
448,64,39242,1,8,0:0:0:0:
288,192,39468,1,0,0:0:0:0:
288,192,39581,1,0,0:0:0:0:
448,64,39694,1,8,0:0:0:0:
288,192,39919,1,0,0:0:0:0:
448,64,40370,1,8,0:0:0:0:
448,64,40821,1,8,0:0:0:0:
288,192,41047,1,0,0:0:0:0:
448,64,41273,1,8,0:0:0:0:
288,192,41498,1,0,0:0:0:0:
288,192,41611,1,0,0:0:0:0:
448,64,41724,1,8,0:0:0:0:
288,192,41949,1,0,0:0:0:0:
448,320,42852,1,12,0:0:0:0:
448,64,43754,1,8,0:0:0:0:
448,64,44430,1,8,0:0:0:0:
288,192,44656,1,0,0:0:0:0:
448,64,44994,1,8,0:0:0:0:
288,192,45220,1,0,0:0:0:0:
448,64,45333,1,8,0:0:0:0:
448,64,45558,1,8,0:0:0:0:
288,192,45784,1,0,0:0:0:0:
448,64,46009,1,8,0:0:0:0:
288,192,46235,1,0,0:0:0:0:
448,64,46461,1,8,0:0:0:0:
288,192,46686,1,0,0:0:0:0:
448,64,46912,1,8,0:0:0:0:
288,192,47137,1,0,0:0:0:0:
448,64,47363,1,8,0:0:0:0:
448,64,47588,1,8,0:0:0:0:
448,64,48039,1,8,0:0:0:0:
288,192,48265,1,0,0:0:0:0:
448,64,48491,1,8,0:0:0:0:
448,64,48716,1,8,0:0:0:0:
288,192,48942,1,0,0:0:0:0:
448,320,49167,1,12,0:0:0:0:
448,64,49618,1,8,0:0:0:0:
288,192,49844,1,0,0:0:0:0:
288,192,49957,1,0,0:0:0:0:
448,64,50070,1,8,0:0:0:0:
288,192,50295,1,0,0:0:0:0:
448,64,50521,1,8,0:0:0:0:
448,64,50746,1,8,0:0:0:0:
448,64,50859,1,8,0:0:0:0:
288,192,50972,1,0,0:0:0:0:
448,64,51197,1,8,0:0:0:0:
448,64,51649,1,8,0:0:0:0:
448,64,51874,1,8,0:0:0:0:
288,192,52100,1,0,0:0:0:0:
288,192,52212,1,0,0:0:0:0:
448,64,52325,1,8,0:0:0:0:
288,192,52551,1,0,0:0:0:0:
448,64,53002,1,8,0:0:0:0:
448,64,53453,1,8,0:0:0:0:
288,192,53679,1,0,0:0:0:0:
448,64,53904,1,8,0:0:0:0:
448,64,54017,1,8,0:0:0:0:
288,192,54130,1,0,0:0:0:0:
288,192,54581,1,0,0:0:0:0:
448,64,54806,1,8,0:0:0:0:
448,64,55032,1,8,0:0:0:0:
288,192,55258,1,0,0:0:0:0:
288,192,55370,1,0,0:0:0:0:
448,64,55483,1,8,0:0:0:0:
288,192,55709,1,0,0:0:0:0:
448,64,55934,1,8,0:0:0:0:
448,64,56047,1,8,0:0:0:0:
288,192,56160,1,0,0:0:0:0:
448,320,56385,1,12,0:0:0:0:
288,192,56836,1,0,0:0:0:0:
288,192,57062,1,0,0:0:0:0:
448,64,57288,1,8,0:0:0:0:
448,64,57513,1,8,0:0:0:0:
448,64,57626,1,8,0:0:0:0:
288,192,57739,1,0,0:0:0:0:
288,192,57964,1,0,0:0:0:0:
448,64,58190,1,8,0:0:0:0:
448,64,58641,1,8,0:0:0:0:
448,64,58867,1,8,0:0:0:0:
288,192,59092,1,0,0:0:0:0:
448,64,59318,1,8,0:0:0:0:
448,64,59430,1,8,0:0:0:0:
288,192,59543,1,0,0:0:0:0:
288,192,59769,1,0,0:0:0:0:
448,64,59994,1,8,0:0:0:0:
448,64,60445,1,8,0:0:0:0:
448,64,60671,1,8,0:0:0:0:
288,192,60897,1,0,0:0:0:0:
448,64,61348,1,8,0:0:0:0:
448,64,61573,1,8,0:0:0:0:
448,64,61686,1,8,0:0:0:0:
288,192,61799,1,0,0:0:0:0:
448,64,62024,1,8,0:0:0:0:
288,192,62250,1,0,0:0:0:0:
448,64,62476,1,8,0:0:0:0:
288,192,62927,1,0,0:0:0:0:
448,64,63152,1,8,0:0:0:0:
448,64,63603,1,8,0:0:0:0:
288,192,63829,1,0,0:0:0:0:
288,192,63942,1,8,0:0:0:0:
288,192,64055,1,0,0:0:0:0:
288,192,64280,1,0,0:0:0:0:
448,64,64506,1,8,0:0:0:0:
288,192,64731,1,0,0:0:0:0:
448,64,64957,1,8,0:0:0:0:
288,192,65070,1,0,0:0:0:0:
448,64,65182,1,8,0:0:0:0:
288,192,65408,1,0,0:0:0:0:
448,64,65859,1,8,0:0:0:0:
288,192,66085,1,0,0:0:0:0:
448,64,66310,1,8,0:0:0:0:
288,192,66536,1,0,0:0:0:0:
288,192,66649,1,0,0:0:0:0:
448,64,66761,1,8,0:0:0:0:
448,64,66987,1,8,0:0:0:0:
288,192,67212,1,0,0:0:0:0:
288,192,67889,1,0,0:0:0:0:
288,192,68340,1,0,0:0:0:0:
288,192,68791,1,0,0:0:0:0:
288,192,70145,1,0,0:0:0:0:
288,192,70258,1,0,0:0:0:0:
448,64,70370,1,8,0:0:0:0:
448,320,70821,1,12,0:0:0:0:
448,64,71273,1,8,0:0:0:0:
288,192,71498,1,0,0:0:0:0:
448,64,71724,1,8,0:0:0:0:
288,192,71836,1,0,0:0:0:0:
448,64,71949,1,8,0:0:0:0:
288,192,72175,1,0,0:0:0:0:
288,192,72288,1,0,0:0:0:0:
448,64,72400,1,8,0:0:0:0:
448,64,72626,1,8,0:0:0:0:
448,64,73077,1,8,0:0:0:0:
288,192,73303,1,0,0:0:0:0:
448,64,73528,1,8,0:0:0:0:
448,64,73754,1,8,0:0:0:0:
448,64,73867,1,8,0:0:0:0:
288,192,73979,1,0,0:0:0:0:
448,64,74205,1,8,0:0:0:0:
288,192,74656,1,0,0:0:0:0:
288,192,75107,1,0,0:0:0:0:
448,64,75333,1,8,0:0:0:0:
448,64,75445,1,8,0:0:0:0:
288,192,75558,1,0,0:0:0:0:
448,64,75784,1,8,0:0:0:0:
448,64,75897,1,8,0:0:0:0:
288,192,76009,1,0,0:0:0:0:
448,64,76235,1,8,0:0:0:0:
448,64,76686,1,8,0:0:0:0:
448,64,76912,1,8,0:0:0:0:
288,192,77137,1,0,0:0:0:0:
448,64,77363,1,8,0:0:0:0:
448,64,77476,1,8,0:0:0:0:
288,192,77588,1,0,0:0:0:0:
448,64,77814,1,8,0:0:0:0:
288,192,78265,1,0,0:0:0:0:
448,64,78491,1,8,0:0:0:0:
288,192,78716,1,0,0:0:0:0:
288,192,78829,1,0,0:0:0:0:
448,64,78942,1,8,0:0:0:0:
448,64,79280,1,8,0:0:0:0:
288,192,79393,1,0,0:0:0:0:
448,64,79618,1,8,0:0:0:0:
448,64,79844,1,8,0:0:0:0:
288,192,80070,1,0,0:0:0:0:
448,64,80295,1,8,0:0:0:0:
288,192,80521,1,0,0:0:0:0:
288,192,80633,1,0,0:0:0:0:
448,64,80746,1,8,0:0:0:0:
448,64,80972,1,8,0:0:0:0:
448,64,81085,1,8,0:0:0:0:
288,192,81197,1,0,0:0:0:0:
448,64,81423,1,8,0:0:0:0:
448,64,81536,1,8,0:0:0:0:
288,192,81649,1,0,0:0:0:0:
448,64,82100,1,8,0:0:0:0:
448,64,82325,1,8,0:0:0:0:
448,64,82776,1,8,0:0:0:0:
288,192,83227,1,0,0:0:0:0:
448,64,83453,1,8,0:0:0:0:
288,192,83679,1,0,0:0:0:0:
288,192,83791,1,0,0:0:0:0:
448,64,83904,1,8,0:0:0:0:
287,186,84130,1,0,0:0:0:0:
288,192,84242,1,0,0:0:0:0:
448,64,84355,1,8,0:0:0:0:
287,187,84581,1,0,0:0:0:0:
287,187,84694,1,0,0:0:0:0:
448,64,84806,1,8,0:0:0:0:
288,192,85032,1,0,0:0:0:0:
448,320,85258,1,12,0:0:0:0:
448,64,85709,1,8,0:0:0:0:
448,64,85934,1,8,0:0:0:0:
288,192,86160,1,0,0:0:0:0:
288,192,86273,1,0,0:0:0:0:
448,64,86385,1,8,0:0:0:0:
448,64,86611,1,8,0:0:0:0:
448,64,86724,1,8,0:0:0:0:
288,192,86836,1,0,0:0:0:0:
448,64,87062,1,8,0:0:0:0:
448,64,87513,1,8,0:0:0:0:
448,64,87739,1,8,0:0:0:0:
288,192,87964,1,0,0:0:0:0:
448,64,88190,1,8,0:0:0:0:
288,192,88303,1,0,0:0:0:0:
448,64,88415,1,8,0:0:0:0:
448,64,88641,1,8,0:0:0:0:
288,192,89092,1,0,0:0:0:0:
448,64,89543,1,8,0:0:0:0:
288,192,89769,1,0,0:0:0:0:
288,192,89882,1,0,0:0:0:0:
448,64,89994,1,8,0:0:0:0:
288,192,90220,1,0,0:0:0:0:
288,192,90333,1,0,0:0:0:0:
448,64,90445,1,8,0:0:0:0:
288,192,90671,1,0,0:0:0:0:
448,64,91122,1,8,0:0:0:0:
288,192,91348,1,0,0:0:0:0:
448,64,91573,1,8,0:0:0:0:
448,64,91799,1,8,0:0:0:0:
448,64,91912,1,8,0:0:0:0:
288,192,92024,1,0,0:0:0:0:
448,64,92250,1,8,0:0:0:0:
288,192,92701,1,0,0:0:0:0:
448,64,92927,1,8,0:0:0:0:
288,192,93152,1,0,0:0:0:0:
288,192,93265,1,0,0:0:0:0:
448,64,93378,1,8,0:0:0:0:
448,64,93716,1,8,0:0:0:0:
288,192,93829,1,0,0:0:0:0:
448,64,94054,1,8,0:0:0:0:
448,64,94280,1,8,0:0:0:0:
288,192,94506,1,0,0:0:0:0:
448,64,94731,1,8,0:0:0:0:
288,192,94957,1,0,0:0:0:0:
288,192,95070,1,0,0:0:0:0:
448,64,95182,1,8,0:0:0:0:
288,192,95408,1,0,0:0:0:0:
288,192,95521,1,0,0:0:0:0:
448,64,95633,1,8,0:0:0:0:
448,64,95859,1,8,0:0:0:0:
448,64,95972,1,8,0:0:0:0:
288,192,96085,1,0,0:0:0:0:
448,64,96536,1,8,0:0:0:0:
448,64,96761,1,8,0:0:0:0:
448,64,97212,1,8,0:0:0:0:
288,192,97663,1,0,0:0:0:0:
448,64,97889,1,8,0:0:0:0:
288,192,98340,1,0,0:0:0:0:
448,64,98791,1,8,0:0:0:0:
288,192,99242,1,0,0:0:0:0:
448,320,99694,1,12,0:0:0:0:
288,192,100145,1,0,0:0:0:0:
448,64,100371,1,8,0:0:0:0:
288,192,100484,1,0,0:0:0:0:
288,192,100596,1,0,0:0:0:0:
448,64,100822,1,8,0:0:0:0:
288,192,100935,1,0,0:0:0:0:
448,64,101047,1,8,0:0:0:0:
448,64,101273,1,8,0:0:0:0:
288,192,101499,1,0,0:0:0:0:
448,64,101724,1,8,0:0:0:0:
288,192,101949,1,0,0:0:0:0:
448,64,102175,1,8,0:0:0:0:
448,64,102288,1,8,0:0:0:0:
288,192,102401,1,0,0:0:0:0:
448,64,102626,1,8,0:0:0:0:
288,192,102852,1,0,0:0:0:0:
288,192,102965,1,0,0:0:0:0:
448,64,103078,1,8,0:0:0:0:
288,192,103303,1,0,0:0:0:0:
448,64,103754,1,8,0:0:0:0:
448,64,103980,1,8,0:0:0:0:
448,64,104431,1,8,0:0:0:0:
288,192,104657,1,0,0:0:0:0:
288,192,104769,1,0,0:0:0:0:
448,64,104882,1,8,0:0:0:0:
288,192,105108,1,0,0:0:0:0:
448,64,105333,1,8,0:0:0:0:
293,190,105558,1,0,0:0:0:0:
448,64,105784,1,8,0:0:0:0:
448,64,105897,1,8,0:0:0:0:
293,190,106009,1,0,0:0:0:0:
448,64,106235,1,8,0:0:0:0:
448,64,106461,1,8,0:0:0:0:
448,64,106912,1,8,0:0:0:0:
448,64,107138,1,8,0:0:0:0:
288,192,107363,1,0,0:0:0:0:
448,64,107589,1,8,0:0:0:0:
448,64,107702,1,8,0:0:0:0:
288,192,107814,1,0,0:0:0:0:
448,64,108040,1,8,0:0:0:0:
448,64,108153,1,8,0:0:0:0:
288,192,108266,1,0,0:0:0:0:
448,64,108491,1,8,0:0:0:0:
288,192,108717,1,0,0:0:0:0:
448,64,108942,1,8,0:0:0:0:
288,192,109167,1,0,0:0:0:0:
448,64,109393,1,8,0:0:0:0:
288,192,109506,1,0,0:0:0:0:
288,192,109619,1,0,0:0:0:0:
448,64,109844,1,8,0:0:0:0:
448,64,109957,1,8,0:0:0:0:
288,192,110070,1,0,0:0:0:0:
448,64,110296,1,8,0:0:0:0:
288,192,110521,1,0,0:0:0:0:
288,192,110972,1,0,0:0:0:0:
448,64,111198,1,8,0:0:0:0:
288,192,111310,1,0,0:0:0:0:
288,192,111423,1,0,0:0:0:0:
448,64,111649,1,8,0:0:0:0:
288,192,111761,1,8,0:0:0:0:
288,192,111874,1,0,0:0:0:0:
448,64,112100,1,8,0:0:0:0:
448,320,112326,1,12,0:0:0:0:
288,192,112776,1,0,0:0:0:0:
448,64,113227,1,8,0:0:0:0:
448,64,113453,1,0,0:0:0:0:
448,64,113679,1,8,0:0:0:0:
288,192,113904,1,0,0:0:0:0:
448,320,114130,1,12,0:0:0:0:
288,192,114581,1,0,0:0:0:0:
448,64,114807,1,8,0:0:0:0:
448,64,114920,1,8,0:0:0:0:
448,64,115032,1,8,0:0:0:0:
288,192,115258,1,0,0:0:0:0:
288,192,115371,1,0,0:0:0:0:
448,64,115483,1,8,0:0:0:0:
448,64,115709,1,8,0:0:0:0:
288,192,115935,1,0,0:0:0:0:
448,64,116160,1,8,0:0:0:0:
288,192,116385,1,0,0:0:0:0:
448,64,116611,1,8,0:0:0:0:
288,192,116724,1,0,0:0:0:0:
448,64,116837,1,8,0:0:0:0:
288,192,117062,1,0,0:0:0:0:
288,192,117288,1,0,0:0:0:0:
288,192,117401,1,0,0:0:0:0:
448,64,117514,1,8,0:0:0:0:
288,192,117739,1,0,0:0:0:0:
288,192,118190,1,0,0:0:0:0:
448,64,118416,1,8,0:0:0:0:
288,192,118867,1,0,0:0:0:0:
448,64,119093,1,8,0:0:0:0:
288,192,119205,1,0,0:0:0:0:
448,64,119318,1,8,0:0:0:0:
288,192,119544,1,0,0:0:0:0:
448,64,119769,1,8,0:0:0:0:
288,192,119994,1,0,0:0:0:0:
448,64,120220,1,8,0:0:0:0:
448,64,120333,1,8,0:0:0:0:
288,192,120445,1,0,0:0:0:0:
448,64,120671,1,8,0:0:0:0:
288,192,120897,1,0,0:0:0:0:
288,192,121348,1,0,0:0:0:0:
448,64,121574,1,8,0:0:0:0:
288,192,121799,1,0,0:0:0:0:
448,64,122025,1,8,0:0:0:0:
288,192,122138,1,0,0:0:0:0:
288,192,122250,1,0,0:0:0:0:
448,64,122476,1,8,0:0:0:0:
288,192,122589,1,0,0:0:0:0:
448,64,122702,1,8,0:0:0:0:
288,192,122927,1,0,0:0:0:0:
448,64,123153,1,8,0:0:0:0:
448,64,123378,1,8,0:0:0:0:
288,192,123603,1,0,0:0:0:0:
448,64,123829,1,8,0:0:0:0:
448,64,123942,1,8,0:0:0:0:
288,192,124055,1,0,0:0:0:0:
448,64,124280,1,8,0:0:0:0:
448,64,124393,1,8,0:0:0:0:
288,192,124506,1,0,0:0:0:0:
448,64,124732,1,8,0:0:0:0:
288,192,124957,1,0,0:0:0:0:
288,192,125408,1,0,0:0:0:0:
448,64,125634,1,8,0:0:0:0:
448,64,125746,1,8,0:0:0:0:
288,192,125859,1,0,0:0:0:0:
448,64,126085,1,8,0:0:0:0:
448,64,126197,1,8,0:0:0:0:
288,192,126310,1,0,0:0:0:0:
448,64,126536,1,8,0:0:0:0:
