osu file format v14

[General]
AudioFilename: audio.mp3
AudioLeadIn: 0
PreviewTime: 69236
Countdown: 0
SampleSet: Normal
StackLeniency: 0.7
Mode: 1
LetterboxInBreaks: 0
WidescreenStoryboard: 1

[Editor]
Bookmarks: 85026
DistanceSpacing: 1.8
BeatDivisor: 4
GridSize: 16
TimelineZoom: 1

[Metadata]
Title:Crazy Loop (Mm-Ma-Ma) (Cut Ver.)
TitleUnicode:Crazy Loop (Mm-Ma-Ma) (Cut Ver.)
Artist:Dan Balan
ArtistUnicode:Dan Bălan
Creator:Ognjen3800
Version:Crazy Party
Source:
Tags:english cryceptio dance pop electronic short version euro
BeatmapID:4485597
BeatmapSetID:2131377

[Difficulty]
HPDrainRate:5.5
CircleSize:5
OverallDifficulty:5.5
ApproachRate:5
SliderMultiplier:1.4
SliderTickRate:1

[Events]
//Background and Video events
0,0,"crazyloop.jpg",0,15
//Break Periods
//Storyboard Layer 0 (Background)
//Storyboard Layer 1 (Fail)
//Storyboard Layer 2 (Pass)
//Storyboard Layer 3 (Foreground)
//Storyboard Layer 4 (Overlay)
//Storyboard Sound Samples

[TimingPoints]
446,451.127819548872,4,1,0,50,1,0
446,-111.111111111111,4,1,0,50,0,0
2244,-111.111111111111,4,1,0,70,0,0
14876,-111.111111111111,4,1,0,65,0,0
15326,-111.12479,4,1,0,65,0,0
15777,-117.65473,4,1,0,65,0,0
16228,-125,4,1,0,65,0,0
16686,-90.90909,4,1,0,85,0,1
28183,-90.90909,4,1,0,85,0,1
28296,-92.239975,4,1,0,85,0,1
28408,-93.24321,4,1,0,85,0,1
28521,-94.17364,4,1,0,85,0,1
28634,-95.05955,4,1,0,85,0,1
28860,-96.755745,4,1,0,85,0,1
29085,-98.38854,4,1,0,85,0,1
29198,-99.19672,4,1,0,85,0,1
29318,-100,4,1,0,80,0,0
30552,-105.263157894737,4,1,0,60,0,0
31003,-111.111111111111,4,1,0,65,0,0
36528,-105.263157894737,4,1,0,65,0,0
36868,-100,4,1,0,75,0,0
36980,-100,4,1,0,75,0,0
37093,-100.48759,4,1,0,75,0,0
37205,-100.848976,4,1,0,75,0,0
37431,-101.49019,4,1,0,75,0,0
37657,-102.07425,4,1,0,75,0,0
37882,-102.623535,4,1,0,75,0,0
37995,-102.89085,4,1,0,75,0,0
38108,-103.153595,4,1,0,75,0,0
38333,-103.66561,4,1,0,75,0,0
38559,-104.16786,4,1,0,75,0,0
38784,-104.65842,4,1,0,75,0,0
39010,-105.14344,4,1,0,75,0,0
39123,-105.38351,4,1,0,75,0,0
39235,-105.62002,4,1,0,75,0,0
39461,-106.09347,4,1,0,75,0,0
39687,-106.56251,4,1,0,75,0,0
39912,-107.02577,4,1,0,75,0,0
40025,-107.25723,4,1,0,75,0,0
40138,-107.48797,4,1,0,75,0,0
40363,-107.94549,4,1,0,75,0,0
40589,-108.40281,4,1,0,75,0,0
40814,-108.85625,4,1,0,75,0,0
40927,-109.08337,4,1,0,75,0,0
41040,-109.310135,4,1,0,75,0,0
41266,-109.76273,4,1,0,75,0,0
41491,-110.21229,4,1,0,75,0,0
41717,-110.66301,4,1,0,75,0,0
41942,-111.111115,4,1,0,75,0,0
42733,-105.263157894737,4,1,0,60,0,0
43635,-111.111111111111,4,1,0,65,0,0
47807,-111.111115,4,1,0,65,0,0
48033,-109.17277,4,1,0,65,0,0
48258,-107.2766,4,1,0,65,0,0
48371,-106.33676,4,1,0,65,0,0
48484,-105.40514,4,1,0,65,0,0
48709,-103.57441,4,1,0,65,0,0
48822,-102.66701,4,1,0,65,0,0
48935,-101.76755,4,1,0,65,0,0
49161,-99.99222,4,1,0,65,0,0
49500,-100,4,1,0,75,0,0
49612,-95.25314,4,1,0,75,0,0
49725,-95.9075,4,1,0,75,0,0
49837,-96.40136,4,1,0,75,0,0
50063,-97.28195,4,1,0,75,0,0
50289,-98.088524,4,1,0,75,0,0
50514,-98.850845,4,1,0,75,0,0
50627,-99.22315,4,1,0,75,0,0
50740,-99.58999,4,1,0,75,0,0
50965,-100.30723,4,1,0,75,0,0
51191,-101.013916,4,1,0,75,0,0
51416,-101.70713,4,1,0,75,0,0
51642,-102.3955,4,1,0,75,0,0
51755,-102.73729,4,1,0,75,0,0
51867,-103.074745,4,1,0,75,0,0
52093,-103.75234,4,1,0,75,0,0
52319,-104.426414,4,1,0,75,0,0
52544,-105.09494,4,1,0,75,0,0
52657,-105.429985,4,1,0,75,0,0
52770,-105.76467,4,1,0,75,0,0
52995,-106.43031,4,1,0,75,0,0
53221,-107.09839,4,1,0,75,0,0
53446,-107.76346,4,1,0,75,0,0
53559,-108.0976,4,1,0,75,0,0
53672,-108.4319,4,1,0,75,0,0
53898,-109.10114,4,1,0,75,0,0
54123,-109.76858,4,1,0,75,0,0
54348,-110.43748,4,1,0,75,0,0
54574,-111.111115,4,1,0,75,0,0
54799,-111.111115,4,1,0,75,0,0
54912,-110.276474,4,1,0,75,0,0
55025,-109.44811,4,1,0,75,0,0
55251,-107.81001,4,1,0,75,0,0
55363,-107.00731,4,1,0,75,0,0
55476,-106.20351,4,1,0,75,0,0
55702,-104.61396,4,1,0,75,0,0
55927,-103.05509,4,1,0,75,0,0
56040,-102.28096,4,1,0,75,0,0
56153,-101.51267,4,1,0,75,0,0
56266,-100.75014,4,1,0,75,0,0
56378,-100,4,1,0,75,0,0
56718,-100,4,1,0,80,0,0
65852,-100,4,1,0,80,0,0
66078,-102.44766,4,1,0,80,0,0
66303,-104.33234,4,1,0,80,0,0
66416,-105.22523,4,1,0,80,0,0
66529,-106.09729,4,1,0,80,0,0
66754,-107.79326,4,1,0,80,0,0
66867,-108.63159,4,1,0,80,0,0
66980,-109.464134,4,1,0,80,0,0
67205,-111.111115,4,1,0,80,0,0
67770,-117.647058823529,4,1,0,60,0,0
68221,-125,4,1,0,60,0,0
68673,-133.333333333333,4,1,0,60,0,0
69011,-133.333333333333,4,1,0,50,0,0
69236,-133.333333333333,4,1,0,50,0,0
70026,-100,4,1,0,65,0,0
70138,-98.38208,4,1,0,65,0,0
70213,-97.322716,4,1,0,65,0,0
70288,-96.274765,4,1,0,65,0,0
70363,-95.2381,4,1,0,65,0,0
70821,-86.9565217391304,4,1,0,85,0,1
83453,-86.95652,4,1,0,90,0,0
83672,-90.27136,4,1,0,90,0,0
83784,-91.59789,4,1,0,90,0,0
83897,-92.88457,4,1,0,90,0,0
84010,-94.141594,4,1,0,90,0,0
84123,-95.38135,4,1,0,90,0,0
84348,-97.82704,4,1,0,90,0,0
84574,-100.2825,4,1,0,90,0,0
84687,-101.51728,4,1,0,90,0,0
84799,-102.74866,4,1,0,90,0,0
84912,-104.00041,4,1,0,90,0,0
85025,-105.26316,4,1,0,90,0,0
85258,-86.9565217391304,4,1,0,85,0,1
96754,-86.95652,4,1,0,85,0,1
96867,-88.17342,4,1,0,85,0,1
96980,-89.09748,4,1,0,85,0,1
97205,-90.7464,4,1,0,85,0,1
97318,-91.52773,4,1,0,85,0,1
97431,-92.29091,4,1,0,85,0,1
97656,-93.77534,4,1,0,85,0,1
97889,-95.2381,4,1,0,80,0,0
98221,-100,4,1,0,80,0,0
98673,-105.263157894737,4,1,0,80,0,0
99124,-111.111111111111,4,1,0,80,0,0
99694,-90.9090909090909,4,1,0,85,0,1
111191,-90.93898,4,1,0,85,0,1
111303,-92.239975,4,1,0,85,0,1
111416,-93.251724,4,1,0,85,0,1
111529,-94.18163,4,1,0,85,0,1
111642,-95.06725,4,1,0,85,0,1
111867,-96.755745,4,1,0,85,0,1
112093,-98.39573,4,1,0,85,0,1
112205,-99.19672,4,1,0,85,0,1
112325,-100,4,1,0,75,0,0
112658,-105.263157894737,4,1,0,75,0,0
113109,-105.263157894737,4,1,0,75,0,0
113220,-103.917625,4,1,0,75,0,0
113446,-101.25468,4,1,0,75,0,0
113672,-98.65999,4,1,0,75,0,0
113897,-97.0873786407767,4,1,0,75,0,0
114130,-90.90909,4,1,0,85,0,1
125627,-90.94479,4,1,0,85,0,1
125739,-92.50379,4,1,0,85,0,1
125852,-93.7222,4,1,0,85,0,1
125965,-94.84676,4,1,0,85,0,1
126078,-95.92195,4,1,0,85,0,1
126304,-97.99234,4,1,0,85,0,1
126536,-100,4,1,0,80,0,0

[HitObjects]
256,196,15333,5,0,0:0:0:0:
256,196,15784,1,8,0:0:0:0:
256,196,16235,1,0,0:0:0:0:
256,196,16686,1,12,0:0:0:0:
256,196,16912,1,0,0:0:0:0:
256,196,17137,1,0,0:0:0:0:
256,196,17363,1,8,0:0:0:0:
256,196,17476,1,8,0:0:0:0:
256,196,17588,1,0,0:0:0:0:
256,196,17814,1,8,0:0:0:0:
256,196,17927,1,0,0:0:0:0:
256,196,18039,1,8,0:0:0:0:
256,196,18152,1,8,0:0:0:0:
256,196,18265,1,0,0:0:0:0:
256,196,18491,1,0,0:0:0:0:
256,196,18716,1,8,0:0:0:0:
256,196,18942,1,0,0:0:0:0:
256,196,19167,1,8,0:0:0:0:
256,196,19280,1,8,0:0:0:0:
256,196,19393,1,0,0:0:0:0:
256,196,19618,1,8,0:0:0:0:
256,196,19731,1,8,0:0:0:0:
256,196,19844,1,0,0:0:0:0:
256,196,19957,1,0,0:0:0:0:
256,196,20070,1,8,0:0:0:0:
256,196,20295,1,0,0:0:0:0:
256,196,20521,1,0,0:0:0:0:
256,196,20746,1,8,0:0:0:0:
256,196,20859,1,0,0:0:0:0:
256,196,20972,1,8,0:0:0:0:
256,196,21197,1,0,0:0:0:0:
256,196,21423,1,8,0:0:0:0:
256,196,21649,1,0,0:0:0:0:
256,196,21761,1,0,0:0:0:0:
256,196,21874,1,8,0:0:0:0:
256,196,22100,1,0,0:0:0:0:
256,196,22212,1,0,0:0:0:0:
256,196,22325,1,8,0:0:0:0:
256,196,22438,1,8,0:0:0:0:
256,196,22551,1,0,0:0:0:0:
256,196,22664,1,0,0:0:0:0:
256,196,22776,1,8,0:0:0:0:
256,196,23002,1,0,0:0:0:0:
256,196,23227,1,8,0:0:0:0:
256,196,23340,1,0,0:0:0:0:
256,196,23453,1,8,0:0:0:0:
256,196,23566,1,8,0:0:0:0:
256,196,23679,1,0,0:0:0:0:
256,196,23904,1,8,0:0:0:0:
256,196,24017,1,0,0:0:0:0:
256,196,24130,1,8,0:0:0:0:
256,196,24355,1,0,0:0:0:0:
256,196,24581,1,8,0:0:0:0:
256,196,24694,1,0,0:0:0:0:
256,196,24806,1,0,0:0:0:0:
256,196,25032,1,8,0:0:0:0:
256,196,25145,1,0,0:0:0:0:
256,196,25258,1,8,0:0:0:0:
256,196,25370,1,0,0:0:0:0:
256,196,25483,1,8,0:0:0:0:
256,196,25709,1,0,0:0:0:0:
256,196,25934,1,8,0:0:0:0:
256,196,26160,1,0,0:0:0:0:
256,196,26385,1,8,0:0:0:0:
256,196,26498,1,0,0:0:0:0:
256,196,26611,1,0,0:0:0:0:
256,196,26724,1,0,0:0:0:0:
256,196,26836,1,8,0:0:0:0:
256,196,27062,1,0,0:0:0:0:
256,196,27288,1,8,0:0:0:0:
256,196,27400,1,8,0:0:0:0:
256,196,27513,1,0,0:0:0:0:
256,196,27739,1,8,0:0:0:0:
256,196,27964,1,0,0:0:0:0:
256,196,28190,1,8,0:0:0:0:
256,196,28303,1,8,0:0:0:0:
256,196,28415,1,0,0:0:0:0:
256,196,28528,1,0,0:0:0:0:
256,196,28641,1,8,0:0:0:0:
256,196,28867,1,0,0:0:0:0:
256,196,29092,1,8,0:0:0:0:
256,196,29205,1,0,0:0:0:0:
256,196,29318,1,0,0:0:0:0:
256,196,30671,1,12,0:0:0:0:
256,196,31122,1,0,0:0:0:0:
256,196,31573,1,8,0:0:0:0:
256,196,31799,1,8,0:0:0:0:
256,196,32024,1,0,0:0:0:0:
256,196,32250,1,0,0:0:0:0:
256,196,32363,1,8,0:0:0:0:
256,196,32588,1,8,0:0:0:0:
256,196,32701,1,0,0:0:0:0:
256,196,32927,1,8,0:0:0:0:
256,196,33378,1,8,0:0:0:0:
256,196,33603,1,0,0:0:0:0:
256,196,33829,1,8,0:0:0:0:
256,196,34055,1,0,0:0:0:0:
256,196,34167,1,8,0:0:0:0:
256,196,34280,1,0,0:0:0:0:
256,196,34506,1,0,0:0:0:0:
256,196,34731,1,8,0:0:0:0:
256,196,35182,1,0,0:0:0:0:
256,196,35408,1,8,0:0:0:0:
256,196,35633,1,0,0:0:0:0:
256,196,35859,1,0,0:0:0:0:
256,196,35972,1,8,0:0:0:0:
256,196,36197,1,8,0:0:0:0:
256,196,36310,1,0,0:0:0:0:
256,196,36536,1,12,0:0:0:0:
256,196,36987,1,8,0:0:0:0:
256,196,37100,1,0,0:0:0:0:
256,196,37212,1,0,0:0:0:0:
256,196,37438,1,8,0:0:0:0:
256,196,37664,1,0,0:0:0:0:
256,196,37889,1,8,0:0:0:0:
256,196,38002,1,0,0:0:0:0:
256,196,38115,1,8,0:0:0:0:
256,196,38340,1,0,0:0:0:0:
256,196,38566,1,8,0:0:0:0:
256,196,38791,1,0,0:0:0:0:
256,196,39017,1,8,0:0:0:0:
256,196,39130,1,0,0:0:0:0:
256,196,39242,1,8,0:0:0:0:
256,196,39468,1,0,0:0:0:0:
256,196,39694,1,8,0:0:0:0:
256,196,39919,1,0,0:0:0:0:
256,196,40032,1,0,0:0:0:0:
256,196,40145,1,0,0:0:0:0:
256,196,40370,1,8,0:0:0:0:
256,196,40596,1,0,0:0:0:0:
256,196,40821,1,8,0:0:0:0:
256,196,40934,1,8,0:0:0:0:
256,196,41047,1,0,0:0:0:0:
256,196,41273,1,8,0:0:0:0:
256,196,41498,1,0,0:0:0:0:
256,196,41724,1,8,0:0:0:0:
256,196,41949,1,0,0:0:0:0:
256,196,42852,1,12,0:0:0:0:
256,196,43754,1,8,0:0:0:0:
256,196,44205,1,0,0:0:0:0:
256,196,44430,1,8,0:0:0:0:
256,196,44656,1,0,0:0:0:0:
256,196,44882,1,8,0:0:0:0:
256,196,44995,1,8,0:0:0:0:
256,196,45220,1,0,0:0:0:0:
256,196,45333,1,8,0:0:0:0:
256,196,45559,1,8,0:0:0:0:
256,196,45784,1,0,0:0:0:0:
256,196,46009,1,8,0:0:0:0:
256,196,46122,1,8,0:0:0:0:
256,196,46235,1,0,0:0:0:0:
256,196,46461,1,8,0:0:0:0:
256,196,46573,1,8,0:0:0:0:
256,196,46687,1,0,0:0:0:0:
256,196,46912,1,8,0:0:0:0:
256,196,47138,1,0,0:0:0:0:
256,196,47363,1,8,0:0:0:0:
256,196,47814,1,0,0:0:0:0:
256,196,48040,1,8,0:0:0:0:
256,196,48265,1,0,0:0:0:0:
256,196,48378,1,0,0:0:0:0:
256,196,48491,1,8,0:0:0:0:
256,196,48716,1,8,0:0:0:0:
256,196,48829,1,0,0:0:0:0:
256,196,48942,1,0,0:0:0:0:
256,196,49168,1,12,0:0:0:0:
256,196,49619,1,8,0:0:0:0:
256,196,49732,1,0,0:0:0:0:
256,196,49844,1,0,0:0:0:0:
256,196,50070,1,8,0:0:0:0:
256,196,50296,1,0,0:0:0:0:
256,196,50521,1,8,0:0:0:0:
256,196,50634,1,0,0:0:0:0:
256,196,50747,1,8,0:0:0:0:
256,196,50972,1,0,0:0:0:0:
256,196,51198,1,8,0:0:0:0:
256,196,51423,1,0,0:0:0:0:
256,196,51649,1,8,0:0:0:0:
256,196,51762,1,0,0:0:0:0:
256,196,51874,1,8,0:0:0:0:
256,196,52100,1,0,0:0:0:0:
256,196,52326,1,8,0:0:0:0:
256,196,52551,1,0,0:0:0:0:
256,196,52664,1,0,0:0:0:0:
256,196,52777,1,0,0:0:0:0:
256,196,53002,1,8,0:0:0:0:
256,196,53228,1,0,0:0:0:0:
256,196,53453,1,8,0:0:0:0:
256,196,53566,1,8,0:0:0:0:
256,196,53679,1,0,0:0:0:0:
256,196,53905,5,8,0:0:0:0:
256,196,54130,1,0,0:0:0:0:
256,196,54355,1,8,0:0:0:0:
256,196,54581,1,0,0:0:0:0:
256,196,54806,1,8,0:0:0:0:
256,196,54919,1,0,0:0:0:0:
256,196,55032,5,8,0:0:0:0:
256,196,55258,1,0,0:0:0:0:
256,196,55370,1,0,0:0:0:0:
256,196,55483,1,8,0:0:0:0:
256,196,55709,1,0,0:0:0:0:
256,196,55934,1,8,0:0:0:0:
256,196,56047,1,8,0:0:0:0:
256,196,56160,1,0,0:0:0:0:
256,196,56273,1,0,0:0:0:0:
256,196,56385,1,12,0:0:0:0:
256,196,56836,1,0,0:0:0:0:
256,196,56949,1,0,0:0:0:0:
256,196,57062,1,0,0:0:0:0:
256,196,57288,1,8,0:0:0:0:
256,196,57400,1,0,0:0:0:0:
256,196,57513,1,8,0:0:0:0:
256,196,57739,1,0,0:0:0:0:
256,196,57964,1,0,0:0:0:0:
256,196,58190,1,8,0:0:0:0:
256,196,58415,1,0,0:0:0:0:
256,196,58641,1,8,0:0:0:0:
256,196,58754,1,8,0:0:0:0:
256,196,58867,1,0,0:0:0:0:
256,196,59092,1,8,0:0:0:0:
256,196,59205,1,8,0:0:0:0:
256,196,59318,1,8,0:0:0:0:
256,196,59543,1,0,0:0:0:0:
256,196,59769,1,0,0:0:0:0:
256,196,59994,1,8,0:0:0:0:
256,196,60220,1,0,0:0:0:0:
256,196,60445,1,8,0:0:0:0:
256,196,60558,1,0,0:0:0:0:
256,196,60671,1,8,0:0:0:0:
256,196,60897,1,0,0:0:0:0:
256,196,61348,1,8,0:0:0:0:
256,196,61461,1,0,0:0:0:0:
256,196,61573,1,8,0:0:0:0:
256,196,61799,1,0,0:0:0:0:
256,196,61912,1,0,0:0:0:0:
256,196,62024,1,8,0:0:0:0:
256,196,62250,1,0,0:0:0:0:
256,196,62476,1,8,0:0:0:0:
256,196,62588,1,0,0:0:0:0:
256,196,62701,1,8,0:0:0:0:
256,196,62814,1,8,0:0:0:0:
256,196,62927,1,0,0:0:0:0:
256,196,63152,1,8,0:0:0:0:
256,196,63378,1,0,0:0:0:0:
256,196,63603,1,8,0:0:0:0:
256,196,63829,1,0,0:0:0:0:
256,196,63942,1,8,0:0:0:0:
256,196,64055,1,0,0:0:0:0:
256,196,64280,1,0,0:0:0:0:
256,196,64506,1,8,0:0:0:0:
256,196,64618,1,8,0:0:0:0:
256,196,64731,1,0,0:0:0:0:
256,196,64957,1,8,0:0:0:0:
256,196,65070,1,0,0:0:0:0:
256,196,65182,1,8,0:0:0:0:
256,196,65408,1,0,0:0:0:0:
256,196,65859,1,8,0:0:0:0:
256,196,66085,1,0,0:0:0:0:
256,196,66310,1,8,0:0:0:0:
256,196,66423,1,8,0:0:0:0:
256,196,66536,1,0,0:0:0:0:
256,196,66761,1,8,0:0:0:0:
256,196,66874,1,8,0:0:0:0:
256,196,66987,1,8,0:0:0:0:
256,196,67212,1,0,0:0:0:0:
256,196,67889,1,0,0:0:0:0:
256,196,68340,1,0,0:0:0:0:
256,196,68791,1,0,0:0:0:0:
256,196,70145,1,0,0:0:0:0:
256,196,70220,1,0,0:0:0:0:
256,196,70295,1,0,0:0:0:0:
256,196,70370,1,8,0:0:0:0:
256,196,70821,1,12,0:0:0:0:
256,196,71047,1,0,0:0:0:0:
256,196,71160,1,0,0:0:0:0:
256,196,71273,1,8,0:0:0:0:
256,196,71498,1,0,0:0:0:0:
256,196,71724,1,8,0:0:0:0:
256,196,71836,1,0,0:0:0:0:
256,196,71949,1,8,0:0:0:0:
256,196,72062,1,8,0:0:0:0:
256,196,72175,1,0,0:0:0:0:
256,196,72288,1,0,0:0:0:0:
256,196,72400,1,8,0:0:0:0:
256,196,72626,1,8,0:0:0:0:
256,196,72852,1,0,0:0:0:0:
256,196,73077,1,8,0:0:0:0:
256,196,73190,1,8,0:0:0:0:
256,196,73303,1,0,0:0:0:0:
256,196,73528,1,8,0:0:0:0:
256,196,73641,1,8,0:0:0:0:
256,196,73754,1,8,0:0:0:0:
256,196,73979,1,0,0:0:0:0:
256,196,74092,1,0,0:0:0:0:
256,196,74205,1,8,0:0:0:0:
256,196,74318,1,8,0:0:0:0:
256,196,74430,1,0,0:0:0:0:
256,196,74656,1,0,0:0:0:0:
256,196,74769,1,8,0:0:0:0:
256,196,74882,1,0,0:0:0:0:
256,196,75107,1,0,0:0:0:0:
256,196,75333,1,8,0:0:0:0:
256,196,75445,1,8,0:0:0:0:
256,196,75558,1,0,0:0:0:0:
256,196,75671,1,0,0:0:0:0:
256,196,75784,1,8,0:0:0:0:
256,196,75897,1,8,0:0:0:0:
256,196,76009,1,0,0:0:0:0:
256,196,76235,1,8,0:0:0:0:
256,196,76461,1,0,0:0:0:0:
256,196,76686,1,8,0:0:0:0:
256,196,76799,1,0,0:0:0:0:
256,196,76911,1,8,0:0:0:0:
256,196,77137,1,0,0:0:0:0:
256,196,77250,1,0,0:0:0:0:
256,196,77363,1,8,0:0:0:0:
256,196,77588,1,0,0:0:0:0:
256,196,77814,1,8,0:0:0:0:
256,196,77927,1,8,0:0:0:0:
256,196,78039,1,0,0:0:0:0:
256,196,78265,1,0,0:0:0:0:
256,196,78491,1,8,0:0:0:0:
256,196,78603,1,8,0:0:0:0:
256,196,78716,1,0,0:0:0:0:
256,196,78942,1,8,0:0:0:0:
256,196,79055,1,8,0:0:0:0:
256,196,79167,1,0,0:0:0:0:
256,196,79280,1,8,0:0:0:0:
256,196,79393,1,0,0:0:0:0:
256,196,79506,1,0,0:0:0:0:
256,196,79618,1,8,0:0:0:0:
256,196,79844,1,8,0:0:0:0:
256,196,80070,1,0,0:0:0:0:
256,196,80182,1,0,0:0:0:0:
256,196,80295,1,8,0:0:0:0:
256,196,80408,1,0,0:0:0:0:
256,196,80521,1,0,0:0:0:0:
256,196,80746,1,8,0:0:0:0:
256,196,80859,1,0,0:0:0:0:
256,196,80972,1,8,0:0:0:0:
256,196,81197,1,0,0:0:0:0:
256,196,81310,1,0,0:0:0:0:
256,196,81423,1,8,0:0:0:0:
256,196,81536,1,8,0:0:0:0:
256,196,81649,1,0,0:0:0:0:
256,196,81874,1,0,0:0:0:0:
256,196,82100,1,8,0:0:0:0:
256,196,82325,1,8,0:0:0:0:
256,196,82438,1,8,0:0:0:0:
256,196,82551,1,0,0:0:0:0:
256,196,82776,1,8,0:0:0:0:
256,196,82889,1,0,0:0:0:0:
256,196,83002,1,0,0:0:0:0:
256,196,83227,1,0,0:0:0:0:
256,196,83453,1,8,0:0:0:0:
256,196,83679,1,0,0:0:0:0:
256,196,83791,1,8,0:0:0:0:
256,196,83904,1,8,0:0:0:0:
256,196,84017,1,8,0:0:0:0:
256,196,84130,1,0,0:0:0:0:
256,196,84355,1,8,0:0:0:0:
256,196,84581,1,0,0:0:0:0:
256,196,84694,1,0,0:0:0:0:
256,196,84806,1,8,0:0:0:0:
256,196,84919,1,8,0:0:0:0:
256,196,85032,1,0,0:0:0:0:
256,196,85258,1,12,0:0:0:0:
256,196,85483,1,0,0:0:0:0:
256,196,85596,1,0,0:0:0:0:
256,196,85709,1,8,0:0:0:0:
256,196,85934,1,8,0:0:0:0:
256,196,86160,1,0,0:0:0:0:
256,196,86272,1,0,0:0:0:0:
256,196,86385,1,8,0:0:0:0:
256,196,86498,1,0,0:0:0:0:
256,196,86611,1,8,0:0:0:0:
256,196,86723,1,8,0:0:0:0:
256,196,86836,1,0,0:0:0:0:
256,196,87062,1,8,0:0:0:0:
256,196,87288,1,0,0:0:0:0:
256,196,87513,1,8,0:0:0:0:
256,196,87626,1,0,0:0:0:0:
256,196,87739,1,8,0:0:0:0:
256,196,87964,1,0,0:0:0:0:
256,196,88077,1,0,0:0:0:0:
256,196,88190,1,8,0:0:0:0:
256,196,88415,1,8,0:0:0:0:
256,196,88528,1,0,0:0:0:0:
256,196,88641,1,8,0:0:0:0:
256,196,88754,1,8,0:0:0:0:
256,196,88866,1,0,0:0:0:0:
256,196,89092,1,0,0:0:0:0:
256,196,89205,1,8,0:0:0:0:
256,196,89318,1,0,0:0:0:0:
256,196,89543,1,8,0:0:0:0:
256,196,89769,1,0,0:0:0:0:
256,196,89881,1,0,0:0:0:0:
256,196,89994,1,8,0:0:0:0:
256,196,90107,1,8,0:0:0:0:
256,196,90220,1,0,0:0:0:0:
256,196,90332,1,0,0:0:0:0:
256,196,90445,1,8,0:0:0:0:
256,196,90671,1,0,0:0:0:0:
256,196,90897,1,0,0:0:0:0:
256,196,91122,1,8,0:0:0:0:
256,196,91235,1,8,0:0:0:0:
256,196,91347,1,0,0:0:0:0:
256,196,91573,1,8,0:0:0:0:
256,196,91686,1,0,0:0:0:0:
256,196,91799,1,8,0:0:0:0:
256,196,92024,1,0,0:0:0:0:
256,196,92250,1,8,0:0:0:0:
256,196,92363,1,0,0:0:0:0:
256,196,92475,1,0,0:0:0:0:
256,196,92701,1,0,0:0:0:0:
256,196,92927,1,8,0:0:0:0:
256,196,93039,1,0,0:0:0:0:
256,196,93152,1,0,0:0:0:0:
256,196,93378,1,8,0:0:0:0:
256,196,93491,1,8,0:0:0:0:
256,196,93603,1,0,0:0:0:0:
256,196,93716,1,8,0:0:0:0:
256,196,93829,1,0,0:0:0:0:
256,196,93942,1,0,0:0:0:0:
256,196,94054,1,8,0:0:0:0:
256,196,94280,1,8,0:0:0:0:
256,196,94506,1,0,0:0:0:0:
256,196,94618,1,0,0:0:0:0:
256,196,94731,1,8,0:0:0:0:
256,196,94844,1,8,0:0:0:0:
256,196,94957,1,0,0:0:0:0:
256,196,95182,1,8,0:0:0:0:
256,196,95295,1,0,0:0:0:0:
256,196,95408,1,0,0:0:0:0:
256,196,95633,1,8,0:0:0:0:
256,196,95746,1,0,0:0:0:0:
256,196,95859,1,8,0:0:0:0:
256,196,95972,1,8,0:0:0:0:
256,196,96085,1,0,0:0:0:0:
256,196,96310,1,0,0:0:0:0:
256,196,96536,1,8,0:0:0:0:
256,196,96761,1,8,0:0:0:0:
256,196,96874,1,0,0:0:0:0:
256,196,96987,1,0,0:0:0:0:
256,196,97212,5,8,0:0:0:0:
256,196,97325,1,8,0:0:0:0:
256,196,97438,1,0,0:0:0:0:
256,196,97663,1,0,0:0:0:0:
256,196,97889,5,8,0:0:0:0:
256,196,98340,1,0,0:0:0:0:
256,196,98791,1,8,0:0:0:0:
256,196,99242,1,0,0:0:0:0:
256,196,99694,1,12,0:0:0:0:
256,196,99920,1,0,0:0:0:0:
256,196,100145,1,0,0:0:0:0:
256,196,100371,1,8,0:0:0:0:
256,196,100484,1,0,0:0:0:0:
256,196,100596,1,0,0:0:0:0:
256,196,100822,1,8,0:0:0:0:
256,196,100935,1,0,0:0:0:0:
256,196,101047,1,8,0:0:0:0:
256,196,101160,1,0,0:0:0:0:
256,196,101273,1,8,0:0:0:0:
256,196,101499,1,0,0:0:0:0:
256,196,101724,1,8,0:0:0:0:
256,196,101950,1,0,0:0:0:0:
256,196,102175,1,8,0:0:0:0:
256,196,102288,1,8,0:0:0:0:
256,196,102401,1,0,0:0:0:0:
256,196,102626,1,8,0:0:0:0:
256,196,102739,1,0,0:0:0:0:
256,196,102852,1,0,0:0:0:0:
256,196,102965,1,0,0:0:0:0:
256,196,103078,1,8,0:0:0:0:
256,196,103303,1,0,0:0:0:0:
256,196,103529,1,0,0:0:0:0:
256,196,103754,1,8,0:0:0:0:
256,196,103867,1,0,0:0:0:0:
256,196,103980,1,8,0:0:0:0:
256,196,104205,1,0,0:0:0:0:
256,196,104431,1,8,0:0:0:0:
256,196,104657,1,0,0:0:0:0:
256,196,104769,1,0,0:0:0:0:
256,196,104882,1,8,0:0:0:0:
256,196,105108,1,0,0:0:0:0:
256,196,105220,1,0,0:0:0:0:
256,196,105333,1,8,0:0:0:0:
256,196,105446,1,0,0:0:0:0:
256,196,105559,1,0,0:0:0:0:
256,196,105672,1,0,0:0:0:0:
256,196,105784,1,8,0:0:0:0:
256,196,106010,1,0,0:0:0:0:
256,196,106235,1,8,0:0:0:0:
256,196,106348,1,8,0:0:0:0:
256,196,106461,1,8,0:0:0:0:
256,196,106574,1,8,0:0:0:0:
256,196,106687,1,0,0:0:0:0:
256,196,106912,1,8,0:0:0:0:
256,196,107025,1,0,0:0:0:0:
256,196,107138,1,8,0:0:0:0:
256,196,107363,1,0,0:0:0:0:
256,196,107589,1,8,0:0:0:0:
256,196,107701,1,8,0:0:0:0:
256,196,107814,1,0,0:0:0:0:
256,196,108040,1,8,0:0:0:0:
256,196,108153,1,8,0:0:0:0:
256,196,108265,1,0,0:0:0:0:
256,196,108378,1,0,0:0:0:0:
256,196,108491,1,8,0:0:0:0:
256,196,108717,1,0,0:0:0:0:
256,196,108942,1,8,0:0:0:0:
256,196,109168,1,0,0:0:0:0:
256,196,109393,1,8,0:0:0:0:
256,196,109506,1,0,0:0:0:0:
256,196,109619,1,0,0:0:0:0:
256,196,109732,1,0,0:0:0:0:
256,196,109844,1,8,0:0:0:0:
256,196,110070,1,0,0:0:0:0:
256,196,110296,1,8,0:0:0:0:
256,196,110408,1,0,0:0:0:0:
256,196,110521,1,0,0:0:0:0:
256,196,110746,1,8,0:0:0:0:
256,196,110972,1,0,0:0:0:0:
256,196,111198,1,8,0:0:0:0:
256,196,111310,1,0,0:0:0:0:
256,196,111423,1,0,0:0:0:0:
256,196,111536,1,0,0:0:0:0:
256,196,111649,1,8,0:0:0:0:
256,196,111874,1,0,0:0:0:0:
256,196,112100,1,0,0:0:0:0:
256,196,112212,1,0,0:0:0:0:
256,196,112325,1,12,0:0:0:0:
256,196,112776,1,0,0:0:0:0:
256,196,113227,1,8,0:0:0:0:
256,196,113453,1,0,0:0:0:0:
256,196,113679,1,8,0:0:0:0:
256,196,113904,1,0,0:0:0:0:
256,196,114130,1,12,0:0:0:0:
256,196,114356,1,0,0:0:0:0:
256,196,114581,1,0,0:0:0:0:
256,196,114807,1,8,0:0:0:0:
256,196,114920,1,8,0:0:0:0:
256,196,115032,1,8,0:0:0:0:
256,196,115258,1,0,0:0:0:0:
256,196,115371,1,0,0:0:0:0:
256,196,115483,1,8,0:0:0:0:
256,196,115596,1,0,0:0:0:0:
256,196,115709,1,8,0:0:0:0:
256,196,115935,1,0,0:0:0:0:
256,196,116160,1,8,0:0:0:0:
256,196,116386,1,0,0:0:0:0:
256,196,116611,1,8,0:0:0:0:
256,196,116724,1,0,0:0:0:0:
256,196,116836,1,8,0:0:0:0:
256,196,117062,1,0,0:0:0:0:
256,196,117175,1,0,0:0:0:0:
256,196,117288,1,0,0:0:0:0:
256,196,117401,1,0,0:0:0:0:
256,196,117514,1,8,0:0:0:0:
256,196,117739,1,0,0:0:0:0:
256,196,117964,1,8,0:0:0:0:
256,196,118190,1,0,0:0:0:0:
256,196,118303,1,0,0:0:0:0:
256,196,118416,1,8,0:0:0:0:
256,196,118641,1,8,0:0:0:0:
256,196,118867,1,0,0:0:0:0:
256,196,119093,1,8,0:0:0:0:
256,196,119206,1,0,0:0:0:0:
256,196,119318,1,8,0:0:0:0:
256,196,119544,1,0,0:0:0:0:
256,196,119656,1,0,0:0:0:0:
256,196,119769,1,8,0:0:0:0:
256,196,119882,1,0,0:0:0:0:
256,196,119995,1,0,0:0:0:0:
256,196,120108,1,0,0:0:0:0:
256,196,120220,1,8,0:0:0:0:
256,196,120446,1,0,0:0:0:0:
256,196,120671,1,8,0:0:0:0:
256,196,120784,1,8,0:0:0:0:
256,196,120897,1,0,0:0:0:0:
256,196,121010,1,8,0:0:0:0:
256,196,121122,1,8,0:0:0:0:
256,196,121348,1,0,0:0:0:0:
256,196,121461,1,0,0:0:0:0:
256,196,121574,1,8,0:0:0:0:
256,196,121799,1,0,0:0:0:0:
256,196,122025,1,8,0:0:0:0:
256,196,122138,1,0,0:0:0:0:
256,196,122250,1,0,0:0:0:0:
256,196,122476,1,8,0:0:0:0:
256,196,122589,1,0,0:0:0:0:
256,196,122702,1,8,0:0:0:0:
256,196,122814,1,8,0:0:0:0:
256,196,122927,1,0,0:0:0:0:
256,196,123152,1,8,0:0:0:0:
256,196,123378,1,8,0:0:0:0:
256,196,123604,1,0,0:0:0:0:
256,196,123829,1,8,0:0:0:0:
256,196,123942,1,8,0:0:0:0:
256,196,124055,1,0,0:0:0:0:
256,196,124168,1,0,0:0:0:0:
256,196,124280,1,8,0:0:0:0:
256,196,124506,1,0,0:0:0:0:
256,196,124732,1,8,0:0:0:0:
256,196,124844,1,0,0:0:0:0:
256,196,124957,1,0,0:0:0:0:
256,196,125183,1,8,0:0:0:0:
256,196,125408,1,0,0:0:0:0:
256,196,125634,1,8,0:0:0:0:
256,196,125746,1,0,0:0:0:0:
256,196,125859,1,0,0:0:0:0:
256,196,125972,1,0,0:0:0:0:
256,196,126085,1,8,0:0:0:0:
256,196,126311,1,0,0:0:0:0:
256,196,126536,1,8,0:0:0:0:
