osu file format v14

[General]
AudioFilename: audio.mp3
AudioLeadIn: 0
PreviewTime: 69236
Countdown: 0
SampleSet: Normal
StackLeniency: 0.7
Mode: 1
LetterboxInBreaks: 0
WidescreenStoryboard: 1

[Editor]
Bookmarks: 85026
DistanceSpacing: 1.8
BeatDivisor: 4
GridSize: 16
TimelineZoom: 1

[Metadata]
Title:Crazy Loop (Mm-Ma-Ma) (Cut Ver.)
TitleUnicode:Crazy Loop (Mm-Ma-Ma) (Cut Ver.)
Artist:Dan Balan
ArtistUnicode:Dan Bălan
Creator:Ognjen3800
Version:Crazy Muzukashii
Source:
Tags:english cryceptio dance pop electronic short version euro
BeatmapID:4485002
BeatmapSetID:2131377

[Difficulty]
HPDrainRate:7
CircleSize:5
OverallDifficulty:4.5
ApproachRate:5
SliderMultiplier:1.4
SliderTickRate:1

[Events]
//Background and Video events
0,0,"crazyloop.jpg",0,15
//Break Periods
//Storyboard Layer 0 (Background)
//Storyboard Layer 1 (Fail)
//Storyboard Layer 2 (Pass)
//Storyboard Layer 3 (Foreground)
//Storyboard Layer 4 (Overlay)
//Storyboard Sound Samples

[TimingPoints]
446,451.127819548872,4,1,0,50,1,0
446,-100,4,1,0,50,0,0
2244,-100,4,1,0,70,0,0
14876,-100,4,1,0,65,0,0
16686,-100,4,1,0,85,0,1
29318,-100,4,1,0,80,0,0
30552,-100,4,1,0,60,0,0
31003,-100,4,1,0,65,0,0
36868,-100,4,1,0,75,0,0
42733,-100,4,1,0,60,0,0
43635,-100,4,1,0,65,0,0
49500,-100,4,1,0,75,0,0
56718,-100,4,1,0,80,0,0
67770,-100,4,1,0,60,0,0
69011,-100,4,1,0,50,0,0
70026,-100,4,1,0,65,0,0
70821,-100,4,1,0,85,0,1
83453,-100,4,1,0,90,0,0
85258,-100,4,1,0,85,0,1
97889,-100,4,1,0,80,0,0
98221,-100,4,1,0,80,0,0
99694,-100,4,1,0,85,0,1
112325,-100,4,1,0,75,0,0
114130,-100,4,1,0,85,0,1
126536,-100,4,1,0,80,0,0

[HitObjects]
256,196,15333,5,0,0:0:0:0:
256,196,15784,1,8,0:0:0:0:
256,196,16235,1,0,0:0:0:0:
256,196,16686,1,12,0:0:0:0:
256,196,16912,1,0,0:0:0:0:
256,196,17137,1,0,0:0:0:0:
256,196,17363,1,8,0:0:0:0:
256,196,17814,1,8,0:0:0:0:
256,196,17927,1,8,0:0:0:0:
256,196,18039,1,8,0:0:0:0:
256,196,18265,1,0,0:0:0:0:
256,196,18716,1,8,0:0:0:0:
256,196,19167,1,8,0:0:0:0:
256,196,19393,1,0,0:0:0:0:
256,196,19618,1,8,0:0:0:0:
256,196,19844,1,0,0:0:0:0:
256,196,19957,1,0,0:0:0:0:
256,196,20070,1,0,0:0:0:0:
256,196,20295,1,8,0:0:0:0:
256,196,20746,1,0,0:0:0:0:
256,196,20972,1,8,0:0:0:0:
256,196,21649,1,8,0:0:0:0:
256,196,21761,1,8,0:0:0:0:
256,196,21874,1,8,0:0:0:0:
256,196,22100,1,0,0:0:0:0:
256,196,22325,1,8,0:0:0:0:
256,196,22776,1,8,0:0:0:0:
256,196,23453,1,0,0:0:0:0:
256,196,23904,1,8,0:0:0:0:
256,196,24130,1,8,0:0:0:0:
256,196,24355,1,0,0:0:0:0:
256,196,24581,1,8,0:0:0:0:
256,196,25032,1,8,0:0:0:0:
256,196,25145,1,8,0:0:0:0:
256,196,25258,1,8,0:0:0:0:
256,196,25483,1,0,0:0:0:0:
256,196,25934,1,8,0:0:0:0:
256,196,26385,1,0,0:0:0:0:
256,196,26611,1,0,0:0:0:0:
256,196,26836,1,8,0:0:0:0:
256,196,27062,1,8,0:0:0:0:
256,196,27288,1,0,0:0:0:0:
256,196,27739,1,0,0:0:0:0:
256,196,28190,1,8,0:0:0:0:
256,196,28415,1,0,0:0:0:0:
256,196,28641,1,8,0:0:0:0:
256,196,28867,1,8,0:0:0:0:
256,196,29092,1,0,0:0:0:0:
256,196,29318,1,0,0:0:0:0:
256,196,30671,1,12,0:0:0:0:
256,196,31122,1,0,0:0:0:0:
256,196,31799,1,8,0:0:0:0:
256,196,32024,1,0,0:0:0:0:
256,196,32363,1,8,0:0:0:0:
256,196,32588,1,0,0:0:0:0:
256,196,32701,1,0,0:0:0:0:
256,196,32927,1,8,0:0:0:0:
256,196,33378,1,8,0:0:0:0:
256,196,33603,1,0,0:0:0:0:
256,196,33829,1,8,0:0:0:0:
256,196,34167,1,0,0:0:0:0:
256,196,34506,1,0,0:0:0:0:
256,196,34731,1,8,0:0:0:0:
256,196,35408,1,8,0:0:0:0:
256,196,35633,1,0,0:0:0:0:
256,196,35972,1,8,0:0:0:0:
256,196,36197,1,0,0:0:0:0:
256,196,36310,1,0,0:0:0:0:
256,196,36536,1,12,0:0:0:0:
256,196,36987,1,8,0:0:0:0:
256,196,37212,1,0,0:0:0:0:
256,196,37438,1,8,0:0:0:0:
256,196,37664,1,8,0:0:0:0:
256,196,37889,1,0,0:0:0:0:
256,196,38115,1,8,0:0:0:0:
256,196,38566,1,0,0:0:0:0:
256,196,39017,1,8,0:0:0:0:
256,196,39242,1,8,0:0:0:0:
256,196,39468,1,0,0:0:0:0:
256,196,39694,1,8,0:0:0:0:
256,196,39919,1,0,0:0:0:0:
256,196,40370,1,0,0:0:0:0:
256,196,40821,1,8,0:0:0:0:
256,196,41273,1,0,0:0:0:0:
256,196,41498,1,8,0:0:0:0:
256,196,41724,1,8,0:0:0:0:
256,196,41949,1,0,0:0:0:0:
256,196,42852,1,12,0:0:0:0:
256,196,43754,1,0,0:0:0:0:
256,196,44431,1,8,0:0:0:0:
256,196,44656,1,0,0:0:0:0:
256,196,44994,1,0,0:0:0:0:
256,196,45220,1,8,0:0:0:0:
256,196,45333,1,8,0:0:0:0:
256,196,45559,1,8,0:0:0:0:
256,196,46010,1,8,0:0:0:0:
256,196,46235,1,0,0:0:0:0:
256,196,46461,1,8,0:0:0:0:
256,196,46686,1,8,0:0:0:0:
256,196,46912,1,0,0:0:0:0:
256,196,47138,1,8,0:0:0:0:
256,196,47588,1,8,0:0:0:0:
256,196,48039,1,0,0:0:0:0:
256,196,48265,1,8,0:0:0:0:
256,196,48491,1,8,0:0:0:0:
256,196,48716,1,0,0:0:0:0:
256,196,48942,1,0,0:0:0:0:
256,196,49167,1,12,0:0:0:0:
256,196,49618,1,0,0:0:0:0:
256,196,49844,1,0,0:0:0:0:
256,196,50070,1,8,0:0:0:0:
256,196,50296,1,0,0:0:0:0:
256,196,50521,1,8,0:0:0:0:
256,196,50747,1,8,0:0:0:0:
256,196,51197,1,0,0:0:0:0:
256,196,51649,1,8,0:0:0:0:
256,196,51874,1,0,0:0:0:0:
256,196,52100,1,8,0:0:0:0:
256,196,52326,1,0,0:0:0:0:
256,196,52551,1,8,0:0:0:0:
256,196,53002,1,8,0:0:0:0:
256,196,53453,1,0,0:0:0:0:
256,196,53905,1,8,0:0:0:0:
256,196,54130,1,0,0:0:0:0:
256,196,54581,1,8,0:0:0:0:
256,196,54806,1,8,0:0:0:0:
256,196,55032,1,0,0:0:0:0:
256,196,55258,1,0,0:0:0:0:
256,196,55483,1,8,0:0:0:0:
256,196,55709,1,8,0:0:0:0:
256,196,55934,1,0,0:0:0:0:
256,196,56047,1,0,0:0:0:0:
256,196,56160,1,0,0:0:0:0:
256,196,56385,1,12,0:0:0:0:
256,196,56836,1,0,0:0:0:0:
256,196,57288,1,8,0:0:0:0:
256,196,57513,1,0,0:0:0:0:
256,196,57739,1,8,0:0:0:0:
256,196,57964,1,0,0:0:0:0:
256,196,58190,1,8,0:0:0:0:
256,196,58641,1,0,0:0:0:0:
256,196,59092,1,8,0:0:0:0:
256,196,59318,1,0,0:0:0:0:
256,196,59543,1,8,0:0:0:0:
256,196,59769,1,8,0:0:0:0:
256,196,59994,1,0,0:0:0:0:
256,196,60445,1,8,0:0:0:0:
256,196,60671,1,8,0:0:0:0:
256,196,61348,1,8,0:0:0:0:
256,196,61573,1,8,0:0:0:0:
256,196,61799,1,0,0:0:0:0:
256,196,62024,1,0,0:0:0:0:
256,196,62250,1,8,0:0:0:0:
256,196,62476,1,0,0:0:0:0:
256,196,63152,1,0,0:0:0:0:
256,196,63603,1,8,0:0:0:0:
256,196,63942,1,8,0:0:0:0:
256,196,64280,1,0,0:0:0:0:
256,196,64506,1,0,0:0:0:0:
256,196,64731,1,8,0:0:0:0:
256,196,64957,1,8,0:0:0:0:
256,196,65182,1,0,0:0:0:0:
256,196,65408,1,8,0:0:0:0:
256,196,65859,1,8,0:0:0:0:
256,196,66310,1,0,0:0:0:0:
256,196,66536,1,0,0:0:0:0:
256,196,66761,1,8,0:0:0:0:
256,196,66987,1,8,0:0:0:0:
256,196,67212,1,0,0:0:0:0:
256,196,67889,1,0,0:0:0:0:
256,196,68340,1,0,0:0:0:0:
256,196,68791,1,0,0:0:0:0:
256,196,70145,1,8,0:0:0:0:
256,196,70258,1,8,0:0:0:0:
256,196,70370,1,8,0:0:0:0:
256,196,70821,1,12,0:0:0:0:
256,196,71498,1,0,0:0:0:0:
256,196,71949,1,8,0:0:0:0:
256,196,72175,1,8,0:0:0:0:
256,196,72400,1,0,0:0:0:0:
256,196,72626,1,8,0:0:0:0:
256,196,73077,1,8,0:0:0:0:
256,196,73303,1,0,0:0:0:0:
256,196,73528,1,8,0:0:0:0:
256,196,73641,1,8,0:0:0:0:
256,196,73754,1,8,0:0:0:0:
256,196,73979,1,0,0:0:0:0:
256,196,74205,1,8,0:0:0:0:
256,196,74656,1,0,0:0:0:0:
256,196,75107,1,0,0:0:0:0:
256,196,75558,1,8,0:0:0:0:
256,196,75784,1,8,0:0:0:0:
256,196,76009,1,8,0:0:0:0:
256,196,76235,1,0,0:0:0:0:
256,196,76686,1,8,0:0:0:0:
256,196,76911,1,0,0:0:0:0:
256,196,77137,1,8,0:0:0:0:
256,196,77250,1,8,0:0:0:0:
256,196,77363,1,8,0:0:0:0:
256,196,77588,1,0,0:0:0:0:
256,196,77814,1,8,0:0:0:0:
256,196,78491,1,8,0:0:0:0:
256,196,78716,1,0,0:0:0:0:
256,196,78942,1,8,0:0:0:0:
256,196,79280,1,8,0:0:0:0:
256,196,79618,1,0,0:0:0:0:
256,196,80295,1,8,0:0:0:0:
256,196,80520,1,0,0:0:0:0:
256,196,80746,1,8,0:0:0:0:
256,196,80859,1,8,0:0:0:0:
256,196,80972,1,8,0:0:0:0:
256,196,81197,1,8,0:0:0:0:
256,196,81423,1,0,0:0:0:0:
256,196,82100,1,0,0:0:0:0:
256,196,82325,1,8,0:0:0:0:
256,196,82776,1,0,0:0:0:0:
256,196,83227,1,0,0:0:0:0:
256,196,83453,1,8,0:0:0:0:
256,196,83679,1,8,0:0:0:0:
256,196,83791,1,8,0:0:0:0:
256,196,83904,1,8,0:0:0:0:
256,196,84130,1,0,0:0:0:0:
256,196,84355,1,8,0:0:0:0:
256,196,84581,1,0,0:0:0:0:
256,196,84694,1,0,0:0:0:0:
256,196,84806,1,0,0:0:0:0:
256,196,85032,1,0,0:0:0:0:
256,196,85258,1,12,0:0:0:0:
256,196,85934,1,0,0:0:0:0:
256,196,86385,1,0,0:0:0:0:
256,196,86611,1,8,0:0:0:0:
256,196,86836,1,0,0:0:0:0:
256,196,87062,1,8,0:0:0:0:
256,196,87513,1,0,0:0:0:0:
256,196,87739,1,0,0:0:0:0:
256,196,87964,1,8,0:0:0:0:
256,196,88077,1,8,0:0:0:0:
256,196,88190,1,8,0:0:0:0:
256,196,88415,1,0,0:0:0:0:
256,196,88641,1,8,0:0:0:0:
256,196,89092,1,0,0:0:0:0:
256,196,89543,1,8,0:0:0:0:
256,196,89994,1,0,0:0:0:0:
256,196,90220,1,0,0:0:0:0:
256,196,90445,1,0,0:0:0:0:
256,196,90671,1,8,0:0:0:0:
256,196,91122,1,0,0:0:0:0:
256,196,91347,1,0,0:0:0:0:
256,196,91573,1,8,0:0:0:0:
256,196,91686,1,8,0:0:0:0:
256,196,91799,1,8,0:0:0:0:
256,196,92024,1,0,0:0:0:0:
256,196,92250,1,8,0:0:0:0:
256,196,92927,1,8,0:0:0:0:
256,196,93152,1,0,0:0:0:0:
256,196,93378,1,8,0:0:0:0:
256,196,93716,1,0,0:0:0:0:
256,196,94054,1,8,0:0:0:0:
256,196,94731,1,8,0:0:0:0:
256,196,94957,1,8,0:0:0:0:
256,196,95182,1,0,0:0:0:0:
256,196,95295,1,0,0:0:0:0:
256,196,95408,1,0,0:0:0:0:
256,196,95633,1,8,0:0:0:0:
256,196,95859,1,0,0:0:0:0:
256,196,96536,1,0,0:0:0:0:
256,196,96761,1,8,0:0:0:0:
256,196,97212,5,8,0:0:0:0:
256,196,97663,1,0,0:0:0:0:
256,196,97889,1,8,0:0:0:0:
256,196,98340,1,0,0:0:0:0:
256,196,98791,1,8,0:0:0:0:
256,196,99242,1,0,0:0:0:0:
256,196,99694,1,12,0:0:0:0:
256,196,99920,1,0,0:0:0:0:
256,196,100145,1,0,0:0:0:0:
256,196,100371,1,8,0:0:0:0:
256,196,100821,1,0,0:0:0:0:
256,196,100934,1,0,0:0:0:0:
256,196,101047,1,0,0:0:0:0:
256,196,101273,1,8,0:0:0:0:
256,196,101724,1,8,0:0:0:0:
256,196,102175,1,0,0:0:0:0:
256,196,102401,1,0,0:0:0:0:
256,196,102626,1,8,0:0:0:0:
256,196,102852,1,0,0:0:0:0:
256,196,102965,1,0,0:0:0:0:
256,196,103078,1,0,0:0:0:0:
256,196,103303,1,8,0:0:0:0:
256,196,103754,1,8,0:0:0:0:
256,196,103980,1,0,0:0:0:0:
256,196,104657,1,0,0:0:0:0:
256,196,104769,1,0,0:0:0:0:
256,196,104882,1,0,0:0:0:0:
256,196,105108,1,8,0:0:0:0:
256,196,105333,1,0,0:0:0:0:
256,196,105784,1,8,0:0:0:0:
256,196,106461,1,0,0:0:0:0:
256,196,106912,1,0,0:0:0:0:
256,196,107138,1,8,0:0:0:0:
256,196,107363,1,0,0:0:0:0:
256,196,107589,1,8,0:0:0:0:
256,196,108040,1,8,0:0:0:0:
256,196,108152,1,8,0:0:0:0:
256,196,108266,1,8,0:0:0:0:
256,196,108491,1,0,0:0:0:0:
256,196,108942,1,8,0:0:0:0:
256,196,109393,1,0,0:0:0:0:
256,196,109619,1,0,0:0:0:0:
256,196,109844,1,8,0:0:0:0:
256,196,110070,1,0,0:0:0:0:
256,196,110296,1,8,0:0:0:0:
256,196,110747,1,0,0:0:0:0:
256,196,111198,1,8,0:0:0:0:
256,196,111423,1,0,0:0:0:0:
256,196,111649,1,8,0:0:0:0:
256,196,111874,1,8,0:0:0:0:
256,196,112100,1,0,0:0:0:0:
256,196,112325,1,12,0:0:0:0:
256,196,112776,1,8,0:0:0:0:
256,196,113227,1,8,0:0:0:0:
256,196,113453,1,0,0:0:0:0:
256,196,113679,1,8,0:0:0:0:
256,196,114130,1,12,0:0:0:0:
256,196,114356,1,0,0:0:0:0:
256,196,114581,1,0,0:0:0:0:
256,196,114807,1,8,0:0:0:0:
256,196,115258,1,8,0:0:0:0:
256,196,115370,1,8,0:0:0:0:
256,196,115483,1,8,0:0:0:0:
256,196,115709,1,0,0:0:0:0:
256,196,116160,1,8,0:0:0:0:
256,196,116611,1,0,0:0:0:0:
256,196,116837,1,8,0:0:0:0:
256,196,117062,1,0,0:0:0:0:
256,196,117288,1,8,0:0:0:0:
256,196,117401,1,8,0:0:0:0:
256,196,117514,1,8,0:0:0:0:
256,196,117739,1,0,0:0:0:0:
256,196,118190,1,8,0:0:0:0:
256,196,118416,1,0,0:0:0:0:
256,196,119093,1,8,0:0:0:0:
256,196,119205,1,8,0:0:0:0:
256,196,119318,1,8,0:0:0:0:
256,196,119544,1,0,0:0:0:0:
256,196,119769,1,8,0:0:0:0:
256,196,120220,1,8,0:0:0:0:
256,196,120897,1,0,0:0:0:0:
256,196,121348,1,0,0:0:0:0:
256,196,121574,1,8,0:0:0:0:
256,196,121799,1,8,0:0:0:0:
256,196,122025,1,0,0:0:0:0:
256,196,122476,1,0,0:0:0:0:
256,196,122588,1,0,0:0:0:0:
256,196,122702,1,0,0:0:0:0:
256,196,122927,1,8,0:0:0:0:
256,196,123378,1,8,0:0:0:0:
256,196,123829,1,0,0:0:0:0:
256,196,124055,1,0,0:0:0:0:
256,196,124280,1,8,0:0:0:0:
256,196,124506,1,0,0:0:0:0:
256,196,124732,1,8,0:0:0:0:
256,196,125183,1,0,0:0:0:0:
256,196,125634,1,8,0:0:0:0:
256,196,125859,1,0,0:0:0:0:
256,196,126085,1,8,0:0:0:0:
256,196,126311,1,8,0:0:0:0:
256,196,126536,1,0,0:0:0:0:
