osu file format v14

[General]
AudioFilename: audio.mp3
AudioLeadIn: 0
PreviewTime: 69236
Countdown: 0
SampleSet: Normal
StackLeniency: 0.7
Mode: 1
LetterboxInBreaks: 0
WidescreenStoryboard: 1

[Editor]
Bookmarks: 85026
DistanceSpacing: 1.8
BeatDivisor: 4
GridSize: 16
TimelineZoom: 1

[Metadata]
Title:Crazy Loop (Mm-Ma-Ma) (Cut Ver.)
TitleUnicode:Crazy Loop (Mm-Ma-Ma) (Cut Ver.)
Artist:Dan Balan
ArtistUnicode:Dan Bălan
Creator:Ognjen3800
Version:Crazy Kantan
Source:
Tags:english cryceptio dance pop electronic short version euro
BeatmapID:4485095
BeatmapSetID:2131377

[Difficulty]
HPDrainRate:9
CircleSize:5
OverallDifficulty:3
ApproachRate:5
SliderMultiplier:1.4
SliderTickRate:1

[Events]
//Background and Video events
0,0,"crazyloop.jpg",0,15
//Break Periods
//Storyboard Layer 0 (Background)
//Storyboard Layer 1 (Fail)
//Storyboard Layer 2 (Pass)
//Storyboard Layer 3 (Foreground)
//Storyboard Layer 4 (Overlay)
//Storyboard Sound Samples

[TimingPoints]
446,451.127819548872,4,1,0,50,1,0
446,-100,4,1,0,50,0,0
2244,-100,4,1,0,70,0,0
14876,-100,4,1,0,65,0,0
16686,-100,4,1,0,85,0,1
29318,-100,4,1,0,80,0,0
30552,-100,4,1,0,60,0,0
31003,-100,4,1,0,65,0,0
36868,-100,4,1,0,75,0,0
42733,-100,4,1,0,60,0,0
43635,-100,4,1,0,65,0,0
49500,-100,4,1,0,75,0,0
56718,-100,4,1,0,80,0,0
67770,-100,4,1,0,60,0,0
69011,-100,4,1,0,50,0,0
70026,-100,4,1,0,65,0,0
70821,-100,4,1,0,85,0,1
83453,-100,4,1,0,90,0,0
85258,-100,4,1,0,85,0,1
97889,-100,4,1,0,80,0,0
98221,-100,4,1,0,80,0,0
99694,-100,4,1,0,85,0,1
112325,-100,4,1,0,75,0,0
114130,-100,4,1,0,85,0,1
126536,-100,4,1,0,80,0,0

[HitObjects]
256,196,15333,5,0,0:0:0:0:
256,196,15784,1,8,0:0:0:0:
256,196,16235,1,0,0:0:0:0:
256,196,16686,1,12,0:0:0:0:
256,196,17363,1,8,0:0:0:0:
256,196,17814,1,8,0:0:0:0:
256,196,18265,1,0,0:0:0:0:
256,196,19167,1,8,0:0:0:0:
256,196,19618,1,8,0:0:0:0:
256,196,20070,1,0,0:0:0:0:
256,196,20746,1,8,0:0:0:0:
256,196,21874,1,0,0:0:0:0:
256,196,22325,1,0,0:0:0:0:
256,196,22776,1,8,0:0:0:0:
256,196,23904,1,8,0:0:0:0:
256,196,24581,1,0,0:0:0:0:
256,196,25032,1,8,0:0:0:0:
256,196,25483,1,0,0:0:0:0:
256,196,26385,1,0,0:0:0:0:
256,196,26836,1,0,0:0:0:0:
256,196,27288,1,8,0:0:0:0:
256,196,28190,1,8,0:0:0:0:
256,196,28641,1,0,0:0:0:0:
256,196,29092,1,8,0:0:0:0:
256,196,30671,1,12,0:0:0:0:
256,196,31122,1,0,0:0:0:0:
256,196,32024,1,0,0:0:0:0:
256,196,32927,1,8,0:0:0:0:
256,196,33378,1,8,0:0:0:0:
256,196,33829,1,0,0:0:0:0:
256,196,34731,1,8,0:0:0:0:
256,196,35633,1,0,0:0:0:0:
256,196,36085,1,0,0:0:0:0:
256,196,36536,1,12,0:0:0:0:
256,196,37438,1,8,0:0:0:0:
256,196,38115,1,0,0:0:0:0:
256,196,39242,1,0,0:0:0:0:
256,196,39919,1,8,0:0:0:0:
256,196,40821,1,0,0:0:0:0:
256,196,41949,1,0,0:0:0:0:
256,196,42852,1,12,0:0:0:0:
256,196,43754,1,8,0:0:0:0:
256,196,44657,1,8,0:0:0:0:
256,196,45559,1,8,0:0:0:0:
256,196,46009,1,0,0:0:0:0:
256,196,46461,1,8,0:0:0:0:
256,196,47363,1,0,0:0:0:0:
256,196,48265,1,8,0:0:0:0:
256,196,48716,1,0,0:0:0:0:
256,196,49167,1,12,0:0:0:0:
256,196,50070,1,0,0:0:0:0:
256,196,50746,1,8,0:0:0:0:
256,196,51874,1,0,0:0:0:0:
256,196,52551,5,8,0:0:0:0:
256,196,53453,1,0,0:0:0:0:
256,196,54580,1,0,0:0:0:0:
256,196,55483,1,8,0:0:0:0:
256,196,55934,1,0,0:0:0:0:
256,196,56385,1,12,0:0:0:0:
256,196,57288,1,8,0:0:0:0:
256,196,57739,1,8,0:0:0:0:
256,196,58190,1,0,0:0:0:0:
256,196,59092,1,8,0:0:0:0:
256,196,59543,1,0,0:0:0:0:
256,196,59994,1,8,0:0:0:0:
256,196,60671,1,8,0:0:0:0:
256,196,61799,1,8,0:0:0:0:
256,196,62476,1,0,0:0:0:0:
256,196,63603,1,0,0:0:0:0:
256,196,64506,1,0,0:0:0:0:
256,196,64957,1,8,0:0:0:0:
256,196,65408,1,0,0:0:0:0:
256,196,66310,1,0,0:0:0:0:
256,196,66761,1,8,0:0:0:0:
256,196,67212,1,8,0:0:0:0:
256,196,67889,1,8,0:0:0:0:
256,196,68340,1,0,0:0:0:0:
256,196,68791,1,8,0:0:0:0:
256,196,70821,1,12,0:0:0:0:
256,196,71498,1,0,0:0:0:0:
256,196,72175,1,0,0:0:0:0:
256,196,72626,1,8,0:0:0:0:
256,196,73077,1,8,0:0:0:0:
256,196,73528,1,0,0:0:0:0:
256,196,74205,1,0,0:0:0:0:
256,196,75107,1,0,0:0:0:0:
256,196,75784,1,8,0:0:0:0:
256,196,76235,1,0,0:0:0:0:
256,196,76686,1,8,0:0:0:0:
256,196,77137,1,8,0:0:0:0:
256,196,77814,1,0,0:0:0:0:
256,196,78491,1,0,0:0:0:0:
256,196,78942,1,8,0:0:0:0:
256,196,79618,1,0,0:0:0:0:
256,196,80295,1,8,0:0:0:0:
256,196,80746,1,8,0:0:0:0:
256,196,81423,1,0,0:0:0:0:
256,196,82325,1,8,0:0:0:0:
256,196,82776,1,0,0:0:0:0:
256,196,83227,1,0,0:0:0:0:
256,196,84355,1,8,0:0:0:0:
256,196,84806,1,0,0:0:0:0:
256,196,85258,1,12,0:0:0:0:
256,196,85934,1,0,0:0:0:0:
256,196,86611,1,8,0:0:0:0:
256,196,87062,1,8,0:0:0:0:
256,196,87513,1,0,0:0:0:0:
256,196,87964,1,8,0:0:0:0:
256,196,88641,1,8,0:0:0:0:
256,196,89543,1,0,0:0:0:0:
256,196,90220,1,8,0:0:0:0:
256,196,90671,1,0,0:0:0:0:
256,196,91122,1,0,0:0:0:0:
256,196,91573,1,8,0:0:0:0:
256,196,92250,1,0,0:0:0:0:
256,196,92927,1,8,0:0:0:0:
256,196,93378,1,0,0:0:0:0:
256,196,94055,1,8,0:0:0:0:
256,196,94731,1,0,0:0:0:0:
256,196,95182,1,0,0:0:0:0:
256,196,95859,1,8,0:0:0:0:
256,196,96761,1,8,0:0:0:0:
256,196,97212,5,0,0:0:0:0:
256,196,97664,1,8,0:0:0:0:
256,196,98340,1,0,0:0:0:0:
256,196,98791,1,8,0:0:0:0:
256,196,99242,1,0,0:0:0:0:
256,196,99694,1,12,0:0:0:0:
256,196,100370,1,8,0:0:0:0:
256,196,100821,1,8,0:0:0:0:
256,196,101273,1,0,0:0:0:0:
256,196,102175,1,8,0:0:0:0:
256,196,102626,1,0,0:0:0:0:
256,196,103077,1,0,0:0:0:0:
256,196,103754,1,8,0:0:0:0:
256,196,104882,1,0,0:0:0:0:
256,196,105333,1,8,0:0:0:0:
256,196,105784,1,8,0:0:0:0:
256,196,106912,1,8,0:0:0:0:
256,196,107589,1,0,0:0:0:0:
256,196,108039,1,8,0:0:0:0:
256,196,108491,1,0,0:0:0:0:
256,196,109393,1,0,0:0:0:0:
256,196,109844,1,0,0:0:0:0:
256,196,110296,1,8,0:0:0:0:
256,196,111198,1,8,0:0:0:0:
256,196,111649,1,0,0:0:0:0:
256,196,112100,1,8,0:0:0:0:
256,196,112776,5,0,0:0:0:0:
256,196,113227,1,8,0:0:0:0:
256,196,113678,1,0,0:0:0:0:
256,196,114130,1,12,0:0:0:0:
256,196,114806,1,0,0:0:0:0:
256,196,115258,1,8,0:0:0:0:
256,196,115709,1,8,0:0:0:0:
256,196,116611,1,0,0:0:0:0:
256,196,117062,1,8,0:0:0:0:
256,196,117513,1,0,0:0:0:0:
256,196,118190,1,8,0:0:0:0:
256,196,119318,1,0,0:0:0:0:
256,196,119769,1,8,0:0:0:0:
256,196,120219,1,8,0:0:0:0:
256,196,121348,1,0,0:0:0:0:
256,196,122024,1,8,0:0:0:0:
256,196,122476,1,8,0:0:0:0:
256,196,122926,1,0,0:0:0:0:
256,196,123828,1,0,0:0:0:0:
256,196,124279,1,8,0:0:0:0:
256,196,124731,1,0,0:0:0:0:
256,196,125633,1,8,0:0:0:0:
256,196,126085,1,8,0:0:0:0:
256,196,126536,1,0,0:0:0:0:
