osu file format v14

[General]
AudioFilename: audio.mp3
AudioLeadIn: 0
PreviewTime: 69236
Countdown: 0
SampleSet: Normal
StackLeniency: 0.7
Mode: 1
LetterboxInBreaks: 0
WidescreenStoryboard: 1

[Editor]
Bookmarks: 85026
DistanceSpacing: 1.8
BeatDivisor: 4
GridSize: 16
TimelineZoom: 1

[Metadata]
Title:Crazy Loop (Mm-Ma-Ma) (Cut Ver.)
TitleUnicode:Crazy Loop (Mm-Ma-Ma) (Cut Ver.)
Artist:Dan Balan
ArtistUnicode:Dan Bălan
Creator:Ognjen3800
Version:Crazy Futsuu
Source:
Tags:english cryceptio dance pop electronic short version euro
BeatmapID:4485065
BeatmapSetID:2131377

[Difficulty]
HPDrainRate:8
CircleSize:5
OverallDifficulty:4
ApproachRate:5
SliderMultiplier:1.4
SliderTickRate:1

[Events]
//Background and Video events
0,0,"crazyloop.jpg",0,15
//Break Periods
//Storyboard Layer 0 (Background)
//Storyboard Layer 1 (Fail)
//Storyboard Layer 2 (Pass)
//Storyboard Layer 3 (Foreground)
//Storyboard Layer 4 (Overlay)
//Storyboard Sound Samples

[TimingPoints]
446,451.127819548872,4,1,0,50,1,0
446,-100,4,1,0,50,0,0
2244,-100,4,1,0,70,0,0
14876,-100,4,1,0,65,0,0
16686,-100,4,1,0,85,0,1
29318,-100,4,1,0,80,0,0
30552,-100,4,1,0,60,0,0
31003,-100,4,1,0,65,0,0
36868,-100,4,1,0,75,0,0
42733,-100,4,1,0,60,0,0
43635,-100,4,1,0,65,0,0
49500,-100,4,1,0,75,0,0
56718,-100,4,1,0,80,0,0
67770,-100,4,1,0,60,0,0
69011,-100,4,1,0,50,0,0
70026,-100,4,1,0,65,0,0
70821,-100,4,1,0,85,0,1
83453,-100,4,1,0,90,0,0
85258,-100,4,1,0,85,0,1
97889,-100,4,1,0,80,0,0
98221,-100,4,1,0,80,0,0
99694,-100,4,1,0,85,0,1
112325,-100,4,1,0,75,0,0
114130,-100,4,1,0,85,0,1
126536,-100,4,1,0,80,0,0

[HitObjects]
256,196,15332,5,0,0:0:0:0:
256,196,15783,1,8,0:0:0:0:
256,196,16234,1,0,0:0:0:0:
256,196,16685,1,12,0:0:0:0:
256,196,17362,1,8,0:0:0:0:
256,196,17813,1,8,0:0:0:0:
256,196,18038,1,8,0:0:0:0:
256,196,18264,1,0,0:0:0:0:
256,196,18715,1,8,0:0:0:0:
256,196,19166,1,0,0:0:0:0:
256,196,19617,1,8,0:0:0:0:
256,196,19843,1,8,0:0:0:0:
256,196,20069,1,0,0:0:0:0:
256,196,20294,1,8,0:0:0:0:
256,196,20745,1,8,0:0:0:0:
256,196,20971,1,0,0:0:0:0:
256,196,21648,1,0,0:0:0:0:
256,196,21873,1,8,0:0:0:0:
256,196,22099,1,0,0:0:0:0:
256,196,22324,1,8,0:0:0:0:
256,196,22775,1,8,0:0:0:0:
256,196,23452,1,0,0:0:0:0:
256,196,23903,1,8,0:0:0:0:
256,196,24129,1,8,0:0:0:0:
256,196,24580,1,8,0:0:0:0:
256,196,25031,1,0,0:0:0:0:
256,196,25257,1,8,0:0:0:0:
256,196,25482,1,0,0:0:0:0:
256,196,25933,1,8,0:0:0:0:
256,196,26384,1,0,0:0:0:0:
256,196,26835,1,8,0:0:0:0:
256,196,27061,1,0,0:0:0:0:
256,196,27287,1,8,0:0:0:0:
256,196,28189,1,8,0:0:0:0:
256,196,28640,1,8,0:0:0:0:
256,196,28866,1,0,0:0:0:0:
256,196,29091,1,8,0:0:0:0:
256,196,30670,1,12,0:0:0:0:
256,196,31121,1,0,0:0:0:0:
256,196,31798,1,8,0:0:0:0:
256,196,32023,1,0,0:0:0:0:
256,196,32362,1,8,0:0:0:0:
256,196,32926,1,8,0:0:0:0:
256,196,33377,1,8,0:0:0:0:
256,196,33828,1,0,0:0:0:0:
256,196,34279,1,0,0:0:0:0:
256,196,34730,1,8,0:0:0:0:
256,196,35407,1,8,0:0:0:0:
256,196,35632,1,0,0:0:0:0:
256,196,35971,1,8,0:0:0:0:
256,196,36535,1,12,0:0:0:0:
256,196,36986,1,0,0:0:0:0:
256,196,37437,1,8,0:0:0:0:
256,196,37888,1,0,0:0:0:0:
256,196,38114,1,8,0:0:0:0:
256,196,38565,1,0,0:0:0:0:
256,196,39016,1,8,0:0:0:0:
256,196,39241,1,8,0:0:0:0:
256,196,39693,1,0,0:0:0:0:
256,196,39918,1,8,0:0:0:0:
256,196,40369,1,0,0:0:0:0:
256,196,40820,1,8,0:0:0:0:
256,196,41272,1,8,0:0:0:0:
256,196,41948,1,0,0:0:0:0:
256,196,42851,1,12,0:0:0:0:
256,196,43753,1,8,0:0:0:0:
256,196,44429,1,0,0:0:0:0:
256,196,44655,1,0,0:0:0:0:
256,196,44993,1,8,0:0:0:0:
256,196,45557,1,8,0:0:0:0:
256,196,46008,1,8,0:0:0:0:
256,196,46460,1,0,0:0:0:0:
256,196,46911,1,0,0:0:0:0:
256,196,47136,1,8,0:0:0:0:
256,196,47587,1,8,0:0:0:0:
256,196,48265,1,0,0:0:0:0:
256,196,48716,1,8,0:0:0:0:
256,196,49167,1,12,0:0:0:0:
256,196,49618,1,0,0:0:0:0:
256,196,50069,1,8,0:0:0:0:
256,196,50520,1,0,0:0:0:0:
256,196,50746,1,8,0:0:0:0:
256,196,51197,1,0,0:0:0:0:
256,196,51649,1,8,0:0:0:0:
256,196,51873,1,8,0:0:0:0:
256,196,52325,1,0,0:0:0:0:
256,196,52550,1,8,0:0:0:0:
256,196,53001,1,0,0:0:0:0:
256,196,53452,1,8,0:0:0:0:
256,196,53904,5,8,0:0:0:0:
256,196,54806,1,0,0:0:0:0:
256,196,55032,1,8,0:0:0:0:
256,196,55483,1,8,0:0:0:0:
256,196,55934,1,0,0:0:0:0:
256,196,56160,1,0,0:0:0:0:
256,196,56385,1,12,0:0:0:0:
256,196,56836,1,0,0:0:0:0:
256,196,57288,1,8,0:0:0:0:
256,196,57739,1,0,0:0:0:0:
256,196,57964,1,8,0:0:0:0:
256,196,58190,1,0,0:0:0:0:
256,196,58641,1,0,0:0:0:0:
256,196,59092,1,8,0:0:0:0:
256,196,59543,1,8,0:0:0:0:
256,196,59769,1,8,0:0:0:0:
256,196,59994,1,0,0:0:0:0:
256,196,60445,1,8,0:0:0:0:
256,196,60671,1,8,0:0:0:0:
256,196,61348,1,0,0:0:0:0:
256,196,61573,1,8,0:0:0:0:
256,196,61799,1,8,0:0:0:0:
256,196,62024,1,0,0:0:0:0:
256,196,62476,1,0,0:0:0:0:
256,196,63152,1,8,0:0:0:0:
256,196,63603,1,0,0:0:0:0:
256,196,64055,1,8,0:0:0:0:
256,196,64506,1,0,0:0:0:0:
256,196,64957,1,8,0:0:0:0:
256,196,65182,1,8,0:0:0:0:
256,196,65408,1,0,0:0:0:0:
256,196,65859,1,8,0:0:0:0:
256,196,66310,1,0,0:0:0:0:
256,196,66761,1,8,0:0:0:0:
256,196,66987,1,0,0:0:0:0:
256,196,67212,1,8,0:0:0:0:
256,196,67888,1,8,0:0:0:0:
256,196,68339,1,0,0:0:0:0:
256,196,68790,1,8,0:0:0:0:
256,196,70144,1,0,0:0:0:0:
256,196,70369,1,8,0:0:0:0:
256,196,70820,1,12,0:0:0:0:
256,196,71497,1,0,0:0:0:0:
256,196,71948,1,8,0:0:0:0:
256,196,72174,1,8,0:0:0:0:
256,196,72399,1,0,0:0:0:0:
256,196,72625,1,8,0:0:0:0:
256,196,73076,1,8,0:0:0:0:
256,196,73527,1,0,0:0:0:0:
256,196,73753,1,0,0:0:0:0:
256,196,73978,1,8,0:0:0:0:
256,196,74204,1,0,0:0:0:0:
256,196,74655,1,8,0:0:0:0:
256,196,75106,1,0,0:0:0:0:
256,196,75557,1,8,0:0:0:0:
256,196,75783,1,0,0:0:0:0:
256,196,76009,1,0,0:0:0:0:
256,196,76234,1,8,0:0:0:0:
256,196,76685,1,8,0:0:0:0:
256,196,77136,1,8,0:0:0:0:
256,196,77362,1,0,0:0:0:0:
256,196,77813,1,8,0:0:0:0:
256,196,78490,1,0,0:0:0:0:
256,196,78941,1,8,0:0:0:0:
256,196,79279,1,8,0:0:0:0:
256,196,79617,1,0,0:0:0:0:
256,196,80294,1,8,0:0:0:0:
256,196,80745,1,8,0:0:0:0:
256,196,80971,1,8,0:0:0:0:
256,196,81196,1,0,0:0:0:0:
256,196,81422,1,8,0:0:0:0:
256,196,82099,1,0,0:0:0:0:
256,196,82324,1,8,0:0:0:0:
256,196,82775,1,0,0:0:0:0:
256,196,83226,1,0,0:0:0:0:
256,196,83903,1,8,0:0:0:0:
256,196,84354,1,8,0:0:0:0:
256,196,84580,1,8,0:0:0:0:
256,196,84805,1,0,0:0:0:0:
256,196,85031,1,0,0:0:0:0:
256,196,85257,1,12,0:0:0:0:
256,196,85933,1,0,0:0:0:0:
256,196,86384,1,0,0:0:0:0:
256,196,86610,1,8,0:0:0:0:
256,196,86835,1,0,0:0:0:0:
256,196,87061,1,8,0:0:0:0:
256,196,87512,1,8,0:0:0:0:
256,196,87963,1,0,0:0:0:0:
256,196,88189,1,0,0:0:0:0:
256,196,88414,1,8,0:0:0:0:
256,196,88640,1,0,0:0:0:0:
256,196,89091,1,8,0:0:0:0:
256,196,89542,1,0,0:0:0:0:
256,196,89993,1,8,0:0:0:0:
256,196,90219,1,0,0:0:0:0:
256,196,90445,1,0,0:0:0:0:
256,196,90670,1,8,0:0:0:0:
256,196,91121,1,8,0:0:0:0:
256,196,91572,1,8,0:0:0:0:
256,196,91798,1,0,0:0:0:0:
256,196,92249,1,8,0:0:0:0:
256,196,92926,1,0,0:0:0:0:
256,196,93377,1,8,0:0:0:0:
256,196,93715,1,8,0:0:0:0:
256,196,94055,1,0,0:0:0:0:
256,196,94730,1,8,0:0:0:0:
256,196,95181,1,8,0:0:0:0:
256,196,95407,1,8,0:0:0:0:
256,196,95632,1,0,0:0:0:0:
256,196,95858,1,8,0:0:0:0:
256,196,96535,1,0,0:0:0:0:
256,196,96760,1,8,0:0:0:0:
256,196,97211,5,0,0:0:0:0:
256,196,97663,1,8,0:0:0:0:
256,196,98339,1,0,0:0:0:0:
256,196,98790,1,8,0:0:0:0:
256,196,99241,1,0,0:0:0:0:
256,196,99693,1,12,0:0:0:0:
256,196,100369,1,8,0:0:0:0:
256,196,100821,1,0,0:0:0:0:
256,196,101046,1,8,0:0:0:0:
256,196,101272,1,8,0:0:0:0:
256,196,101723,1,8,0:0:0:0:
256,196,102174,1,0,0:0:0:0:
256,196,102625,1,8,0:0:0:0:
256,196,102851,1,0,0:0:0:0:
256,196,103077,1,8,0:0:0:0:
256,196,103302,1,0,0:0:0:0:
256,196,103753,1,8,0:0:0:0:
256,196,103979,1,8,0:0:0:0:
256,196,104656,1,0,0:0:0:0:
256,196,104881,1,8,0:0:0:0:
256,196,105107,1,8,0:0:0:0:
256,196,105332,1,0,0:0:0:0:
256,196,105783,1,8,0:0:0:0:
256,196,106460,1,0,0:0:0:0:
256,196,106911,1,0,0:0:0:0:
256,196,107137,1,8,0:0:0:0:
256,196,107588,1,8,0:0:0:0:
256,196,108038,1,8,0:0:0:0:
256,196,108264,1,0,0:0:0:0:
256,196,108490,1,8,0:0:0:0:
256,196,108941,1,8,0:0:0:0:
256,196,109392,1,0,0:0:0:0:
256,196,109843,1,8,0:0:0:0:
256,196,110069,1,8,0:0:0:0:
256,196,110295,1,0,0:0:0:0:
256,196,111197,1,8,0:0:0:0:
256,196,111648,1,0,0:0:0:0:
256,196,111873,1,8,0:0:0:0:
256,196,112099,1,0,0:0:0:0:
256,196,112324,1,12,0:0:0:0:
256,196,112775,1,0,0:0:0:0:
256,196,113226,1,8,0:0:0:0:
256,196,113678,1,0,0:0:0:0:
256,196,114129,1,12,0:0:0:0:
256,196,114805,1,8,0:0:0:0:
256,196,115257,1,0,0:0:0:0:
256,196,115482,1,8,0:0:0:0:
256,196,115708,1,0,0:0:0:0:
256,196,116159,1,8,0:0:0:0:
256,196,116610,1,0,0:0:0:0:
256,196,117061,1,8,0:0:0:0:
256,196,117287,1,0,0:0:0:0:
256,196,117513,1,8,0:0:0:0:
256,196,117738,1,8,0:0:0:0:
256,196,118189,1,0,0:0:0:0:
256,196,118415,1,8,0:0:0:0:
256,196,119092,1,8,0:0:0:0:
256,196,119317,1,0,0:0:0:0:
256,196,119543,1,8,0:0:0:0:
256,196,119768,1,0,0:0:0:0:
256,196,120219,1,8,0:0:0:0:
256,196,120896,1,8,0:0:0:0:
256,196,121347,1,0,0:0:0:0:
256,196,121573,1,8,0:0:0:0:
256,196,122024,1,8,0:0:0:0:
256,196,122475,1,8,0:0:0:0:
256,196,122701,1,8,0:0:0:0:
256,196,122926,1,0,0:0:0:0:
256,196,123377,1,8,0:0:0:0:
256,196,123828,1,8,0:0:0:0:
256,196,124279,1,0,0:0:0:0:
256,196,124505,1,0,0:0:0:0:
256,196,124731,1,8,0:0:0:0:
256,196,125634,1,8,0:0:0:0:
256,196,126085,1,8,0:0:0:0:
256,196,126311,1,0,0:0:0:0:
256,196,126536,1,8,0:0:0:0:
