osu file format v14

[General]
AudioFilename: audio.mp3
AudioLeadIn: 0
PreviewTime: -1
Countdown: 1
SampleSet: Normal
StackLeniency: 0.7
Mode: 0
LetterboxInBreaks: 1
StoryFireInFront: 0
SkinPreference:osu-PENDUAL-
EpilepsyWarning: 1
CountdownOffset: 1
WidescreenStoryboard: 0

[Editor]
DistanceSpacing: 0.6
BeatDivisor: 4
GridSize: 4
TimelineZoom: 1.4

[Metadata]
Title:Crazy Loop
TitleUnicode:Crazy Loop
Artist:Dan Balan
ArtistUnicode:Dan Balan
Creator:- Anima -
Version:loopy
Source:
Tags:
BeatmapID:2083649
BeatmapSetID:996163

[Difficulty]
HPDrainRate:5
CircleSize:5
OverallDifficulty:5
ApproachRate:5
SliderMultiplier:1.4
SliderTickRate:1

[Events]
//Background and Video events
0,0,"background-main.jpg",0,0
//Break Periods
2,105087,113612
//Storyboard Layer 0 (Background)
//Storyboard Layer 1 (Fail)
//Storyboard Layer 2 (Pass)
//Storyboard Layer 3 (Foreground)
//Storyboard Sound Samples

[TimingPoints]
0,500,4,2,1,100,1,0
156181,500,4,1,0,100,1,1
185522,-100,4,1,0,100,0,0

[HitObjects]
152,124,19172,5,0,0:0:0:0:
396,82,19624,1,0,0:0:0:0:
423,186,20075,1,0,0:0:0:0:
166,138,20526,1,8,0:0:0:0:
387,169,21428,1,8,0:0:0:0:
181,289,22330,1,0,0:0:0:0:
374,286,22781,1,0,0:0:0:0:
210,107,23233,1,0,0:0:0:0:
140,124,24135,2,0,L|430:193,1,280
130,75,26278,1,0,0:0:0:0:
321,133,26729,1,0,0:0:0:0:
342,162,27744,5,0,0:0:0:0:
137,238,28646,1,8,0:0:0:0:
446,124,29548,1,8,0:0:0:0:
276,245,30338,1,8,0:0:0:0:
150,142,30676,1,8,0:0:0:0:
170,230,31240,1,8,0:0:0:0:
205,176,34172,1,10,0:0:0:0:
392,146,34962,1,10,0:0:0:0:
443,228,35977,5,10,0:0:0:0:
279,312,36203,1,10,0:0:0:0:
103,136,36541,1,10,0:0:0:0:
232,89,36766,1,10,0:0:0:0:
26,116,37669,2,10,L|443:277,1,420
435,146,39473,1,10,0:0:0:0:
404,258,39812,1,10,0:0:0:0:
188,173,40150,1,10,0:0:0:0:
290,209,41278,1,8,0:0:0:0:
386,84,42180,1,8,0:0:0:0:
119,124,43082,5,8,0:0:0:0:
373,287,43533,1,0,0:0:0:0:
427,89,44097,1,0,0:0:0:0:
246,149,44887,1,4,0:0:0:0:
422,167,46804,1,4,0:0:0:0:
135,163,47142,1,4,0:0:0:0:
275,284,47593,1,4,0:0:0:0:
400,208,49172,5,8,0:0:0:0:
339,124,49398,1,8,0:0:0:0:
138,204,50413,1,8,0:0:0:0:
328,272,51315,1,8,0:0:0:0:
356,85,52105,1,8,0:0:0:0:
256,192,55714,12,0,59323,0:0:0:0:
212,124,60225,6,0,L|481:210,1,280
444,272,61691,2,0,L|176:223,1,245
43,90,62932,2,0,L|280:104,2,210
498,199,66766,1,0,0:0:0:0:
380,170,67443,1,0,0:0:0:0:
220,131,68345,1,0,0:0:0:0:
243,205,68796,1,0,0:0:0:0:
328,189,69248,1,0,0:0:0:0:
194,78,70150,5,0,0:0:0:0:
220,156,70601,1,0,0:0:0:0:
157,213,71052,1,0,0:0:0:0:
265,279,71729,1,8,0:0:0:0:
250,192,72180,1,0,0:0:0:0:
256,91,72744,1,0,0:0:0:0:
256,192,74323,12,0,76578,0:0:0:0:
97,121,77255,5,0,0:0:0:0:
281,141,78270,1,0,0:0:0:0:
228,166,78834,1,0,0:0:0:0:
256,192,79060,12,0,80864,0:0:0:0:
168,145,81992,5,0,0:0:0:0:
298,156,82330,1,0,0:0:0:0:
379,265,82781,1,0,0:0:0:0:
198,275,83796,1,8,0:0:0:0:
493,134,84699,1,8,0:0:0:0:
221,140,85601,1,12,0:0:0:0:
397,155,86165,1,12,0:0:0:0:
157,260,86616,1,12,0:0:0:0:
401,318,87067,1,0,0:0:0:0:
430,195,87744,5,0,0:0:0:0:
262,183,88533,1,4,0:0:0:0:
102,277,89097,1,4,0:0:0:0:
30,133,89887,2,0,L|460:333,1,455
408,154,91466,1,0,0:0:0:0:
94,135,91917,1,0,0:0:0:0:
253,277,92255,1,0,0:0:0:0:
374,152,92706,1,0,0:0:0:0:
347,143,93270,2,0,B|57:60|167:77|25:330,1,455
130,323,95526,1,0,0:0:0:0:
461,269,96315,5,0,0:0:0:0:
336,133,96766,1,0,0:0:0:0:
30,213,97218,1,0,0:0:0:0:
268,117,98120,1,2,0:0:0:0:
105,195,98571,1,2,0:0:0:0:
419,279,99022,1,2,0:0:0:0:
150,238,99699,5,2,0:0:0:0:
393,126,100375,1,2,0:0:0:0:
408,276,100601,1,2,0:0:0:0:
235,135,101165,1,2,0:0:0:0:
103,313,101503,1,2,0:0:0:0:
256,192,102293,12,2,104887,0:0:0:0:
87,53,114812,6,0,L|403:243,1,350
452,136,116729,1,0,0:0:0:0:
123,115,117067,1,0,0:0:0:0:
337,237,117518,1,0,0:0:0:0:
135,121,118872,1,4,0:0:0:0:
381,144,119210,1,4,0:0:0:0:
169,237,119661,1,4,0:0:0:0:
365,280,119887,1,4,0:0:0:0:
492,134,120676,5,0,0:0:0:0:
168,146,121240,1,0,0:0:0:0:
285,109,121691,1,0,0:0:0:0:
112,213,122481,1,8,0:0:0:0:
453,306,122932,1,8,0:0:0:0:
412,25,123157,1,8,0:0:0:0:
50,200,123947,1,12,0:0:0:0:
100,119,124736,2,12,L|174:206,1,105
295,144,125751,2,12,L|246:312,1,175
252,97,126992,1,12,0:0:0:0:
474,244,128007,1,8,0:0:0:0:
276,196,128796,5,8,0:0:0:0:
225,79,129360,1,8,0:0:0:0:
135,215,129699,1,8,0:0:0:0:
332,240,131052,1,2,0:0:0:0:
216,130,131954,1,2,0:0:0:0:
398,162,132406,1,2,0:0:0:0:
382,252,133308,1,6,0:0:0:0:
260,29,133984,6,6,L|262:252,1,210
263,318,134887,5,2,0:0:0:0:
