osu file format v14

[General]
AudioFilename: audio.mp3
AudioLeadIn: 0
PreviewTime: -1
Countdown: 0
SampleSet: Normal
StackLeniency: 0.7
Mode: 1
LetterboxInBreaks: 0
WidescreenStoryboard: 1

[Editor]
DistanceSpacing: 2
BeatDivisor: 4
GridSize: 16
TimelineZoom: 1.9

[Metadata]
Title:Karena Dota feat. Hatsune Miku
TitleUnicode:Karena Dota feat. Hatsune Miku
Artist:Damval
ArtistUnicode:Damval
Creator:ayomikasa
Version:Muzukashii
Source:
Tags:Lusia Bahasa Indonesia Indonesian
BeatmapID:1013860
BeatmapSetID:474385

[Difficulty]
HPDrainRate:6
CircleSize:5
OverallDifficulty:5
ApproachRate:6
SliderMultiplier:1.6
SliderTickRate:1

[Events]
//Background and Video events
0,0,"maxresdefault.jpg",0,0
//Break Periods
//Storyboard Layer 0 (Background)
//Storyboard Layer 1 (Fail)
//Storyboard Layer 2 (Pass)
//Storyboard Layer 3 (Foreground)
//Storyboard Sound Samples

[TimingPoints]
66.5284090909086,545.454545454546,4,1,0,100,1,0

[HitObjects]
240,192,66,5,0,0:0:0:0:
256,192,339,1,8,0:0:0:0:
256,192,884,1,8,0:0:0:0:
256,192,1430,1,8,0:0:0:0:
256,192,1702,1,0,0:0:0:0:
256,192,1975,1,0,0:0:0:0:
256,192,2248,1,8,0:0:0:0:
256,176,3339,1,8,0:0:0:0:
256,192,3884,1,0,0:0:0:0:
256,192,4157,1,0,0:0:0:0:
256,192,4430,1,12,0:0:0:0:
256,192,4702,1,0,0:0:0:0:
256,192,4975,1,8,0:0:0:0:
256,192,5248,1,0,0:0:0:0:
256,192,5521,1,8,0:0:0:0:
256,192,5793,1,0,0:0:0:0:
256,192,6066,1,8,0:0:0:0:
256,192,6339,1,0,0:0:0:0:
256,192,6611,1,8,0:0:0:0:
256,192,8248,1,0,0:0:0:0:
256,192,8521,1,0,0:0:0:0:
256,192,8793,1,12,0:0:0:0:
256,192,9066,1,8,0:0:0:0:
256,192,9339,1,0,0:0:0:0:
256,192,9611,1,0,0:0:0:0:
256,192,9884,1,8,0:0:0:0:
256,192,10157,1,8,0:0:0:0:
256,192,10430,1,0,0:0:0:0:
256,192,10702,1,0,0:0:0:0:
256,192,10975,1,8,0:0:0:0:
256,192,12611,1,0,0:0:0:0:
256,192,12884,1,8,0:0:0:0:
256,192,13157,1,8,0:0:0:0:
256,192,13293,1,8,0:0:0:0:
256,192,13430,1,8,0:0:0:0:
256,192,13702,1,0,0:0:0:0:
256,192,13975,1,8,0:0:0:0:
256,192,14248,1,8,0:0:0:0:
256,192,14793,1,0,0:0:0:0:
256,192,15066,1,8,0:0:0:0:
256,192,15339,1,8,0:0:0:0:
256,192,15475,1,8,0:0:0:0:
256,192,15611,1,8,0:0:0:0:
256,192,15884,1,8,0:0:0:0:
256,192,16157,1,0,0:0:0:0:
256,192,16430,1,8,0:0:0:0:
256,192,16975,1,0,0:0:0:0:
256,192,17248,1,0,0:0:0:0:
256,192,17521,1,8,0:0:0:0:
256,192,17793,1,8,0:0:0:0:
256,192,18066,1,0,0:0:0:0:
256,192,18339,1,8,0:0:0:0:
256,192,18611,1,8,0:0:0:0:
256,192,18884,1,8,0:0:0:0:
256,192,19157,1,0,0:0:0:0:
256,192,19430,1,8,0:0:0:0:
256,192,19702,1,0,0:0:0:0:
256,192,21339,1,0,0:0:0:0:
256,192,21611,1,0,0:0:0:0:
256,192,21884,1,12,0:0:0:0:
256,192,22157,1,0,0:0:0:0:
256,192,22430,1,8,0:0:0:0:
256,192,22702,1,0,0:0:0:0:
256,192,22975,1,8,0:0:0:0:
256,192,23248,1,0,0:0:0:0:
256,192,23521,1,8,0:0:0:0:
256,192,23793,1,8,0:0:0:0:
256,192,24066,1,8,0:0:0:0:
240,192,25702,1,4,0:0:0:0:
240,192,25975,1,0,0:0:0:0:
256,192,26248,1,8,0:0:0:0:
256,192,26521,1,8,0:0:0:0:
256,192,26793,1,0,0:0:0:0:
256,192,27066,1,8,0:0:0:0:
256,192,27339,1,8,0:0:0:0:
256,192,27611,1,0,0:0:0:0:
256,192,27884,1,8,0:0:0:0:
256,192,28157,1,0,0:0:0:0:
256,192,28430,1,8,0:0:0:0:
256,192,30066,1,0,0:0:0:0:
256,192,30339,1,8,0:0:0:0:
256,192,30611,1,0,0:0:0:0:
256,192,30748,1,0,0:0:0:0:
256,192,30884,1,0,0:0:0:0:
256,192,31157,1,8,0:0:0:0:
256,192,31430,1,0,0:0:0:0:
256,192,31702,1,8,0:0:0:0:
256,192,32248,1,0,0:0:0:0:
256,192,32521,1,8,0:0:0:0:
256,192,32793,1,0,0:0:0:0:
256,192,32930,1,0,0:0:0:0:
256,192,33066,1,0,0:0:0:0:
256,192,33339,1,8,0:0:0:0:
256,192,33611,1,0,0:0:0:0:
256,192,33884,1,8,0:0:0:0:
256,192,34430,1,0,0:0:0:0:
256,192,34702,1,8,0:0:0:0:
256,192,34975,1,8,0:0:0:0:
256,192,35248,1,0,0:0:0:0:
256,192,35521,1,8,0:0:0:0:
256,192,35793,1,8,0:0:0:0:
256,192,36066,1,0,0:0:0:0:
256,192,36339,1,8,0:0:0:0:
256,192,36611,1,8,0:0:0:0:
256,192,36884,1,0,0:0:0:0:
256,192,37157,1,8,0:0:0:0:
256,192,38793,1,0,0:0:0:0:
256,192,39066,1,0,0:0:0:0:
256,192,39339,1,12,0:0:0:0:
256,192,39611,1,0,0:0:0:0:
256,192,39884,1,8,0:0:0:0:
256,192,40157,1,0,0:0:0:0:
256,192,40430,1,8,0:0:0:0:
256,192,40702,1,8,0:0:0:0:
256,192,40975,1,0,0:0:0:0:
256,192,41248,1,0,0:0:0:0:
256,192,41521,1,8,0:0:0:0:
256,192,43157,1,0,0:0:0:0:
256,192,43430,1,8,0:0:0:0:
256,192,43702,1,12,0:0:0:0:
256,192,43975,1,0,0:0:0:0:
256,192,44248,1,0,0:0:0:0:
256,192,44521,1,8,0:0:0:0:
256,192,44793,1,0,0:0:0:0:
256,192,45066,1,8,0:0:0:0:
256,192,45339,1,8,0:0:0:0:
256,192,45611,1,0,0:0:0:0:
256,192,45884,1,8,0:0:0:0:
256,192,47521,1,0,0:0:0:0:
256,192,47793,1,8,0:0:0:0:
256,192,48066,1,8,0:0:0:0:
240,192,48202,1,8,0:0:0:0:
256,192,48339,1,8,0:0:0:0:
256,192,48611,1,0,0:0:0:0:
240,192,48884,1,0,0:0:0:0:
240,192,49157,1,8,0:0:0:0:
240,192,49702,1,0,0:0:0:0:
240,192,49975,1,8,0:0:0:0:
256,192,50248,1,8,0:0:0:0:
240,192,50384,1,8,0:0:0:0:
256,192,50521,1,8,0:0:0:0:
256,192,50793,1,0,0:0:0:0:
256,192,51066,1,0,0:0:0:0:
256,192,51339,1,8,0:0:0:0:
240,192,51884,1,0,0:0:0:0:
240,192,52157,1,0,0:0:0:0:
240,192,52430,1,8,0:0:0:0:
240,192,52702,1,8,0:0:0:0:
240,192,52975,1,0,0:0:0:0:
240,192,53248,1,8,0:0:0:0:
240,192,53521,1,8,0:0:0:0:
240,192,53793,1,0,0:0:0:0:
240,192,54066,1,8,0:0:0:0:
240,192,54339,1,0,0:0:0:0:
240,192,54611,1,8,0:0:0:0:
240,192,56248,1,0,0:0:0:0:
240,192,56521,1,0,0:0:0:0:
240,192,56793,1,12,0:0:0:0:
240,192,57066,1,0,0:0:0:0:
240,192,57339,1,8,0:0:0:0:
240,192,57611,1,0,0:0:0:0:
240,192,57884,1,0,0:0:0:0:
240,192,58157,1,8,0:0:0:0:
240,192,58430,1,0,0:0:0:0:
240,192,58702,1,0,0:0:0:0:
240,192,58975,1,8,0:0:0:0:
240,192,60611,1,0,0:0:0:0:
240,192,60884,1,0,0:0:0:0:
240,192,61157,1,12,0:0:0:0:
240,192,61430,1,0,0:0:0:0:
240,192,61702,1,8,0:0:0:0:
224,192,61975,1,0,0:0:0:0:
224,192,62248,1,8,0:0:0:0:
224,192,62521,1,8,0:0:0:0:
224,192,62793,1,0,0:0:0:0:
224,192,63066,1,0,0:0:0:0:
224,192,63339,1,8,0:0:0:0:
240,192,64975,1,8,0:0:0:0:
224,192,65248,1,0,0:0:0:0:
224,192,65521,1,8,0:0:0:0:
240,192,65657,1,8,0:0:0:0:
224,192,65793,1,8,0:0:0:0:
224,192,66066,1,0,0:0:0:0:
224,192,66339,1,0,0:0:0:0:
224,192,66611,1,8,0:0:0:0:
240,192,67157,1,8,0:0:0:0:
240,192,67430,1,0,0:0:0:0:
240,192,67702,1,8,0:0:0:0:
240,192,67839,1,8,0:0:0:0:
240,192,67975,1,8,0:0:0:0:
240,192,68248,1,0,0:0:0:0:
240,192,68521,1,0,0:0:0:0:
240,192,68793,1,8,0:0:0:0:
240,192,69339,1,0,0:0:0:0:
240,192,69611,1,0,0:0:0:0:
240,192,69884,1,8,0:0:0:0:
240,192,70157,1,8,0:0:0:0:
240,192,70430,1,0,0:0:0:0:
240,192,70702,1,0,0:0:0:0:
240,192,70975,1,8,0:0:0:0:
240,192,71248,1,8,0:0:0:0:
240,192,71521,1,0,0:0:0:0:
240,192,71793,1,0,0:0:0:0:
240,192,72066,1,12,0:0:0:0:
