osu file format v14

[General]
AudioFilename: audio.mp3
AudioLeadIn: 0
PreviewTime: 0
Countdown: 0
SampleSet: None
StackLeniency: 0.7
Mode: 0
LetterboxInBreaks: 0
WidescreenStoryboard: 1

[Editor]
DistanceSpacing: 1
BeatDivisor: 4
GridSize: 8
TimelineZoom: 1

[Metadata]
Title:Aluminium
TitleUnicode:Aluminium
Artist:Damon Albarn with Ghostigital
ArtistUnicode:Damon Albarn with Ghostigital
Creator:Badsonn
Version:Hard
Source:
Tags:Gorillaz d-sides stop the dams
BeatmapID:2209580
BeatmapSetID:1050156

[Difficulty]
HPDrainRate:5
CircleSize:4
OverallDifficulty:6
ApproachRate:7
SliderMultiplier:1.5
SliderTickRate:1

[Events]
//Background and Video events
0,0,"6adb4897a66bc2520cc0999e190a8dfe.jpg",0,0
//Break Periods
//Storyboard Layer 0 (Background)
//Storyboard Layer 1 (Fail)
//Storyboard Layer 2 (Pass)
//Storyboard Layer 3 (Foreground)
//Storyboard Layer 4 (Overlay)
//Storyboard Sound Samples

[TimingPoints]
-163.121951219512,366.725750259764,4,2,0,100,1,0

[HitObjects]
160,56,570,5,8,0:0:0:0:
232,96,753,2,0,L|208:192,1,75
296,184,1120,2,0,L|328:264,1,75,0|8,0:0|0:0,0:0:0:0:
264,328,1487,2,0,P|208:272|120:296,1,150
80,216,2037,1,8,0:0:0:0:
136,152,2220,2,0,L|104:64,1,75
168,32,2587,1,0,0:0:0:0:
224,88,2770,2,0,P|304:112|360:64,1,150,8|0,0:0|0:0,0:0:0:0:
432,128,3320,1,0,0:0:0:0:
464,168,3412,1,0,0:0:0:0:
432,208,3504,1,8,0:0:0:0:
336,184,3687,2,0,L|376:280,1,75
328,336,4054,1,0,0:0:0:0:
248,296,4237,2,0,P|208:216|152:176,1,150,8|0,0:0|0:0,0:0:0:0:
56,176,4787,5,0,0:0:0:0:
80,136,4879,1,0,0:0:0:0:
56,96,4971,1,8,0:0:0:0:
136,40,5154,2,0,P|176:96|192:96,1,75
232,160,5521,1,0,0:0:0:0:
160,216,5704,1,8,0:0:0:0:
232,272,5887,2,0,P|288:232|304:232,1,75
368,272,6254,1,0,0:0:0:0:
432,216,6437,1,8,0:0:0:0:
368,160,6621,2,0,P|320:112|320:96,1,75
256,56,6988,1,0,0:0:0:0:
192,104,7171,1,8,0:0:0:0:
128,152,7354,2,0,P|120:192|80:208,1,75
32,256,7721,2,0,P|56:296|88:296,1,75,0|8,0:0|0:0,0:0:0:0:
288,344,8271,6,0,L|312:240,1,75
376,264,8638,1,8,0:0:0:0:
448,232,8821,2,0,L|432:136,1,75
392,80,9188,1,0,0:0:0:0:
328,40,9371,1,8,0:0:0:0:
264,80,9555,1,0,0:0:0:0:
200,40,9738,2,0,P|144:104|168:160,1,150,0|8,0:0|0:0,0:0:0:0:
328,192,10471,1,0,0:0:0:0:
392,264,10655,1,0,0:0:0:0:
328,328,10838,1,8,0:0:0:0:
224,328,11022,2,0,P|192:272|152:264,1,75
32,264,11572,1,8,0:0:0:0:
80,128,11938,1,0,0:0:0:0:
144,184,12122,1,0,0:0:0:0:
208,128,12305,5,8,0:0:0:0:
296,80,12488,1,0,0:0:0:0:
336,48,12580,1,0,0:0:0:0:
376,80,12672,1,0,0:0:0:0:
472,144,12855,2,0,L|456:232,1,75,0|8,0:0|0:0,0:0:0:0:
392,288,13222,1,0,0:0:0:0:
320,240,13405,1,0,0:0:0:0:
248,288,13589,1,0,0:0:0:0:
208,328,13680,1,0,0:0:0:0:
168,288,13772,1,8,0:0:0:0:
48,328,13955,2,0,P|88:272|88:256,1,75
32,216,14322,2,0,P|48:160|64:144,1,75,0|8,0:0|0:0,0:0:0:0:
136,96,14689,1,0,0:0:0:0:
216,32,14872,1,0,0:0:0:0:
296,96,15055,1,0,0:0:0:0:
336,128,15147,1,0,0:0:0:0:
376,96,15239,1,8,0:0:0:0:
464,160,15422,2,0,P|464:232|448:248,1,75
392,232,15789,2,0,P|400:296|416:312,1,75,0|8,0:0|0:0,0:0:0:0:
312,336,16156,5,0,0:0:0:0:
248,272,16339,1,0,0:0:0:0:
184,336,16522,1,0,0:0:0:0:
128,272,16706,1,8,0:0:0:0:
32,216,16889,2,0,P|88:192|96:160,1,75
160,112,17256,1,0,0:0:0:0:
224,168,17439,1,8,0:0:0:0:
288,104,17623,2,0,P|344:144|344:168,1,75
424,168,17989,1,0,0:0:0:0:
376,264,18173,1,8,0:0:0:0:
320,352,18356,2,0,P|288:304|288:272,1,75
208,288,18723,2,0,P|176:240|176:208,1,75,0|8,0:0|0:0,0:0:0:0:
96,224,19089,2,0,P|64:176|64:144,1,75
104,80,19456,1,0,0:0:0:0:
176,128,19640,2,0,P|224:112|240:88,1,75,8|0,0:0|0:0,0:0:0:0:
296,32,20006,2,0,P|352:88|352:168,1,150,0|8,0:0|0:0,0:0:0:0:
424,232,20556,1,0,0:0:0:0:
352,288,20740,2,0,B|312:352|248:232|224:296|184:288,1,150,0|8,0:0|0:0,0:0:0:0:
256,192,21290,12,0,24040,0:0:0:0:
80,272,24407,6,0,P|120:184|120:120,1,150
216,184,25140,1,2,0:0:0:0:
248,208,25232,1,0,0:0:0:0:
288,184,25324,1,2,0:0:0:0:
352,272,25691,2,0,P|392:184|392:120,1,150
336,64,26241,1,8,0:0:0:0:
272,216,26607,1,2,0:0:0:0:
200,272,26791,1,2,0:0:0:0:
72,216,27157,2,0,P|48:128|80:48,1,150
144,40,27707,1,8,0:0:0:0:
256,192,28074,12,0,29908,0:0:0:0:
432,272,30275,6,0,P|392:184|392:120,1,150
296,184,31008,1,2,0:0:0:0:
264,208,31100,1,0,0:0:0:0:
224,184,31192,1,2,0:0:0:0:
160,272,31559,2,0,P|120:184|120:120,1,150
176,64,32108,1,8,0:0:0:0:
240,216,32475,1,2,0:0:0:0:
312,272,32658,1,2,0:0:0:0:
440,216,33025,2,0,P|464:128|432:48,1,150
368,40,33575,1,8,0:0:0:0:
