osu file format v14

[General]
AudioFilename: audio.mp3
AudioLeadIn: 0
PreviewTime: -1
Countdown: 1
SampleSet: Soft
StackLeniency: 0.2
Mode: 0
LetterboxInBreaks: 0
WidescreenStoryboard: 0

[Editor]
DistanceSpacing: 0.6
BeatDivisor: 4
GridSize: 4
TimelineZoom: 1

[Metadata]
Title:Tunak Tunak Tun
TitleUnicode:ਤੁਨਕ ਤੁਨਕ ਤੁਨ
Artist:Daler Mehndi
ArtistUnicode:ਦਲੇਰ ਮਹਿੰਦੀ
Creator:-N a n a k o-
Version:Four Indian
Source:
Tags:1998 Indian Punjabi Bhangra bhaṅgṛā ਭੰਗੜਾ بھنگڑا
BeatmapID:1285149
BeatmapSetID:608518

[Difficulty]
HPDrainRate:5
CircleSize:4
OverallDifficulty:8
ApproachRate:8
SliderMultiplier:2.4
SliderTickRate:1

[Events]
//Background and Video events
Video,0,"1.avi"
0,0,"bg.png",0,0
//Break Periods
//Storyboard Layer 0 (Background)
//Storyboard Layer 1 (Fail)
//Storyboard Layer 2 (Pass)
//Storyboard Layer 3 (Foreground)
//Storyboard Layer 4 (Overlay)
//Storyboard Sound Samples

[TimingPoints]
16,399.84006397441,4,2,0,40,1,0
16,-100,4,2,0,40,0,0
27105,-100,4,2,0,5,0,0
27205,-100,4,2,0,40,0,0
33202,-66.6666666666667,4,2,0,40,0,0
33402,-100,4,2,0,40,0,0
41999,-200,4,2,0,40,0,0
42199,-100,4,2,0,40,0,0
65589,-50,4,2,0,40,0,0
66189,-100,4,2,0,40,0,0
73586,-100,4,2,0,40,0,1
76735,-100,4,2,0,5,0,1
76785,-100,4,2,0,40,0,1
79934,-100,4,2,0,5,0,1
79984,-100,4,2,0,40,0,1
85981,-100,4,2,0,40,0,0
102375,-100,4,2,0,40,0,1
104924,-100,4,2,0,5,0,1
104974,-66.6666666666667,4,2,0,40,0,1
105123,-66.6666666666667,4,2,0,5,0,1
105173,-50,4,2,0,40,0,1
105323,-50,4,2,0,5,0,1
105373,-100,4,2,0,40,0,1
108122,-100,4,2,0,5,0,1
108172,-66.6666666666667,4,2,0,40,0,1
108322,-66.6666666666667,4,2,0,5,0,1
108372,-50,4,2,0,40,0,1
108522,-50,4,2,0,5,0,1
108572,-100,4,2,0,40,0,1
111321,-100,4,2,0,5,0,1
111371,-66.6666666666667,4,2,0,40,0,1
111521,-66.6666666666667,4,2,0,5,0,1
111571,-50,4,2,0,40,0,1
111721,-50,4,2,0,5,0,1
111771,-100,4,2,0,40,0,1
115169,-100,4,2,0,40,0,0
146557,-66.6666666666667,4,2,0,40,0,0
147556,-100,4,2,0,40,0,0
148906,-100,4,2,0,5,0,0
148956,-100,4,2,0,40,0,0
149106,-100,4,2,0,5,0,0
149156,-100,4,2,0,40,0,0
149306,-100,4,2,0,5,0,0
149356,-100,4,2,0,40,0,0
149506,-100,4,2,0,5,0,0
149556,-100,4,2,0,40,0,0
149706,-100,4,2,0,5,0,0
149756,-100,4,2,0,40,0,0
149906,-100,4,2,0,5,0,0
149956,-100,4,2,0,40,0,0
150105,-100,4,2,0,5,0,0
150155,-100,4,2,0,40,0,0
150305,-100,4,2,0,5,0,0
150355,-100,4,2,0,40,0,0
150505,-100,4,2,0,5,0,0
150555,-100,4,2,0,40,0,0
150705,-100,4,2,0,5,0,0
150755,-100,4,2,0,40,0,0
150905,-100,4,2,0,5,0,0
150955,-100,4,2,0,40,0,0
151105,-100,4,2,0,5,0,0
151155,-100,4,2,0,40,0,0
151305,-100,4,2,0,5,0,0
151355,-100,4,2,0,40,0,0
151505,-100,4,2,0,5,0,0
151555,-100,4,2,0,40,0,0
151705,-100,4,2,0,5,0,0
151755,-100,4,2,0,40,0,0
151905,-100,4,2,0,5,0,0
151955,-100,4,2,0,40,0,0
158352,-100,4,2,0,40,0,1
161451,-100,4,2,0,5,0,1
161551,-100,4,2,0,40,0,1
162550,-100,4,2,0,5,0,1
162650,-100,4,2,0,40,0,1
162850,-100,4,2,0,5,0,1
162950,-100,4,2,0,40,0,1
164650,-100,4,2,0,5,0,1
164750,-100,4,2,0,40,0,1
167848,-100,4,2,0,5,0,1
167948,-100,4,2,0,40,0,1
171147,-100,4,2,0,40,0,0
172777,399.84006397441,4,2,0,40,1,0
185172,-50,4,2,0,40,0,0
185371,-100,4,2,0,40,0,0
191569,-50,4,2,0,40,0,0
191769,-100,4,2,0,40,0,0
201565,-100,4,2,0,40,0,1
204774,399.84006397441,4,2,0,40,1,1
211574,399.84006397441,4,2,0,40,1,1
213562,399.84006397441,4,2,0,40,1,1
213961,-100,4,2,0,40,0,0
230366,-100,4,2,0,40,0,1
242961,-100,4,2,0,40,0,0
243161,399.84006397441,4,2,0,40,1,0

[HitObjects]
48,276,27205,6,0,L|40:344,1,60
192,196,27505,2,0,L|200:128,1,60
324,328,27804,1,0,0:0:0:0:
324,328,27904,1,0,0:0:0:0:
324,328,28004,6,0,L|400:344,1,60
492,176,28304,2,0,L|416:192,1,60
320,40,28604,1,0,0:0:0:0:
320,40,28704,1,0,0:0:0:0:
320,40,28804,6,0,L|336:120,1,60
199,136,29104,2,0,L|183:216,1,60
304,288,29404,1,0,0:0:0:0:
172,356,29604,1,0,0:0:0:0:
172,356,29804,1,0,0:0:0:0:
56,264,30004,2,0,P|40:204|92:148,1,120
408,180,30403,5,0,0:0:0:0:
456,196,30503,1,0,0:0:0:0:
376,48,30703,1,0,0:0:0:0:
328,64,30803,1,0,0:0:0:0:
208,172,31003,1,0,0:0:0:0:
208,172,31103,1,0,0:0:0:0:
208,172,31203,6,0,L|232:248,1,60
48,88,31503,2,0,L|72:12,1,60
124,320,31803,1,0,0:0:0:0:
124,320,31903,1,0,0:0:0:0:
124,320,32003,6,0,L|32:344,1,60
226,229,32303,2,0,L|318:253,1,60
416,336,32602,1,0,0:0:0:0:
488,120,32802,1,0,0:0:0:0:
488,120,33002,1,0,0:0:0:0:
488,120,33202,2,0,L|244:88,1,180.000006866455
36,192,33602,6,0,P|32:224|56:260,1,60
112,96,33802,2,0,P|116:64|92:28,1,60
116,340,34002,2,0,L|240:324,1,120
280,296,34302,1,0,0:0:0:0:
336,284,34402,6,0,L|320:344,1,60
440,344,34602,2,0,L|384:384,1,60
432,228,34802,2,0,P|408:164|460:104,1,120
464,84,35101,1,0,0:0:0:0:
512,56,35201,6,0,L|456:8,1,60
356,168,35401,2,0,L|340:104,1,60
180,136,35601,2,0,P|168:64|204:12,1,120
308,336,36001,1,0,0:0:0:0:
308,336,36201,1,0,0:0:0:0:
308,336,36401,2,0,L|148:360,1,120
28,192,36801,6,0,P|44:224|40:264,1,60
189,353,37001,2,0,P|145:369|113:357,1,60
312,248,37201,2,0,L|176:228,1,120
412,352,37501,1,0,0:0:0:0:
392,300,37600,6,0,P|388:260|408:236,1,60
488,104,37800,2,0,P|448:120|408:104,1,60
193,230,38000,2,0,L|329:210,1,120
40,80,38300,1,0,0:0:0:0:
36,60,38400,6,0,L|52:144,1,60
256,88,38600,2,0,L|256:4,1,60
476,60,38800,2,0,L|452:200,1,120
256,360,39200,1,0,0:0:0:0:
256,360,39400,1,0,0:0:0:0:
256,360,39600,2,0,L|256:208,1,120
156,52,40000,6,0,P|120:80|88:72,1,60
88,216,40199,2,0,P|64:204|28:208,1,60
184,160,40399,2,0,L|344:136,1,120
448,264,40699,1,0,0:0:0:0:
456,284,40799,6,0,P|448:236|484:192,1,60
304,368,40999,2,0,P|312:320|276:276,1,60
189,273,41199,2,0,P|169:213|212:128,1,120
116,352,41499,1,0,0:0:0:0:
84,348,41599,6,0,L|12:340,1,60
88,208,41799,2,0,L|16:200,1,60
88,56,41999,2,0,L|16:48,1,60
368,64,42399,1,0,0:0:0:0:
368,64,42598,1,0,0:0:0:0:
368,64,42798,2,0,L|504:48,1,120,0|0,0:0|0:0,0:0:0:0:
332,268,43198,5,0,0:0:0:0:
368,64,43398,2,0,L|358:123,1,60
332,268,43598,2,0,L|356:136,1,120
232,20,43998,2,0,L|256:188,1,120
144,92,44398,2,0,L|224:84,1,60
40,100,44598,1,0,0:0:0:0:
112,256,44798,5,0,0:0:0:0:
112,256,44998,2,0,L|104:332,1,60
120,172,45197,2,0,L|132:48,1,120
192,220,45497,1,0,0:0:0:0:
192,220,45597,2,0,P|264:236|312:212,1,120
416,164,45997,2,0,P|400:252|432:292,1,120
488,60,46397,5,0,0:0:0:0:
344,68,46597,2,0,L|420:64,1,60
256,72,46797,2,0,L|92:80,1,120
344,160,47097,1,0,0:0:0:0:
344,160,47197,2,0,L|508:152,1,120
276,256,47596,2,0,L|112:264,1,120
452,364,47996,6,0,P|472:296|432:232,1,120
344,200,48296,1,0,0:0:0:0:
344,156,48396,2,0,P|275:172|239:239,1,120
454,252,48796,5,0,0:0:0:0:
480,204,48896,1,0,0:0:0:0:
488,148,48996,1,0,0:0:0:0:
472,96,49096,1,0,0:0:0:0:
368,92,49196,5,0,0:0:0:0:
324,56,49296,1,0,0:0:0:0:
268,40,49396,1,0,0:0:0:0:
208,44,49496,1,0,0:0:0:0:
136,116,49596,5,0,0:0:0:0:
136,116,49796,2,0,L|120:28,1,60
96,220,49996,2,0,L|236:188,1,120
60,368,50395,2,0,P|12:300|40:240,1,120
184,164,50695,1,0,0:0:0:0:
212,193,50795,2,0,P|212:251|169:291,1,120
116,60,51195,6,0,L|280:76,1,120
464,208,51495,1,0,0:0:0:0:
460,172,51595,2,0,L|296:188,1,120
216,232,51895,1,0,0:0:0:0:
184,260,51995,2,0,P|160:332|212:384,1,120
152,160,52395,2,0,P|84:140|24:180,1,120
292,280,52794,5,0,0:0:0:0:
480,200,52994,2,0,L|472:268,1,60
388,80,53194,2,0,L|404:220,1,120
364,320,53494,1,0,0:0:0:0:
340,337,53594,2,0,P|266:350|223:309,1,120
32,288,53994,2,0,P|83:259|138:276,1,120
256,224,54394,6,0,L|292:148,1,60
256,24,54594,2,0,L|220:100,1,60
356,124,54794,2,0,L|280:88,1,60
156,124,54994,2,0,L|232:160,1,60
404,200,55193,5,0,0:0:0:0:
472,164,55293,1,0,0:0:0:0:
504,92,55393,1,0,0:0:0:0:
508,16,55493,1,0,0:0:0:0:
476,316,55593,5,0,0:0:0:0:
496,240,55693,1,0,0:0:0:0:
472,164,55793,1,0,0:0:0:0:
412,116,55893,1,0,0:0:0:0:
416,368,55993,5,0,0:0:0:0:
416,368,56193,2,0,L|504:352,1,60
344,344,56393,2,0,L|324:192,1,120
183,225,56793,2,0,L|168:344,1,120
88,164,57193,2,0,L|20:176,1,60
188,144,57393,1,0,0:0:0:0:
344,244,57592,5,0,0:0:0:0:
344,244,57792,2,0,L|408:256,1,60
260,264,57992,2,0,P|236:320|272:376,1,120
292,184,58392,2,0,P|316:128|280:72,1,120
236,0,58792,2,0,L|396:16,1,120
156,104,59192,6,0,L|-4:88,1,120
156,104,59492,1,0,0:0:0:0:
208,212,59592,2,0,L|48:196,1,120
304,172,59992,2,0,L|464:188,1,120
436,368,60391,2,0,P|416:288|468:248,1,120
500,116,60791,5,0,0:0:0:0:
456,112,60891,1,0,0:0:0:0:
408,40,60991,1,0,0:0:0:0:
364,36,61091,1,0,0:0:0:0:
324,116,61191,1,0,0:0:0:0:
280,112,61291,1,0,0:0:0:0:
232,40,61391,1,0,0:0:0:0:
188,36,61491,1,0,0:0:0:0:
124,104,61591,5,0,0:0:0:0:
95,142,61691,1,0,0:0:0:0:
81,188,61791,1,0,0:0:0:0:
85,235,61891,1,0,0:0:0:0:
98,281,61991,1,0,0:0:0:0:
125,320,62091,1,0,0:0:0:0:
164,346,62191,1,0,0:0:0:0:
211,355,62291,1,0,0:0:0:0:
257,348,62391,6,0,P|316:297|291:224,1,120
264,164,62690,1,0,0:0:0:0:
264,164,62790,2,0,L|412:184,1,120
484,264,63190,2,0,L|504:92,1,120
14,144,63590,2,0,L|24:224,1,60
32,264,63790,1,0,0:0:0:0:
128,32,63990,5,0,0:0:0:0:
128,32,64190,2,0,L|212:40,1,60
424,60,64390,2,0,L|256:44,1,120
140,176,64790,2,0,P|256:144|364:224,1,240
384,320,65389,5,0,0:0:0:0:
216,352,65589,2,0,B|208:328|208:328|240:328|240:328|212:312|212:312|244:312|244:312|216:296|216:296|248:292|248:292|220:280|220:280|252:276|252:276|224:264|224:264|256:260|256:260|228:248|228:248|260:232,2,360
220,120,66389,2,0,P|276:160|332:144,1,120
128,44,66689,1,0,0:0:0:0:
116,88,66789,6,0,L|80:220,1,120
480,176,67189,6,0,P|488:136|472:100,1,60
280,48,67389,2,0,P|302:28|331:21,1,60
352,280,67588,2,0,P|385:257|400:220,1,60
168,120,67788,2,0,P|197:122|223:138,1,60
200,340,67988,1,0,0:0:0:0:
150,362,68088,1,0,0:0:0:0:
95,362,68188,1,0,0:0:0:0:
44,342,68288,1,0,0:0:0:0:
17,295,68388,1,0,0:0:0:0:
12,241,68488,1,0,0:0:0:0:
23,188,68588,1,0,0:0:0:0:
60,149,68688,1,0,0:0:0:0:
111,133,68788,6,0,P|172:136|216:196,1,120
236,280,69088,1,0,0:0:0:0:
236,280,69188,2,0,L|352:172,1,120
320,36,69588,2,0,P|336:72|376:92,1,60
496,159,69788,2,0,P|466:160|440:148,1,60
268,128,69988,2,0,P|284:164|324:184,1,60
444,251,70187,2,0,P|414:252|388:240,1,60
256,284,70387,1,0,0:0:0:0:
256,192,70487,12,0,73186,0:0:0:0:
440,72,73586,5,0,0:0:0:0:
404,88,73686,1,0,0:0:0:0:
372,236,73886,1,0,0:0:0:0:
352,204,73986,1,0,0:0:0:0:
272,36,74186,2,0,L|256:108,1,60
176,84,74386,5,0,0:0:0:0:
168,120,74486,1,0,0:0:0:0:
48,204,74686,1,0,0:0:0:0:
84,192,74786,1,0,0:0:0:0:
200,248,74986,1,0,0:0:0:0:
188,288,75085,1,0,0:0:0:0:
176,328,75185,5,0,0:0:0:0:
164,368,75285,1,0,0:0:0:0:
376,312,75485,1,0,0:0:0:0:
336,296,75585,1,0,0:0:0:0:
200,248,75785,1,0,0:0:0:0:
340,144,75985,5,0,0:0:0:0:
348,116,76085,1,0,0:0:0:0:
256,88,76185,1,0,0:0:0:0:
252,52,76285,1,0,0:0:0:0:
144,60,76385,2,0,P|76:24|28:128,1,210
44,164,76785,5,0,0:0:0:0:
64,200,76885,1,0,0:0:0:0:
224,152,77085,1,0,0:0:0:0:
216,112,77185,1,0,0:0:0:0:
344,248,77385,1,0,0:0:0:0:
336,288,77485,1,0,0:0:0:0:
256,304,77584,5,0,0:0:0:0:
248,344,77684,1,0,0:0:0:0:
436,208,77884,1,0,0:0:0:0:
480,220,77984,1,0,0:0:0:0:
168,284,78184,1,0,0:0:0:0:
124,272,78284,1,0,0:0:0:0:
96,192,78384,5,0,0:0:0:0:
52,180,78484,1,0,0:0:0:0:
197,80,78684,1,0,0:0:0:0:
208,36,78784,1,0,0:0:0:0:
308,200,78984,1,0,0:0:0:0:
296,244,79084,1,0,0:0:0:0:
376,264,79184,5,0,0:0:0:0:
404,296,79284,1,0,0:0:0:0:
448,220,79384,1,0,0:0:0:0:
496,220,79484,1,0,0:0:0:0:
480,140,79584,2,0,P|524:72|424:20,1,210
408,76,79984,6,0,P|436:32|400:-20,1,120
336,112,80283,1,0,0:0:0:0:
372,180,80383,2,0,P|436:216|504:184,1,120
296,188,80683,1,0,0:0:0:0:
264,256,80783,6,0,P|256:320|304:360,1,120
196,220,81083,1,0,0:0:0:0:
128,252,81183,2,0,P|64:244|24:296,1,120
136,172,81483,1,0,0:0:0:0:
144,96,81583,6,0,P|116:48|36:52,1,120
212,132,81883,1,0,0:0:0:0:
288,124,81983,2,0,P|324:72|296:8,1,120
328,184,82283,1,0,0:0:0:0:
396,216,82383,5,0,0:0:0:0:
440,204,82483,1,0,0:0:0:0:
408,296,82582,1,0,0:0:0:0:
364,284,82682,1,0,0:0:0:0:
420,372,82782,1,0,0:0:0:0:
420,372,83182,6,0,P|440:296|400:240,1,120
384,196,83482,1,0,0:0:0:0:
266,218,83582,2,0,L|414:190,1,120
464,180,83882,1,0,0:0:0:0:
470,75,83982,6,0,P|442:139|482:191,1,120
504,248,84282,1,0,0:0:0:0:
484,354,84382,2,0,P|516:298|492:234,1,120
424,240,84682,1,0,0:0:0:0:
417,135,84782,6,0,P|445:199|405:251,1,120
348,252,85081,1,0,0:0:0:0:
230,269,85181,2,0,L|374:249,1,120
384,328,85481,1,0,0:0:0:0:
308,368,85581,6,0,L|268:364,1,30
352,376,85781,6,0,L|312:372,1,30
400,384,85981,6,0,L|272:364,1,120,8|0,0:0|0:0,0:0:0:0:
404,352,86381,1,0,0:0:0:0:
408,316,86581,1,0,0:0:0:0:
412,280,86781,1,0,0:0:0:0:
416,244,86981,2,0,L|408:304,1,60
260,212,87181,1,0,0:0:0:0:
256,176,87381,1,0,0:0:0:0:
252,140,87580,6,0,L|268:268,1,120
436,100,87980,1,0,0:0:0:0:
440,64,88180,1,0,0:0:0:0:
444,28,88380,6,0,L|424:168,1,120
383,384,88780,5,0,0:0:0:0:
64,328,88980,1,0,0:0:0:0:
120,8,89180,1,0,0:0:0:0:
278,38,89280,1,0,0:0:0:0:
439,65,89380,1,0,0:0:0:0:
96,264,89580,6,0,L|112:392,1,120
92,232,89980,1,0,0:0:0:0:
88,196,90179,2,0,L|96:276,1,60
248,192,90379,1,0,0:0:0:0:
252,156,90579,1,0,0:0:0:0:
256,120,90779,6,0,L|236:268,1,120
72,96,91179,1,0,0:0:0:0:
68,60,91379,1,0,0:0:0:0:
64,24,91579,6,0,L|80:152,1,120
124,380,91979,5,0,0:0:0:0:
443,324,92179,1,0,0:0:0:0:
387,4,92379,1,0,0:0:0:0:
68,61,92578,1,0,0:0:0:0:
4,240,92778,5,0,0:0:0:0:
4,240,92978,1,0,0:0:0:0:
76,272,93178,1,0,0:0:0:0:
132,216,93378,1,0,0:0:0:0:
132,216,93478,1,0,0:0:0:0:
132,216,93578,1,0,0:0:0:0:
204,248,93778,1,0,0:0:0:0:
256,188,93978,1,0,0:0:0:0:
328,220,94178,1,0,0:0:0:0:
376,156,94378,1,0,0:0:0:0:
376,156,94578,1,0,0:0:0:0:
448,192,94778,1,0,0:0:0:0:
496,128,94978,1,0,0:0:0:0:
383,384,95177,5,0,0:0:0:0:
64,328,95377,1,0,0:0:0:0:
120,8,95577,1,0,0:0:0:0:
278,38,95677,1,0,0:0:0:0:
439,65,95777,1,0,0:0:0:0:
64,328,95977,6,0,P|40:260|72:216,2,120
136,152,96577,1,0,0:0:0:0:
80,140,96677,1,0,0:0:0:0:
24,128,96777,1,0,0:0:0:0:
64,328,96977,1,0,0:0:0:0:
188,252,97177,6,0,L|332:280,1,120
432,204,97576,1,0,0:0:0:0:
404,372,97776,1,0,0:0:0:0:
392,80,97976,6,0,L|520:108,1,120
208,180,98376,2,0,P|200:140|236:100,1,60
308,32,98576,2,0,P|316:72|280:112,1,60
208,180,98776,2,0,P|200:140|236:100,1,60
308,32,98976,2,0,P|316:72|280:112,1,60
206,123,99176,6,0,P|108:140|24:92,2,180
464,228,99976,1,0,0:0:0:0:
423,202,100075,1,0,0:0:0:0:
376,190,100175,1,0,0:0:0:0:
328,188,100275,1,0,0:0:0:0:
281,198,100375,1,0,0:0:0:0:
238,220,100475,1,0,0:0:0:0:
208,258,100575,1,0,0:0:0:0:
189,302,100675,1,0,0:0:0:0:
182,349,100775,6,0,P|208:273|156:163,2,180
182,349,101575,1,0,0:0:0:0:
182,349,101775,1,0,0:0:0:0:
330,35,101975,1,0,0:0:0:0:
330,35,102175,1,0,0:0:0:0:
120,224,102375,6,0,L|56:216,1,60
264,340,102674,2,0,L|200:348,1,60
424,264,102974,1,0,0:0:0:0:
424,264,103074,1,0,0:0:0:0:
488,308,103174,6,0,L|464:384,1,60
448,188,103474,2,0,L|472:112,1,60
272,48,103774,1,0,0:0:0:0:
272,48,103874,1,0,0:0:0:0:
196,88,103974,6,0,L|180:28,1,60
320,192,104274,2,0,L|336:128,1,60
256,352,104574,1,0,0:0:0:0:
144,248,104774,6,0,L|44:224,1,90
40,208,104974,2,0,L|172:240,1,135.000005149841
200,232,105173,2,0,L|12:184,1,180
25,187,105373,1,0,0:0:0:0:
128,84,105573,5,0,0:0:0:0:
144,44,105673,1,0,0:0:0:0:
236,132,105873,1,0,0:0:0:0:
252,172,105973,1,0,0:0:0:0:
336,28,106173,1,0,0:0:0:0:
336,28,106273,1,0,0:0:0:0:
400,80,106373,5,0,0:0:0:0:
436,56,106473,1,0,0:0:0:0:
504,176,106673,1,0,0:0:0:0:
468,152,106773,1,0,0:0:0:0:
396,260,106973,1,0,0:0:0:0:
404,300,107073,1,0,0:0:0:0:
360,364,107173,5,0,0:0:0:0:
312,352,107273,1,0,0:0:0:0:
464,352,107473,1,0,0:0:0:0:
512,340,107572,1,0,0:0:0:0:
380,172,107772,1,0,0:0:0:0:
244,236,107972,6,0,P|228:192|256:140,1,90
236,132,108172,2,0,P|212:188|244:268,1,135.000005149841
224,272,108372,2,0,P|196:200|240:104,1,180
233,109,108572,1,0,0:0:0:0:
436,204,108772,6,0,P|372:220|312:200,1,120
233,109,109072,1,0,0:0:0:0:
233,109,109172,2,0,P|236:208|212:240,1,120
176,276,109472,1,0,0:0:0:0:
48,48,109572,6,0,L|184:32,1,120
227,222,109872,1,0,0:0:0:0:
227,222,109972,2,0,L|91:206,1,120
36,196,110271,1,0,0:0:0:0:
344,368,110371,6,0,P|364:312|328:252,1,120
248,148,110671,1,0,0:0:0:0:
248,148,110771,2,0,P|316:168|376:136,1,120
212,224,111071,1,0,0:0:0:0:
176,304,111171,6,0,P|132:288|80:316,1,90
72,296,111371,2,0,P|128:272|208:304,1,135.000005149841
212,284,111571,2,0,P|140:256|44:300,1,180
49,293,111771,1,0,0:0:0:0:
344,368,111971,6,0,P|364:312|328:252,1,120
300,200,112271,1,0,0:0:0:0:
248,148,112371,2,0,P|316:168|376:136,1,120
184,112,112670,1,0,0:0:0:0:
112,104,112770,6,0,L|120:236,1,120
52,256,113070,1,0,0:0:0:0:
244,364,113170,2,0,L|236:232,1,120
300,200,113470,1,0,0:0:0:0:
472,312,113570,6,0,L|340:300,1,120
508,244,113870,1,0,0:0:0:0:
456,188,113970,2,0,P|436:128|496:60,1,120
512,24,114270,1,0,0:0:0:0:
392,232,114370,5,0,0:0:0:0:
352,220,114470,1,0,0:0:0:0:
296,144,114570,1,0,0:0:0:0:
256,156,114670,1,0,0:0:0:0:
188,224,114770,2,0,L|64:192,1,120
256,356,115169,6,0,P|288:296|260:224,2,120
256,156,115769,1,0,0:0:0:0:
196,80,115969,1,0,0:0:0:0:
208,40,116069,1,0,0:0:0:0:
316,80,116169,1,0,0:0:0:0:
304,40,116269,1,0,0:0:0:0:
256,156,116369,2,0,L|256:304,1,120
256,276,116669,1,0,0:0:0:0:
200,340,116769,6,0,P|256:316|320:368,1,120
144,296,117169,1,0,0:0:0:0:
152,256,117269,1,0,0:0:0:0:
356,256,117369,1,0,0:0:0:0:
364,296,117469,1,0,0:0:0:0:
256,276,117568,2,0,L|256:152,1,120
256,124,117868,1,0,0:0:0:0:
196,84,117968,2,0,L|324:84,1,120
40,248,118268,1,0,0:0:0:0:
40,248,118368,6,0,P|20:184|48:128,1,120
136,348,118768,2,0,L|8:328,1,120
212,264,119168,1,0,0:0:0:0:
204,304,119268,1,0,0:0:0:0:
116,176,119368,1,0,0:0:0:0:
124,216,119468,1,0,0:0:0:0:
220,60,119568,2,0,L|200:188,1,120
201,178,119868,1,0,0:0:0:0:
472,248,119968,6,0,P|492:184|464:128,1,120
452,324,120367,1,0,0:0:0:0:
492,336,120467,1,0,0:0:0:0:
356,288,120567,1,0,0:0:0:0:
396,276,120667,1,0,0:0:0:0:
296,348,120767,2,0,L|316:196,1,120
400,52,121067,1,0,0:0:0:0:
400,52,121167,2,0,L|380:204,1,120
380,216,121467,1,0,0:0:0:0:
320,260,121567,6,0,P|376:244|428:320,1,120
224,352,121967,2,0,L|240:216,1,120
124,340,122367,1,0,0:0:0:0:
136,384,122467,1,0,0:0:0:0:
60,304,122566,1,0,0:0:0:0:
48,348,122666,1,0,0:0:0:0:
132,256,122766,2,0,L|8:236,1,120
220,236,123066,1,0,0:0:0:0:
256,152,123166,6,0,P|264:88|232:40,1,120
88,120,123566,1,0,0:0:0:0:
128,116,123666,1,0,0:0:0:0:
224,108,123766,1,0,0:0:0:0:
264,104,123866,1,0,0:0:0:0:
360,96,123966,2,0,L|496:84,1,120
479,85,124266,1,0,0:0:0:0:
440,152,124366,2,0,P|404:88|432:24,1,120
414,45,124666,1,0,0:0:0:0:
360,96,124766,6,0,P|292:100|256:28,1,120
152,288,125165,2,0,P|220:284|256:356,1,120
48,348,125565,1,0,0:0:0:0:
84,260,125665,1,0,0:0:0:0:
32,180,125765,1,0,0:0:0:0:
80,104,125865,1,0,0:0:0:0:
52,24,125965,2,0,P|108:40|180:16,1,120
460,360,126265,1,0,0:0:0:0:
460,360,126365,6,0,P|404:344|332:368,1,120
504,192,126765,1,0,0:0:0:0:
496,232,126865,1,0,0:0:0:0:
404,284,126965,1,0,0:0:0:0:
412,244,127065,1,0,0:0:0:0:
504,112,127165,5,0,0:0:0:0:
430,152,127265,1,0,0:0:0:0:
346,147,127365,1,0,0:0:0:0:
277,98,127465,1,0,0:0:0:0:
257,17,127564,1,0,0:0:0:0:
235,98,127664,1,0,0:0:0:0:
166,147,127764,1,0,0:0:0:0:
82,152,127864,1,0,0:0:0:0:
8,112,127964,6,0,L|24:244,1,120
128,352,128264,1,0,0:0:0:0:
128,352,128364,2,0,L|112:220,1,120
224,40,128764,2,0,L|208:172,1,120
124,296,129164,2,0,P|188:288|256:356,1,120
368,368,129564,5,0,0:0:0:0:
420,212,129764,1,0,0:0:0:0:
368,368,129964,1,0,0:0:0:0:
420,212,130163,1,0,0:0:0:0:
368,368,130363,1,0,0:0:0:0:
420,212,130563,1,0,0:0:0:0:
340,268,130763,2,0,L|460:320,1,120
336,108,131163,5,0,0:0:0:0:
172,140,131363,1,0,0:0:0:0:
336,108,131563,1,0,0:0:0:0:
172,140,131763,1,0,0:0:0:0:
336,108,131963,1,0,0:0:0:0:
172,140,132163,1,0,0:0:0:0:
268,184,132363,2,0,L|240:52,1,120
48,276,132762,5,0,0:0:0:0:
204,320,132962,1,0,0:0:0:0:
48,276,133162,1,0,0:0:0:0:
204,320,133362,1,0,0:0:0:0:
143,235,133562,1,0,0:0:0:0:
143,235,133762,2,0,L|109:353,3,120
364,360,134662,6,0,P|400:288|348:192,1,180
364,360,135161,1,0,0:0:0:0:
304,280,135361,1,0,0:0:0:0:
380,272,135461,1,0,0:0:0:0:
456,264,135561,1,0,0:0:0:0:
356,112,135761,1,0,0:0:0:0:
204,196,135961,5,0,0:0:0:0:
228,16,136161,1,0,0:0:0:0:
204,196,136361,1,0,0:0:0:0:
228,16,136561,1,0,0:0:0:0:
204,196,136761,1,0,0:0:0:0:
228,16,136961,1,0,0:0:0:0:
120,96,137161,1,0,0:0:0:0:
312,128,137361,1,0,0:0:0:0:
208,264,137560,5,0,0:0:0:0:
28,288,137760,1,0,0:0:0:0:
208,264,137960,1,0,0:0:0:0:
28,288,138160,1,0,0:0:0:0:
208,264,138360,1,0,0:0:0:0:
28,288,138560,1,0,0:0:0:0:
108,180,138760,1,0,0:0:0:0:
140,372,138960,1,0,0:0:0:0:
460,304,139160,5,0,0:0:0:0:
292,280,139360,1,0,0:0:0:0:
232,124,139560,1,0,0:0:0:0:
400,100,139760,1,0,0:0:0:0:
140,372,139960,1,0,0:0:0:0:
140,372,140159,2,0,P|120:304|156:256,1,120
368,268,140559,2,0,P|388:200|352:152,1,120
148,172,140959,6,0,P|80:96|160:8,1,240
260,156,141559,1,0,0:0:0:0:
172,312,141759,1,0,0:0:0:0:
96,296,141859,1,0,0:0:0:0:
20,280,141959,1,0,0:0:0:0:
148,172,142159,1,0,0:0:0:0:
256,368,142359,6,0,P|320:380|372:324,1,120
300,312,142658,1,0,0:0:0:0:
256,368,142758,1,0,0:0:0:0:
496,248,142958,1,0,0:0:0:0:
424,272,143058,1,0,0:0:0:0:
392,200,143158,1,0,0:0:0:0:
276,92,143358,1,0,0:0:0:0:
512,8,143558,2,0,L|476:160,1,120
0,20,143958,6,0,P|64:8|116:64,1,120
44,76,144258,1,0,0:0:0:0:
0,20,144358,1,0,0:0:0:0:
240,136,144558,1,0,0:0:0:0:
168,112,144658,1,0,0:0:0:0:
136,184,144758,1,0,0:0:0:0:
20,292,144958,1,0,0:0:0:0:
256,376,145157,2,0,L|220:224,1,120
488,228,145757,6,0,L|392:248,1,80
296,136,146057,2,0,L|200:116,1,80
168,360,146357,1,0,0:0:0:0:
168,360,146557,2,0,B|134:369|134:369|123:345|123:345|97:356|97:356|82:329|82:329|54:338|54:338|34:310|34:310,1,180.000006866455
217,237,146957,2,0,B|251:246|251:246|262:222|262:222|288:233|288:233|303:206|303:206|331:215|331:215|351:187|351:187,1,180.000006866455
171,127,147357,6,0,B|137:136|137:136|126:112|126:112|100:123|100:123|85:96|85:96|57:105|57:105|37:77|37:77,1,180.000006866455
128,21,147756,1,0,0:0:0:0:
15,186,147956,1,0,0:0:0:0:
164,324,148156,1,0,0:0:0:0:
184,248,148256,1,0,0:0:0:0:
204,172,148356,1,0,0:0:0:0:
52,280,148556,1,0,0:0:0:0:
280,364,148756,6,0,P|316:344|332:292,1,90
312,240,148956,2,0,P|334:280|326:332,1,90
260,300,149156,2,0,P|316:288|356:304,1,90
400,296,149356,2,0,P|344:308|304:292,1,90
408,240,149556,2,0,P|396:276|412:324,1,90
400,376,149756,2,0,P|412:340|396:292,1,90
364,328,149956,2,0,P|416:332|456:288,1,90
512,312,150155,2,0,P|472:288|452:240,1,90
482,199,150355,6,0,L|396:224,1,90
348,176,150555,2,0,L|434:200,1,90
292,216,150755,2,0,P|312:176|292:108,1,90
256,100,150955,2,0,P|316:108|352:92,1,90
224,48,151155,2,0,L|204:148,1,90
152,156,151355,2,0,P|208:156|240:200,1,90
252,232,151555,2,0,P|248:188|280:152,1,90
208,276,151755,2,0,L|304:260,1,90
496,236,152155,5,0,0:0:0:0:
472,328,152310,1,0,0:0:0:0:
472,328,152455,1,0,0:0:0:0:
496,236,152604,1,0,0:0:0:0:
496,236,152754,1,0,0:0:0:0:
496,236,152954,2,0,B|388:172|376:292|264:208,1,240
208,132,153554,1,0,0:0:0:0:
332,40,153754,6,0,P|352:112|320:172,2,120
180,344,154354,1,0,0:0:0:0:
159,288,154487,1,0,0:0:0:0:
174,231,154620,1,0,0:0:0:0:
337,231,154754,1,0,0:0:0:0:
352,288,154887,1,0,0:0:0:0:
332,343,155020,1,0,0:0:0:0:
179,40,155153,1,0,0:0:0:0:
256,192,155253,12,0,157952,0:0:0:0:
86,53,158352,5,0,0:0:0:0:
34,65,158452,1,0,0:0:0:0:
70,164,158652,1,0,0:0:0:0:
18,176,158752,1,0,0:0:0:0:
148,304,158952,1,0,0:0:0:0:
140,352,159052,1,0,0:0:0:0:
216,256,159152,5,0,0:0:0:0:
264,264,159252,1,0,0:0:0:0:
84,252,159452,1,0,0:0:0:0:
36,260,159552,1,0,0:0:0:0:
328,364,159752,1,0,0:0:0:0:
380,352,159852,1,0,0:0:0:0:
460,320,159952,5,0,0:0:0:0:
456,376,160051,1,0,0:0:0:0:
384,204,160251,1,0,0:0:0:0:
332,192,160351,1,0,0:0:0:0:
488,84,160551,1,0,0:0:0:0:
480,136,160651,1,0,0:0:0:0:
404,96,160751,5,0,0:0:0:0:
392,48,160851,1,0,0:0:0:0:
312,84,160951,1,0,0:0:0:0:
300,132,161051,1,0,0:0:0:0:
224,92,161151,2,0,P|164:52|72:104,1,180
64,176,161551,5,0,0:0:0:0:
16,160,161651,1,0,0:0:0:0:
208,216,161851,1,0,0:0:0:0:
224,164,161951,1,0,0:0:0:0:
120,344,162151,1,0,0:0:0:0:
176,336,162251,1,0,0:0:0:0:
136,268,162351,5,0,0:0:0:0:
132,220,162451,2,0,L|124:148,1,60
312,276,162650,1,0,0:0:0:0:
308,324,162750,2,0,L|300:396,1,60
416,224,162950,1,0,0:0:0:0:
468,232,163050,1,0,0:0:0:0:
360,152,163150,5,0,0:0:0:0:
364,100,163250,1,0,0:0:0:0:
304,272,163450,1,0,0:0:0:0:
308,324,163550,1,0,0:0:0:0:
248,172,163750,1,0,0:0:0:0:
200,180,163850,1,0,0:0:0:0:
128,88,163950,5,0,0:0:0:0:
176,96,164050,1,0,0:0:0:0:
120,196,164150,1,0,0:0:0:0:
72,204,164250,1,0,0:0:0:0:
8,124,164350,2,0,P|48:188|0:284,1,180
0,360,164750,5,0,0:0:0:0:
144,268,164950,1,0,0:0:0:0:
144,268,165049,1,0,0:0:0:0:
144,268,165149,1,0,0:0:0:0:
308,336,165349,1,0,0:0:0:0:
288,248,165449,1,0,0:0:0:0:
268,160,165549,5,0,0:0:0:0:
424,64,165749,1,0,0:0:0:0:
424,64,165849,1,0,0:0:0:0:
424,64,165949,1,0,0:0:0:0:
504,244,166149,1,0,0:0:0:0:
416,224,166249,1,0,0:0:0:0:
328,204,166349,5,0,0:0:0:0:
144,280,166549,1,0,0:0:0:0:
144,280,166649,1,0,0:0:0:0:
144,280,166749,1,0,0:0:0:0:
292,380,166949,1,0,0:0:0:0:
312,292,167049,1,0,0:0:0:0:
328,204,167149,5,0,0:0:0:0:
336,164,167249,1,0,0:0:0:0:
240,144,167349,1,0,0:0:0:0:
232,104,167449,1,0,0:0:0:0:
296,32,167548,2,0,P|224:68|124:4,1,180
12,120,167948,5,0,0:0:0:0:
160,256,168148,1,0,0:0:0:0:
176,152,168248,1,0,0:0:0:0:
192,48,168348,1,0,0:0:0:0:
348,184,168548,1,0,0:0:0:0:
348,184,168648,1,0,0:0:0:0:
348,184,168748,5,0,0:0:0:0:
208,360,168948,1,0,0:0:0:0:
192,256,169048,1,0,0:0:0:0:
176,152,169148,1,0,0:0:0:0:
356,260,169348,1,0,0:0:0:0:
356,260,169448,1,0,0:0:0:0:
356,260,169548,5,0,0:0:0:0:
492,96,169748,1,0,0:0:0:0:
388,80,169848,1,0,0:0:0:0:
284,64,169948,1,0,0:0:0:0:
132,208,170147,1,0,0:0:0:0:
132,208,170247,1,0,0:0:0:0:
196,152,170347,5,0,0:0:0:0:
196,152,170447,1,0,0:0:0:0:
108,128,170547,1,0,0:0:0:0:
108,128,170647,1,0,0:0:0:0:
132,208,170747,2,0,P|124:288|76:328,1,120
48,64,171147,6,0,P|132:44|172:68,1,120
224,92,171447,1,0,0:0:0:0:
284,164,171547,2,0,P|276:92|332:40,1,120
404,232,171947,2,0,P|412:304|356:356,1,120
224,168,172347,2,0,L|368:156,1,120
136,264,172777,5,0,0:0:0:0:
110,85,172976,1,0,0:0:0:0:
136,264,173176,1,0,0:0:0:0:
110,85,173376,1,0,0:0:0:0:
136,264,173576,2,0,L|104:44,1,180
240,228,173976,2,0,L|224:376,1,120
260,72,174376,5,0,0:0:0:0:
439,98,174576,1,0,0:0:0:0:
260,72,174776,1,0,0:0:0:0:
439,98,174976,1,0,0:0:0:0:
260,72,175176,2,0,L|480:104,1,180
184,152,175575,2,0,L|52:136,1,120
392,352,175975,5,0,0:0:0:0:
408,192,176175,1,0,0:0:0:0:
392,352,176375,1,0,0:0:0:0:
408,192,176575,1,0,0:0:0:0:
392,352,176775,2,0,L|400:260,1,60
408,192,176975,2,0,L|416:100,1,60
296,296,177175,2,0,L|288:204,1,60
280,136,177375,2,0,L|272:44,1,60
160,356,177575,5,0,0:0:0:0:
178,116,177775,2,0,L|168:235,1,120
37,276,178174,1,0,0:0:0:0:
19,36,178374,2,0,L|28:155,1,120
160,356,178774,2,0,L|172:200,1,120
288,44,179174,5,0,0:0:0:0:
302,223,179374,1,0,0:0:0:0:
288,44,179574,1,0,0:0:0:0:
302,223,179774,1,0,0:0:0:0:
288,44,179974,2,0,L|304:240,1,180
456,172,180373,2,0,L|440:324,1,120
224,340,180773,5,0,0:0:0:0:
210,161,180973,1,0,0:0:0:0:
224,340,181173,1,0,0:0:0:0:
210,161,181373,1,0,0:0:0:0:
224,340,181573,2,0,L|208:144,1,180
56,212,181973,2,0,L|72:80,1,120
368,336,182373,5,0,0:0:0:0:
144,336,182573,1,0,0:0:0:0:
368,336,182773,1,0,0:0:0:0:
144,336,182972,1,0,0:0:0:0:
368,336,183172,2,0,P|348:296|320:280,1,60
175,287,183372,2,0,P|154:308|144:336,1,60
40,264,183572,2,0,P|60:224|92:204,1,60
440,214,183772,2,0,P|461:236|472:264,1,60
256,368,183972,6,0,L|256:228,1,120
316,28,184372,1,0,0:0:0:0:
196,28,184572,1,0,0:0:0:0:
316,28,184772,2,0,L|176:28,1,120
140,116,185172,2,0,L|396:116,1,240
88,276,185571,5,0,0:0:0:0:
28,128,185771,1,0,0:0:0:0:
424,276,185971,1,0,0:0:0:0:
484,128,186171,1,0,0:0:0:0:
172,340,186371,2,0,P|256:308|348:352,1,180
312,216,186771,2,0,P|256:236|196:216,1,120
56,8,187171,6,0,P|56:56|72:88,1,60
92,136,187371,2,0,P|116:164|140:180,1,60
456,8,187571,2,0,P|456:56|440:88,1,60
420,136,187771,2,0,P|396:164|372:180,1,60
172,80,187970,2,0,P|256:52|348:84,1,180
256,288,188370,2,0,L|256:160,1,120
76,336,188770,6,0,L|4:336,1,60
296,336,188970,2,0,L|368:336,1,60
216,336,189170,2,0,L|144:336,1,60
436,336,189370,2,0,L|508:336,1,60
0,204,189570,5,0,0:0:0:0:
0,256,189670,1,0,0:0:0:0:
85,204,189770,1,0,0:0:0:0:
85,256,189870,1,0,0:0:0:0:
171,204,189970,1,0,0:0:0:0:
171,256,190070,1,0,0:0:0:0:
256,204,190170,1,0,0:0:0:0:
256,256,190270,1,0,0:0:0:0:
256,136,190369,6,0,L|256:16,1,120
316,356,190769,1,0,0:0:0:0:
196,356,190969,1,0,0:0:0:0:
316,356,191169,2,0,L|176:356,1,120
140,268,191569,2,0,L|396:268,1,240
88,108,191969,5,0,0:0:0:0:
28,256,192169,1,0,0:0:0:0:
424,108,192369,1,0,0:0:0:0:
484,256,192569,1,0,0:0:0:0:
172,44,192769,2,0,P|256:76|348:32,1,180
312,168,193168,2,0,P|256:148|196:168,1,120
56,376,193568,6,0,P|56:328|72:296,1,60
92,248,193768,2,0,P|116:220|140:204,1,60
456,376,193968,2,0,P|456:328|440:296,1,60
420,248,194168,2,0,P|396:220|372:204,1,60
172,304,194368,2,0,P|256:332|348:300,1,180
256,96,194768,2,0,L|256:224,1,120
436,48,195168,6,0,L|508:48,1,60
216,48,195367,2,0,L|144:48,1,60
296,48,195567,2,0,L|368:48,1,60
76,48,195767,2,0,L|4:48,1,60
512,180,195967,5,0,0:0:0:0:
512,128,196067,1,0,0:0:0:0:
427,180,196167,1,0,0:0:0:0:
427,128,196267,1,0,0:0:0:0:
341,180,196367,1,0,0:0:0:0:
341,128,196467,1,0,0:0:0:0:
256,180,196567,1,0,0:0:0:0:
256,128,196667,1,0,0:0:0:0:
256,248,196767,6,0,L|256:368,1,120
80,172,197167,2,0,L|80:292,1,120
432,108,197567,1,0,0:0:0:0:
432,168,197700,1,0,0:0:0:0:
432,228,197833,1,0,0:0:0:0:
256,152,197966,1,0,0:0:0:0:
256,92,198100,1,0,0:0:0:0:
256,32,198233,1,0,0:0:0:0:
48,104,198366,5,0,0:0:0:0:
256,192,198466,12,0,201165,0:0:0:0:
408,60,201565,5,0,0:0:0:0:
460,52,201665,1,0,0:0:0:0:
328,224,201865,1,0,0:0:0:0:
276,232,201965,1,0,0:0:0:0:
412,136,202165,1,0,0:0:0:0:
464,128,202265,1,0,0:0:0:0:
328,148,202365,5,0,0:0:0:0:
276,156,202465,1,0,0:0:0:0:
96,52,202665,1,0,0:0:0:0:
148,60,202765,1,0,0:0:0:0:
80,232,202964,1,0,0:0:0:0:
28,240,203064,1,0,0:0:0:0:
88,144,203164,5,0,0:0:0:0:
140,152,203264,1,0,0:0:0:0:
212,336,203464,1,0,0:0:0:0:
160,344,203564,1,0,0:0:0:0:
332,264,203764,1,0,0:0:0:0:
324,316,203864,1,0,0:0:0:0:
264,196,203964,5,0,0:0:0:0:
272,144,204064,1,0,0:0:0:0:
432,124,204164,1,0,0:0:0:0:
424,176,204264,1,0,0:0:0:0:
344,184,204364,2,0,L|364:48,1,120
128,296,204774,5,0,0:0:0:0:
76,308,204873,1,0,0:0:0:0:
80,80,205073,1,0,0:0:0:0:
28,68,205173,1,0,0:0:0:0:
120,220,205373,1,0,0:0:0:0:
68,232,205473,1,0,0:0:0:0:
80,156,205573,5,0,0:0:0:0:
28,144,205673,1,0,0:0:0:0:
244,300,205873,1,0,0:0:0:0:
232,352,205973,1,0,0:0:0:0:
120,220,206173,1,0,0:0:0:0:
68,232,206273,1,0,0:0:0:0:
172,276,206373,5,0,0:0:0:0:
160,328,206473,1,0,0:0:0:0:
80,156,206673,1,0,0:0:0:0:
28,144,206773,1,0,0:0:0:0:
256,104,206973,1,0,0:0:0:0:
296,68,207073,1,0,0:0:0:0:
320,244,207173,5,0,0:0:0:0:
280,208,207273,1,0,0:0:0:0:
392,88,207372,1,0,0:0:0:0:
432,124,207472,1,0,0:0:0:0:
400,212,207572,2,0,L|300:112,1,120
120,340,207972,6,0,P|176:364|244:320,1,120
176,276,208272,1,0,0:0:0:0:
128,208,208372,6,0,P|128:148|168:100,1,120
240,84,208672,1,0,0:0:0:0:
316,68,208772,6,0,L|464:44,1,120
472,156,209072,1,0,0:0:0:0:
456,236,209172,6,0,L|308:212,1,120
260,204,209472,1,0,0:0:0:0:
188,360,209572,6,0,P|172:288|204:240,1,120
120,212,209871,1,0,0:0:0:0:
36,236,209971,6,0,P|52:164|20:116,1,120
0,56,210271,1,0,0:0:0:0:
72,16,210371,5,0,0:0:0:0:
92,68,210471,1,0,0:0:0:0:
180,40,210571,1,0,0:0:0:0:
164,96,210671,1,0,0:0:0:0:
244,108,210771,2,0,P|264:164|232:228,1,120
124,352,211171,6,0,L|-4:336,1,120
212,364,211471,1,0,0:0:0:0:
384,300,211574,6,0,L|512:316,1,120
296,288,211873,1,0,0:0:0:0:
172,224,211973,6,0,L|136:92,1,120
256,156,212273,1,0,0:0:0:0:
340,224,212373,6,0,L|376:92,1,120
256,296,212673,1,0,0:0:0:0:
168,364,212773,6,0,L|8:344,1,120
256,296,213073,1,0,0:0:0:0:
344,364,213173,6,0,L|504:344,1,120
256,296,213473,1,0,0:0:0:0:
188,212,213562,5,0,0:0:0:0:
196,160,213661,1,0,0:0:0:0:
324,212,213761,1,0,0:0:0:0:
316,160,213861,1,0,0:0:0:0:
256,236,213961,6,0,L|256:116,1,120
40,224,214361,1,0,0:0:0:0:
48,256,214561,1,0,0:0:0:0:
56,288,214761,1,0,0:0:0:0:
64,320,214961,2,0,L|80:384,1,60
224,136,215161,1,0,0:0:0:0:
216,168,215361,1,0,0:0:0:0:
208,200,215561,6,0,L|176:328,1,120
20,28,215961,1,0,0:0:0:0:
28,60,216160,1,0,0:0:0:0:
36,92,216360,6,0,L|72:220,1,120
392,384,216760,5,0,0:0:0:0:
448,65,216960,1,0,0:0:0:0:
129,9,217160,1,0,0:0:0:0:
102,170,217260,1,0,0:0:0:0:
72,328,217360,1,0,0:0:0:0:
472,160,217560,5,0,0:0:0:0:
464,128,217760,1,0,0:0:0:0:
456,96,217960,1,0,0:0:0:0:
448,64,218160,2,0,L|432:0,1,60
288,248,218360,1,0,0:0:0:0:
296,216,218560,1,0,0:0:0:0:
304,184,218759,6,0,L|340:56,1,120
492,356,219159,1,0,0:0:0:0:
484,324,219359,1,0,0:0:0:0:
476,292,219559,6,0,L|440:164,1,120
64,65,219959,5,0,0:0:0:0:
120,384,220159,1,0,0:0:0:0:
440,328,220359,1,0,0:0:0:0:
383,9,220559,1,0,0:0:0:0:
4,240,220759,5,0,0:0:0:0:
4,240,220959,1,0,0:0:0:0:
76,272,221158,1,0,0:0:0:0:
132,216,221358,1,0,0:0:0:0:
132,216,221458,1,0,0:0:0:0:
132,216,221558,1,0,0:0:0:0:
204,248,221758,1,0,0:0:0:0:
256,188,221958,1,0,0:0:0:0:
328,220,222158,1,0,0:0:0:0:
376,156,222358,1,0,0:0:0:0:
376,156,222558,1,0,0:0:0:0:
448,192,222758,1,0,0:0:0:0:
496,128,222958,1,0,0:0:0:0:
64,319,223158,5,0,0:0:0:0:
120,0,223358,1,0,0:0:0:0:
440,56,223558,1,0,0:0:0:0:
410,214,223657,1,0,0:0:0:0:
383,375,223757,1,0,0:0:0:0:
64,328,223957,6,0,P|40:260|72:216,2,120
136,152,224557,1,0,0:0:0:0:
80,140,224657,1,0,0:0:0:0:
24,128,224757,1,0,0:0:0:0:
64,328,224957,1,0,0:0:0:0:
188,252,225157,6,0,L|332:280,1,120
432,204,225557,1,0,0:0:0:0:
404,372,225757,1,0,0:0:0:0:
392,80,225957,6,0,L|520:108,1,120
208,180,226356,2,0,P|200:140|236:100,1,60
308,32,226556,2,0,P|316:72|280:112,1,60
208,180,226756,2,0,P|200:140|236:100,1,60
308,32,226956,2,0,P|316:72|280:112,1,60
206,123,227156,6,0,P|108:140|24:92,2,180
464,228,227956,1,0,0:0:0:0:
407,194,228056,1,0,0:0:0:0:
345,169,228156,1,0,0:0:0:0:
279,161,228256,1,0,0:0:0:0:
213,170,228356,1,0,0:0:0:0:
152,196,228456,1,0,0:0:0:0:
101,238,228556,1,0,0:0:0:0:
69,297,228655,1,0,0:0:0:0:
46,358,228755,6,0,P|72:282|20:172,2,180
46,358,229555,1,0,0:0:0:0:
466,26,229755,1,0,0:0:0:0:
46,26,229955,1,0,0:0:0:0:
466,358,230155,1,0,0:0:0:0:
31,294,230355,5,0,0:0:0:0:
46,358,230455,1,0,0:0:0:0:
208,200,230655,1,0,0:0:0:0:
193,264,230755,1,0,0:0:0:0:
104,60,230955,1,0,0:0:0:0:
168,72,231055,1,0,0:0:0:0:
260,112,231154,5,0,0:0:0:0:
248,48,231254,1,0,0:0:0:0:
416,176,231454,1,0,0:0:0:0:
404,240,231554,1,0,0:0:0:0:
264,376,231754,1,0,0:0:0:0:
252,312,231854,1,0,0:0:0:0:
264,224,231954,5,0,0:0:0:0:
200,236,232054,1,0,0:0:0:0:
16,324,232254,1,0,0:0:0:0:
80,336,232354,1,0,0:0:0:0:
456,312,232554,1,0,0:0:0:0:
444,376,232654,1,0,0:0:0:0:
440,232,232754,5,0,0:0:0:0:
504,244,232854,1,0,0:0:0:0:
416,160,232954,1,0,0:0:0:0:
352,172,233054,1,0,0:0:0:0:
476,112,233154,2,0,P|492:80|464:0,1,120
252,332,233554,5,0,0:0:0:0:
316,344,233653,1,0,0:0:0:0:
72,288,233853,1,0,0:0:0:0:
84,352,233953,1,0,0:0:0:0:
76,156,234153,1,0,0:0:0:0:
12,168,234253,1,0,0:0:0:0:
120,80,234353,5,0,0:0:0:0:
184,92,234453,1,0,0:0:0:0:
316,224,234653,1,0,0:0:0:0:
252,236,234753,1,0,0:0:0:0:
480,40,234953,1,0,0:0:0:0:
468,104,235053,1,0,0:0:0:0:
480,188,235153,5,0,0:0:0:0:
416,176,235253,1,0,0:0:0:0:
224,44,235453,1,0,0:0:0:0:
288,32,235553,1,0,0:0:0:0:
252,280,235753,1,0,0:0:0:0:
244,344,235853,1,0,0:0:0:0:
232,188,235953,5,0,0:0:0:0:
296,204,236053,1,0,0:0:0:0:
272,56,236152,1,0,0:0:0:0:
284,120,236252,1,0,0:0:0:0:
204,100,236352,2,0,P|120:104|88:52,1,120
28,300,236752,6,0,P|112:296|144:348,1,120
196,376,237052,1,0,0:0:0:0:
196,376,237152,1,0,0:0:0:0:
476,244,237352,1,0,0:0:0:0:
384,272,237452,1,0,0:0:0:0:
292,300,237552,5,0,0:0:0:0:
120,140,237752,1,0,0:0:0:0:
120,140,237852,1,0,0:0:0:0:
120,140,237952,1,0,0:0:0:0:
328,20,238152,1,0,0:0:0:0:
316,116,238252,1,0,0:0:0:0:
304,212,238352,5,0,0:0:0:0:
136,360,238552,1,0,0:0:0:0:
136,360,238651,1,0,0:0:0:0:
136,360,238751,1,0,0:0:0:0:
24,164,238951,1,0,0:0:0:0:
120,176,239051,1,0,0:0:0:0:
216,188,239151,5,0,0:0:0:0:
256,196,239251,1,0,0:0:0:0:
344,272,239351,1,0,0:0:0:0:
304,280,239451,1,0,0:0:0:0:
228,384,239551,2,0,P|210:327|227:270,1,120
472,40,239951,5,0,0:0:0:0:
304,192,240151,1,0,0:0:0:0:
284,88,240251,1,0,0:0:0:0:
384,128,240351,1,0,0:0:0:0:
152,364,240551,1,0,0:0:0:0:
164,256,240651,1,0,0:0:0:0:
176,148,240751,5,0,0:0:0:0:
420,272,240951,1,0,0:0:0:0:
312,288,241051,1,0,0:0:0:0:
356,188,241150,1,0,0:0:0:0:
272,384,241350,1,0,0:0:0:0:
168,360,241450,1,0,0:0:0:0:
64,332,241550,5,0,0:0:0:0:
172,124,241750,1,0,0:0:0:0:
152,230,241850,1,0,0:0:0:0:
66,164,241950,1,0,0:0:0:0:
352,52,242150,1,0,0:0:0:0:
328,156,242250,1,0,0:0:0:0:
304,260,242350,5,0,0:0:0:0:
292,324,242450,1,0,0:0:0:0:
200,296,242550,1,0,0:0:0:0:
164,352,242650,1,0,0:0:0:0:
88,296,242750,2,0,P|60:224|92:188,1,120
480,32,243161,5,0,0:0:0:0:
480,32,243260,1,0,0:0:0:0:
480,32,243360,1,0,0:0:0:0:
372,216,243560,1,0,0:0:0:0:
340,176,243660,1,0,0:0:0:0:
200,76,243960,2,0,P|128:100|12:56,2,180
272,28,244660,1,0,0:0:0:0:
272,28,244760,5,0,0:0:0:0:
344,40,244860,1,0,0:0:0:0:
416,56,244960,1,0,0:0:0:0:
484,232,245160,1,0,0:0:0:0:
412,216,245260,1,0,0:0:0:0:
200,348,245560,2,0,L|384:384,2,180
124,372,246259,1,0,0:0:0:0:
124,372,246359,5,0,0:0:0:0:
116,300,246459,1,0,0:0:0:0:
108,228,246559,1,0,0:0:0:0:
264,32,246759,1,0,0:0:0:0:
256,104,246859,1,0,0:0:0:0:
332,328,247159,2,0,L|524:358,2,192
260,356,247859,1,0,0:0:0:0:
184,368,247959,5,0,0:0:0:0:
108,349,248059,1,0,0:0:0:0:
46,301,248159,1,0,0:0:0:0:
18,227,248258,1,0,0:0:0:0:
328,16,248558,5,0,0:0:0:0:
404,35,248658,1,0,0:0:0:0:
466,83,248758,1,0,0:0:0:0:
494,157,248858,1,0,0:0:0:0:
256,384,249158,5,0,0:0:0:0:
188,272,249258,1,0,0:0:0:0:
312,192,249358,1,0,0:0:0:0:
188,112,249458,1,0,0:0:0:0:
256,0,249558,5,0,0:0:0:0:
256,192,249758,12,0,252757,0:0:0:0:
