osu file format v14

[General]
AudioFilename: audio.mp3
AudioLeadIn: 0
PreviewTime: 43200
Countdown: 0
SampleSet: Soft
StackLeniency: 0.2
Mode: 0
LetterboxInBreaks: 0
WidescreenStoryboard: 1

[Editor]
DistanceSpacing: 1
BeatDivisor: 4
GridSize: 32
TimelineZoom: 3.099999

[Metadata]
Title:Tousou
TitleUnicode:凍蒼
Artist:Daisy x Daisy
ArtistUnicode:Daisy×Daisy
Creator:Kuse
Version:dkblaze's Extra
Source:流星ワールドアクター Badge & Dagger
Tags:KuBsNia_ZhoYL_ arronchu1207 Hinae Kumocha dkblaze video game galgame op opening female vocals japanese eroge visual novel short ver ryuusei world actor heliodor rock jrock megu_san shirokumocha
BeatmapID:3029519
BeatmapSetID:1469017

[Difficulty]
HPDrainRate:5.6
CircleSize:3.8
OverallDifficulty:9
ApproachRate:9.2
SliderMultiplier:1.6
SliderTickRate:1

[Events]
//Background and Video events
Video,0,"video.mp4"
0,0,"bg.jpg",0,0
//Break Periods
2,34895,37306
//Storyboard Layer 0 (Background)
//Storyboard Layer 1 (Fail)
//Storyboard Layer 2 (Pass)
//Storyboard Layer 3 (Foreground)
//Storyboard Layer 4 (Overlay)
//Storyboard Sound Samples

[TimingPoints]
76,300,4,2,1,40,1,0
1276,-100,4,2,1,45,0,0
4876,-250,4,2,1,45,0,0
5101,-250,4,2,1,5,0,0
5176,-100,4,2,1,45,0,0
5926,-76.9230769230769,4,2,1,75,0,0
6376,-90.9090909090909,4,2,1,75,0,0
6976,-66.6666666666667,4,2,1,75,0,0
7126,-90.9090909090909,4,2,1,75,0,0
8326,-76.9230769230769,4,2,1,75,0,0
8776,-90.9090909090909,4,2,1,75,0,0
9526,-76.9230769230769,4,2,1,75,0,0
11326,-500,4,2,1,75,0,0
11626,-76.9230769230769,4,2,1,75,0,0
12076,-71.4285714285714,4,2,1,75,0,0
12526,-250,4,2,1,75,0,0
13726,-125,4,2,1,75,0,0
13801,-125,4,2,1,55,0,0
14476,-125,4,2,1,65,0,0
23626,-200,4,2,1,65,0,0
24076,-111.111111111111,4,2,1,70,0,0
24976,-76.9230769230769,4,2,1,70,0,0
25126,-111.111111111111,4,2,1,70,0,0
32326,-58.8235294117647,4,2,1,70,0,0
32626,-62.5,4,2,1,70,0,0
37876,-125,4,2,1,70,0,0
38176,-111.111111111111,4,2,1,70,0,0
38401,-111.111111111111,4,2,1,5,0,0
38476,-166.666666666667,4,2,1,70,0,0
39676,-166.666666666667,4,2,1,70,0,0
39976,-125,4,2,1,70,0,0
40276,-100,4,2,1,70,0,0
40576,-83.3333333333333,4,2,1,70,0,0
41926,-71.4285714285714,4,2,1,70,0,0
44176,-500,4,2,1,70,0,0
44401,-500,4,2,1,5,0,0
44476,-62.5,4,2,1,85,0,1
44776,-83.3333333333333,4,2,1,85,0,1
52726,-62.5,4,2,1,85,0,1
53026,-62.5,4,2,1,65,0,1
54076,-62.5,4,2,1,85,0,1
54376,-83.3333333333333,4,2,1,85,0,1
56926,-100,4,2,1,85,0,1
56964,-100,4,2,1,85,0,1
57001,-100,4,2,1,85,0,1
57264,-100,4,2,1,85,0,1
57301,-100,4,2,1,85,0,1
57526,-62.5,4,2,1,85,0,1
57826,-71.4285714285714,4,2,1,85,0,1
58876,-83.3333333333333,4,2,1,85,0,1
62326,-66.6666666666667,4,2,1,85,0,1
62476,-71.4285714285714,4,2,1,85,0,1
62776,-83.3333333333333,4,2,1,85,0,1
63601,-83.3333333333333,4,2,1,5,0,1
63676,-100,4,2,1,85,0,1
64276,-200,4,2,1,85,0,1
64876,-100,4,2,1,85,0,1
66001,-100,4,2,1,5,0,1
66076,-76.9230769230769,4,2,1,85,0,1
66601,-76.9230769230769,4,2,1,5,0,1
66676,-55.5555555555556,4,2,1,85,0,1
67201,-55.5555555555556,4,2,1,5,0,1
67276,-83.3333333333333,4,2,1,85,0,1
67576,-62.5,4,2,1,85,0,1
68476,-125,4,2,1,85,0,1
69076,-100,4,2,1,85,0,1
70876,-100,4,2,1,55,0,1
71476,-83.3333333333333,4,2,1,70,0,1
72076,-83.3333333333333,4,2,1,85,0,1
73276,-100,4,2,1,85,0,0
73313,-100,4,2,1,45,0,0
74176,-100,4,2,1,45,0,0
74326,-62.5,4,2,1,85,0,0
74776,-83.3333333333333,4,2,1,85,0,0
75376,-66.6666666666667,4,2,1,85,0,0
75526,-83.3333333333333,4,2,1,85,0,0
76726,-62.5,4,2,1,85,0,0
77176,-83.3333333333333,4,2,1,85,0,0
77926,-71.4285714285714,4,2,1,85,0,0
79726,-66.6666666666667,4,2,1,85,0,0
80476,-71.4285714285714,4,2,1,85,0,0
80926,-133.333333333333,4,2,1,85,0,0
82126,-133.333333333333,4,2,1,45,0,0
82426,-133.333333333333,4,2,1,55,0,0

[Colours]
Combo1 : 182,182,182
Combo2 : 255,57,57

[HitObjects]
200,264,1126,5,8,0:3:0:0:
200,264,1201,1,4,0:3:0:0:
200,264,1276,1,8,0:0:0:0:
334,187,1426,2,0,L|317:100,1,80,0|8,3:0|0:0,0:0:0:0:
316,330,1726,2,0,P|333:300|385:282,1,80,0|8,3:0|0:0,0:0:0:0:
193,166,2026,2,0,P|151:158|95:145,1,80,0|8,3:0|0:0,0:0:0:0:
315,19,2326,6,0,P|357:8|428:-7,2,80,0|8|0,3:0|0:0|3:0,0:0:0:0:
189,67,2776,1,8,0:0:0:0:
335,231,2926,6,0,P|337:208|352:138,1,80,0|8,3:0|0:0,0:0:0:0:
254,282,3226,1,0,3:0:0:0:
97,197,3376,1,8,0:0:0:0:
230,371,3526,1,0,3:0:0:0:
230,371,3601,1,0,3:0:0:0:
230,371,3676,5,8,0:0:0:0:
343,247,3826,1,0,3:0:0:0:
254,282,3976,5,8,0:0:0:0:
396,368,4126,1,0,3:0:0:0:
245,273,4276,5,8,0:0:0:0:
436,197,4426,2,0,P|471:208|535:224,1,80,0|8,3:0|0:0,0:0:0:0:
439,64,4726,1,0,3:0:0:0:
289,187,4876,6,0,P|285:163|281:139,1,48,8|0,0:0|0:0,0:0:0:0:
287,123,5176,6,0,P|242:132|185:140,1,80,8|0,0:0|3:0,0:0:0:0:
55,213,5476,5,8,0:0:0:0:
22,167,5551,1,8,0:0:0:0:
29,111,5626,1,8,0:0:0:0:
73,77,5701,1,8,0:0:0:0:
129,77,5776,2,0,P|120:116|116:144,1,40,8|8,0:0|0:0,0:0:0:0:
0,278,5926,6,0,B|77:260|77:260|122:298|122:298|213:280,1,207.999990478516,6|2,1:2|1:2,0:0:0:0:
95,376,6376,1,10,0:0:0:0:
246,211,6526,2,0,P|225:329|220:387,1,176.000005371094,2|2,0:0|1:2,0:0:0:0:
338,233,6976,2,0,B|361:239|364:267|364:267|355:253|341:247,1,60.0000022888184,10|0,0:0|0:0,0:0:0:0:
177,157,7126,6,0,P|239:181|321:115,1,176.000005371094,2|2,1:2|1:2,0:0:0:0:
224,13,7576,5,10,0:0:0:0:
440,106,7726,1,2,0:0:0:0:
319,120,7876,5,2,1:2:0:0:
319,120,7951,1,0,0:0:0:0:
319,120,8026,2,0,P|321:100|327:70,1,44.0000013427735,2|0,1:2|0:0,0:0:0:0:
224,13,8176,2,0,P|231:44|236:70,1,44.0000013427735,10|0,0:0|0:0,0:0:0:0:
339,208,8326,6,0,B|221:217|280:296|166:317,1,207.999990478516,2|0,1:2|1:0,0:0:0:0:
311,384,8776,5,8,0:0:0:0:
164,209,8926,1,2,0:0:0:0:
152,213,9001,1,2,0:0:0:0:
140,217,9076,1,2,1:2:0:0:
229,150,9226,5,2,1:2:0:0:
45,89,9376,2,0,P|54:126|59:149,1,44.0000013427735,8|0,0:0|0:0,0:0:0:0:
0,359,9526,6,0,B|29:273|125:302|125:302|133:341|191:355,1,207.999990478516,2|0,1:2|1:0,0:0:0:0:
271,125,9976,2,0,P|256:196|249:243,1,103.999995239258,8|0,0:0|0:0,0:0:0:0:
449,278,10276,5,0,1:0:0:0:
461,273,10351,1,0,1:0:0:0:
473,269,10426,1,0,1:0:0:0:
485,264,10501,1,0,1:0:0:0:
496,261,10576,5,8,0:0:0:0:
511,310,10651,1,8,0:0:0:0:
491,358,10726,1,10,0:0:0:0:
444,381,10801,1,8,0:0:0:0:
394,364,10876,5,2,1:2:0:0:
334,243,11026,1,2,1:2:0:0:
482,173,11176,1,10,0:0:0:0:
295,354,11326,6,0,P|297:340|302:325,1,24,6|0,1:2|0:0,0:0:0:0:
334,243,11626,5,2,3:2:0:0:
302,216,11701,1,0,3:0:0:0:
260,215,11776,1,0,3:0:0:0:
217,243,11851,1,0,3:0:0:0:
195,295,11926,1,0,3:0:0:0:
134,315,12001,1,0,3:0:0:0:
75,281,12076,6,0,P|105:270|145:261,1,55.9999982910157,10|0,0:0|0:0,0:0:0:0:
86,384,12226,2,0,P|60:376|33:369,1,55.9999982910157,0|0,1:0|0:0,0:0:0:0:
0,172,12376,2,0,P|26:179|55:188,1,55.9999982910157,10|0,0:0|0:0,0:0:0:0:
223,77,12526,6,0,B|148:25|148:25|191:154,1,224,4|0,0:0|0:0,0:0:0:0:
131,372,13726,5,0,1:0:0:0:
123,362,13801,1,0,1:0:0:0:
116,354,13876,1,8,0:0:0:0:
305,219,14026,1,0,1:0:0:0:
305,219,14476,6,0,P|314:266|320:304,1,64,2|0,1:2|0:0,0:0:0:0:
378,373,14776,2,0,P|404:352|414:300,1,64,0|0,1:0|0:0,0:0:0:0:
512,302,15076,2,0,P|503:263|471:232,1,64,0|0,1:0|0:0,0:0:0:0:
403,194,15376,1,0,1:0:0:0:
403,194,15526,1,0,0:0:0:0:
269,305,15676,6,0,P|214:293|141:279,2,128,0|0|0,1:0|1:0|1:0,0:0:0:0:
313,219,16426,1,0,0:0:0:0:
204,142,16576,2,0,L|215:211,1,64,0|0,1:0|0:0,0:0:0:0:
292,92,16876,6,0,L|313:225,1,128,2|0,1:2|1:0,0:0:0:0:
204,142,17326,2,0,L|215:211,1,64,0|0,0:0|1:0,0:0:0:0:
99,282,17626,2,0,P|103:254|113:210,2,64,0|0|0,0:0|1:0|0:0,0:0:0:0:
203,364,18076,6,0,P|170:364|136:397,1,64,0|0,1:0|0:0,0:0:0:0:
4,319,18376,2,0,P|16:368|19:390,1,64,0|0,1:0|0:0,0:0:0:0:
99,282,18676,2,0,P|103:254|113:210,1,64,0|0,1:0|0:0,0:0:0:0:
208,156,18976,2,0,P|215:189|222:227,1,64,0|0,1:0|0:0,0:0:0:0:
23,50,19276,6,0,P|84:53|129:-8,1,128,6|0,1:2|1:0,0:0:0:0:
243,73,19726,2,0,P|269:67|310:61,1,64,0|0,0:0|1:0,0:0:0:0:
422,1,20026,2,0,P|429:42|434:74,1,64,0|0,0:0|1:0,0:0:0:0:
462,205,20326,1,8,0:0:0:0:
336,250,20476,6,0,B|407:260|372:306|446:324,2,128,2|0|0,1:2|1:0|1:0,0:0:0:0:
162,367,21376,2,0,P|157:340|147:304,1,64,0|0,1:0|0:0,0:0:0:0:
341,135,21676,6,0,P|328:217|321:276,1,128,2|0,1:2|1:0,0:0:0:0:
256,78,22126,2,0,P|325:87|370:45,1,128
239,182,22576,1,0,1:0:0:0:
439,256,22726,1,0,1:0:0:0:
449,260,22801,1,0,1:0:0:0:
460,264,22876,5,8,0:0:0:0:
309,349,23026,5,8,0:0:0:0:
471,268,23176,5,8,0:0:0:0:
312,333,23326,5,8,0:0:0:0:
355,62,23476,5,0,1:0:0:0:
355,62,23551,1,0,1:0:0:0:
355,62,23626,2,0,P|345:110|336:170,1,100,8|0,0:0|0:0,0:0:0:0:
239,182,24076,6,0,P|224:159|241:101,1,71.9999978027344,6|0,1:2|0:0,0:0:0:0:
383,261,24376,2,0,P|345:253|311:248,1,71.9999978027344,8|0,0:0|0:0,0:0:0:0:
197,305,24676,1,0,1:0:0:0:
197,305,24826,1,2,0:0:0:0:
279,364,24976,2,0,B|289:360|290:342|290:342|277:356|255:360,1,51.999997619629
161,384,25126,6,0,P|151:328|128:214,1,143.999995605469,2|0,0:0|0:0,0:0:0:0:
0,327,25576,2,0,P|38:329|66:357,1,71.9999978027344,8|0,0:0|0:0,0:0:0:0:
134,242,25876,1,0,1:0:0:0:
134,242,26026,1,0,0:0:0:0:
35,152,26176,2,0,P|18:220|13:246,1,71.9999978027344,10|0,0:0|0:0,0:0:0:0:
135,116,26476,5,2,1:2:0:0:
135,116,26626,1,0,0:0:0:0:
3,49,26776,2,0,P|58:50|106:-1,1,107.999996704102,8|0,0:0|0:0,0:0:0:0:
106,0,27076,1,0,1:0:0:0:
294,79,27226,1,2,0:0:0:0:
228,169,27376,2,0,P|223:144|216:116,1,35.9999989013672,10|0,0:0|0:0,0:0:0:0:
360,13,27526,6,0,P|338:118|331:167,1,143.999995605469,2|0,0:0|0:0,0:0:0:0:
260,313,27976,2,0,P|237:286|176:283,1,71.9999978027344,8|0,0:0|0:0,0:0:0:0:
378,228,28276,1,0,1:0:0:0:
378,228,28426,1,0,0:0:0:0:
303,168,28576,5,10,0:0:0:0:
364,315,28726,1,2,0:0:0:0:
495,197,28876,6,0,P|506:237|517:289,1,71.9999978027344,6|0,1:2|0:0,0:0:0:0:
378,228,29176,1,10,0:0:0:0:
488,105,29326,2,0,P|479:153|474:186,1,71.9999978027344,2|0,0:0|1:0,0:0:0:0:
339,47,29626,1,0,0:0:0:0:
378,228,29776,5,10,0:0:0:0:
488,105,29926,1,2,0:0:0:0:
295,275,30076,6,0,P|276:245|290:184,1,71.9999978027344,2|0,1:2|0:0,0:0:0:0:
456,190,30376,1,10,0:0:0:0:
371,369,30526,2,0,P|341:381|283:370,1,71.9999978027344,2|0,0:0|1:0,0:0:0:0:
149,223,30826,1,0,0:0:0:0:
295,275,30976,5,10,0:0:0:0:
127,369,31126,1,2,0:0:0:0:
253,181,31276,6,0,P|240:279|235:345,1,143.999995605469,2|10,1:2|0:0,0:0:0:0:
371,369,31726,2,0,P|385:352|372:282,1,71.9999978027344,2|0,0:0|1:0,0:0:0:0:
144,218,32026,2,0,P|160:212|183:204,1,35.9999989013672,2|0,0:0|0:0,0:0:0:0:
335,184,32176,1,8,0:0:0:0:
101,77,32326,6,0,B|130:-7|224:28|224:28|230:59|257:70,1,204.000003890991,6|0,1:2|0:0,0:0:0:0:
364,102,32626,2,0,P|352:148|348:177,1,64,8|8,0:0|0:0,0:0:0:0:
179,353,32776,5,8,0:0:0:0:
128,342,32851,1,8,0:0:0:0:
96,301,32926,1,8,0:0:0:0:
104,250,33001,1,8,0:0:0:0:
144,218,33076,1,8,0:0:0:0:
287,320,33226,1,8,0:3:0:0:
396,267,33376,1,4,0:3:0:0:
456,330,33526,1,0,1:0:0:0:
364,102,33676,5,4,1:2:0:0:
303,186,37876,6,0,P|299:207|296:224,1,32,8|8,0:0|0:3,0:0:0:0:
195,316,38026,1,4,0:3:0:0:
195,316,38101,1,0,1:0:0:0:
195,316,38176,2,0,P|249:308|294:354,1,107.999996704102,0|0,1:0|0:0,0:0:0:0:
397,380,38476,6,0,P|393:345|386:313,1,47.9999985351563,4|0,1:2|3:0,0:0:0:0:
485,366,38776,2,0,P|480:330|473:298,1,47.9999985351563,0|0,1:0|3:0,0:0:0:0:
207,218,39076,6,0,P|211:182|218:150,1,47.9999985351563,0|0,1:0|3:0,0:0:0:0:
295,233,39376,2,0,P|299:197|306:165,1,47.9999985351563,0|0,1:0|3:0,0:0:0:0:
212,42,39676,6,0,P|193:67|189:94,1,47.9999985351563,0|0,1:0|3:0,0:0:0:0:
63,91,39976,6,0,P|64:128|83:152,1,64,0|0,1:0|3:0,0:0:0:0:
33,273,40276,6,0,P|70:289|112:287,1,80,0|0,1:0|3:0,0:0:0:0:
182,384,40576,6,0,P|210:368|233:296,1,95.9999970703126,0|0,1:0|3:0,0:0:0:0:
198,113,40876,5,4,1:2:0:0:
321,172,41026,1,0,3:0:0:0:
220,214,41176,5,0,1:0:0:0:
303,158,41326,1,0,3:0:0:0:
122,268,41476,5,0,1:0:0:0:
334,349,41626,1,0,3:0:0:0:
182,384,41776,6,0,P|210:375|244:368,1,47.9999985351563,0|0,1:0|0:0,0:0:0:0:
507,358,41926,6,0,B|395:344|437:235|309:254,1,223.999993164063,12|0,0:2|1:0,0:0:0:0:
224,289,42301,1,0,1:0:0:0:
209,268,42376,2,0,P|212:253|219:211,1,55.9999982910157,8|0,0:0|0:0,0:0:0:0:
314,170,42526,2,0,P|307:142|302:115,1,55.9999982910157,0|0,1:0|1:0,0:0:0:0:
209,0,42676,5,8,0:0:0:0:
387,107,42826,1,0,1:0:0:0:
387,107,42901,1,0,1:0:0:0:
387,107,42976,1,8,0:0:0:0:
127,233,43126,1,8,0:0:0:0:
304,287,44176,6,0,L|301:311,1,24,12|0,0:3|0:0,0:0:0:0:
191,384,44476,6,0,B|223:306|307:339|307:339|322:373|366:379,1,192,6|0,1:2|0:0,0:0:0:0:
381,347,44776,1,10,0:0:0:0:
252,222,44926,1,0,0:0:0:0:
361,144,45076,2,0,P|374:209|379:243,1,95.9999970703126,2|0,1:2|0:0,0:0:0:0:
202,148,45376,1,10,0:0:0:0:
428,98,45526,6,0,P|375:105|314:22,1,143.999995605469,2|0,0:0|0:0,0:0:0:0:
315,24,45826,2,0,P|348:15|417:-2,1,95.9999970703126,2|8,0:0|0:0,0:0:0:0:
512,135,46126,2,0,P|499:200|495:232,1,95.9999970703126,2|0,0:0|1:0,0:0:0:0:
371,350,46426,6,0,P|367:330|381:297,1,47.9999985351563,2|0,0:0|0:0,0:0:0:0:
507,254,46576,2,0,B|438:242|438:242|436:237|436:237|338:219,1,143.999995605469,8|0,0:0|0:0,0:0:0:0:
213,155,46876,6,0,P|223:214|231:266,1,95.9999970703126,2|0,1:2|0:0,0:0:0:0:
249,384,47176,1,10,0:0:0:0:
249,384,47326,1,0,0:0:0:0:
75,322,47476,2,0,B|64:320|56:325|56:325|60:305|88:309,1,47.9999985351563,2|0,1:2|0:0,0:0:0:0:
221,263,47626,2,0,P|179:265|130:209,1,95.9999970703126,2|8,0:0|0:0,0:0:0:0:
249,41,47926,6,0,P|238:111|233:156,1,95.9999970703126,2|0,0:0|1:0,0:0:0:0:
309,223,48226,1,2,0:0:0:0:
428,117,48376,2,0,P|381:109|315:101,1,95.9999970703126,8|0,0:0|0:0,0:0:0:0:
121,192,48676,5,0,1:0:0:0:
235,135,48826,1,0,0:0:0:0:
57,54,48976,1,8,0:0:0:0:
211,246,49126,1,8,0:0:0:0:
211,246,49201,1,8,0:0:0:0:
211,246,49276,6,0,P|214:210|225:148,1,95.9999970703126,6|0,1:2|0:0,0:0:0:0:
149,379,49576,2,0,P|143:361|135:325,1,47.9999985351563,10|0,0:0|0:0,0:0:0:0:
23,232,49726,2,0,P|-6:273|12:326,1,95.9999970703126,2|0,0:0|1:0,0:0:0:0:
121,192,50026,5,2,0:0:0:0:
7,126,50176,1,10,0:0:0:0:
99,292,50326,2,0,P|142:277|200:260,1,95.9999970703126,2|0,0:0|1:0,0:0:0:0:
386,126,50626,5,2,0:0:0:0:
262,213,50776,1,8,0:0:0:0:
344,321,50926,2,0,P|347:298|367:203,1,95.9999970703126,2|0,0:0|1:0,0:0:0:0:
256,375,51226,1,2,0:0:0:0:
441,319,51376,2,0,B|452:321|454:335|454:335|442:328|420:327,1,47.9999985351563,8|0,0:0|0:0,0:0:0:0:
262,213,51526,1,2,0:0:0:0:
488,110,51676,6,0,P|393:86|295:56,2,191.999994140625,0|8|0,1:0|0:0|1:0,0:0:0:0:
348,170,52426,1,2,0:0:0:0:
488,110,52576,2,0,P|475:157|473:180,1,47.9999985351563,10|0,0:0|0:0,0:0:0:0:
512,302,52726,6,0,B|398:279|446:374|332:362,1,192,6|0,1:2|0:0,0:0:0:0:
257,384,53026,2,0,P|262:360|269:321,1,64,8|8,0:0|0:0,0:0:0:0:
220,173,53176,5,8,0:0:0:0:
199,198,53251,1,8,0:0:0:0:
198,229,53326,1,8,0:0:0:0:
213,257,53401,1,8,0:0:0:0:
261,216,53476,5,8,0:0:0:0:
241,199,53551,1,8,0:0:0:0:
215,194,53626,1,8,0:3:0:0:
184,204,53701,1,8,0:3:0:0:
160,234,53776,1,4,0:3:0:0:
133,270,53851,1,4,0:3:0:0:
90,282,53926,1,0,1:0:0:0:
45,263,54001,1,0,1:0:0:0:
21,206,54076,6,0,B|88:150|88:150|46:280,1,192,6|0,1:2|0:0,0:0:0:0:
0,361,54376,2,0,P|47:355|87:394,1,95.9999970703126,10|0,0:0|0:0,0:0:0:0:
225,281,54677,2,0,P|300:296|397:315,1,143.999995605469,2|0,1:2|0:0,0:0:0:0:
385,313,54976,1,10,0:0:0:0:
285,205,55126,2,0,P|334:216|380:225,1,95.9999970703126,2|0,0:0|1:0,0:0:0:0:
250,44,55426,5,2,0:0:0:0:
285,205,55576,1,8,0:0:0:0:
340,19,55726,5,2,0:0:0:0:
221,133,55876,1,0,1:0:0:0:
316,112,56026,1,2,0:0:0:0:
162,209,56176,2,0,P|137:182|137:109,1,95.9999970703126,10|0,0:0|0:0,0:0:0:0:
295,197,56476,6,0,P|283:307|278:371,1,143.999995605469,4|0,1:2|0:0,0:0:0:0:
276,360,56776,1,10,0:0:0:0:
75,276,56926,6,0,P|78:292|81:307,1,20,2|0,1:2|0:0,0:0:0:0:
458,162,57226,6,0,P|455:178|452:193,1,20,0|0,1:0|0:0,0:0:0:0:
165,12,57526,6,0,B|279:22|220:95|314:118,1,192,4|0,1:2|0:0,0:0:0:0:
174,146,57826,6,0,B|165:150|158:167|158:167|170:158|186:154,1,55.9999982910157
326,106,57976,2,0,P|314:177|310:223,1,111.999996582031,8|0,0:0|0:0,0:0:0:0:
327,384,58276,5,0,1:0:0:0:
402,325,58426,1,0,0:0:0:0:
196,242,58576,1,8,0:0:0:0:
197,251,58651,1,8,0:3:0:0:
199,260,58726,1,4,0:3:0:0:
202,268,58801,1,0,1:0:0:0:
204,277,58876,6,0,P|196:347|194:376,1,95.9999970703126,6|0,1:2|0:0,0:0:0:0:
281,233,59176,1,10,0:0:0:0:
41,164,59326,1,2,0:0:0:0:
198,70,59476,1,0,0:0:0:0:
198,70,59626,1,2,1:2:0:0:
100,0,59776,2,0,P|107:32|111:54,1,47.9999985351563,10|0,0:0|0:0,0:0:0:0:
41,164,59926,6,0,P|91:156|135:193,1,95.9999970703126,2|0,0:0|1:0,0:0:0:0:
69,369,60226,1,2,0:0:0:0:
11,287,60376,1,8,0:0:0:0:
159,334,60526,2,0,P|196:322|256:308,1,95.9999970703126,2|0,0:0|1:0,0:0:0:0:
144,203,60826,1,2,0:0:0:0:
233,152,60976,2,0,P|167:161|111:76,1,143.999995605469,8|0,0:0|0:0,0:0:0:0:
114,94,61276,6,0,P|120:61|130:-5,1,95.9999970703126,2|0,1:2|0:0,0:0:0:0:
326,200,61576,1,10,0:0:0:0:
412,125,61726,2,0,P|406:92|396:26,1,95.9999970703126,2|0,0:0|1:0,0:0:0:0:
233,152,62026,2,0,P|222:198|258:249,1,95.9999970703126,2|8,0:0|0:0,0:0:0:0:
482,294,62326,2,0,B|492:285|488:264|488:264|479:281|462:287,1,60.0000022888184,2|0,1:2|1:0,0:0:0:0:
474,384,62476,6,0,B|414:369|414:369|389:330|389:330|325:316,1,167.999994873047,14|0,0:0|0:0,0:0:0:0:
174,384,62776,6,0,P|166:369|165:309,1,47.9999985351563,2|0,1:2|0:0,0:0:0:0:
87,282,62926,2,0,P|92:262|114:236,1,47.9999985351563,8|0,0:0|0:0,0:0:0:0:
315,175,63076,5,0,1:0:0:0:
315,175,63151,1,0,1:0:0:0:
315,175,63226,1,0,1:0:0:0:
250,232,63376,5,8,0:0:0:0:
174,186,63526,1,0,1:0:0:0:
251,336,63676,6,0,P|255:291|280:97,1,240,4|0,1:2|0:0,0:0:0:0:
254,53,64176,5,0,1:0:0:0:
243,48,64226,5,0,1:0:0:0:
232,43,64276,6,0,B|167:47|197:88|129:105,1,120,8|0,0:0|0:0,0:0:0:0:
39,50,64876,6,0,P|49:91|53:116,1,40,0|0,1:0|0:0,0:0:0:0:
0,189,65026,2,0,B|89:187|43:260|143:277,1,160,8|0,0:0|1:0,0:0:0:0:
156,301,65376,5,0,1:0:0:0:
167,296,65426,5,0,1:0:0:0:
178,291,65476,5,8,0:0:0:0:
93,379,65626,1,0,1:0:0:0:
93,379,66076,6,0,P|92:227|258:264,1,363.999983337403,4|0,1:2|0:0,0:0:0:0:
461,231,66676,6,0,P|327:374|328:178,1,503.999984619141,4|0,1:2|0:0,0:0:0:0:
368,276,67276,5,4,1:2:0:0:
328,178,67426,2,0,P|357:183|391:196,1,47.9999985351563,0|0,1:0|0:0,0:0:0:0:
511,110,67576,6,0,B|418:127|449:27|324:60,1,192,8|0,0:0|0:0,0:0:0:0:
238,0,67876,2,0,P|230:40|226:76,1,64,8|8,0:0|0:0,0:0:0:0:
145,170,68026,5,8,0:0:0:0:
167,146,68101,1,8,0:0:0:0:
199,141,68176,1,8,0:3:0:0:
229,156,68251,1,8,0:3:0:0:
243,186,68326,1,4,0:3:0:0:
236,218,68401,1,0,1:0:0:0:
212,240,68476,6,0,P|166:229|132:222,1,64,4|0,1:2|3:0,0:0:0:0:
129,319,68776,2,0,P|97:311|66:304,1,64,0|0,1:0|3:0,0:0:0:0:
250,384,69076,5,0,1:0:0:0:
411,281,69226,1,0,3:0:0:0:
430,370,69376,5,0,1:0:0:0:
326,315,69526,2,0,P|322:283|308:219,1,80,0|4,3:0|1:2,0:0:0:0:
502,214,69826,2,0,P|503:187|511:113,1,80,0|0,3:0|1:0,0:0:0:0:
341,158,70126,6,0,P|381:161|432:171,1,80,0|0,3:0|1:0,0:0:0:0:
435,11,70426,2,0,P|395:8|344:-2,1,80,0|0,3:0|1:0,0:0:0:0:
225,148,70726,1,0,3:0:0:0:
296,78,70876,5,4,1:2:0:0:
170,34,71026,1,0,3:0:0:0:
292,90,71176,5,0,1:0:0:0:
115,208,71326,1,0,3:0:0:0:
335,331,71476,6,0,P|338:309|345:278,1,47.9999985351563,0|0,1:0|3:0,0:0:0:0:
225,148,71626,2,0,P|232:174|238:201,1,47.9999985351563,0|0,3:0|3:0,0:0:0:0:
128,308,71776,5,0,1:0:0:0:
142,301,71851,1,0,3:0:0:0:
158,296,71926,1,0,3:0:0:0:
174,291,72001,1,0,3:0:0:0:
189,285,72076,5,12,0:0:0:0:
169,230,72151,1,0,1:0:0:0:
115,208,72226,1,0,1:0:0:0:
59,223,72301,1,0,1:0:0:0:
26,270,72376,1,0,1:0:0:0:
28,327,72451,1,0,1:0:0:0:
61,373,72526,6,0,P|91:378|122:393,1,47.9999985351563,8|0,0:0|1:0,0:0:0:0:
330,267,72676,1,0,1:0:0:0:
369,284,72751,1,0,1:0:0:0:
376,326,72826,1,0,1:0:0:0:
349,359,72901,1,0,1:0:0:0:
306,352,72976,6,0,P|295:324|282:294,1,47.9999985351563,8|0,0:0|1:0,0:0:0:0:
282,109,73126,1,0,1:0:0:0:
269,158,73201,1,0,1:0:0:0:
258,210,73276,1,8,0:0:0:0:
256,192,73313,12,0,74176,0:0:0:0:
75,233,74326,6,0,B|212:177|167:331|317:301,1,256,6|2,1:2|1:2,0:0:0:0:
153,361,74776,1,10,0:0:0:0:
327,194,74926,2,0,P|314:306|305:409,1,191.999994140625,2|2,0:0|1:2,0:0:0:0:
421,302,75376,2,0,B|434:314|451:304|451:304|436:303|426:295,1,60.0000022888184,10|0,0:0|0:0,0:0:0:0:
241,119,75526,6,0,P|161:150|158:215,1,143.999995605469,2|0,1:2|0:0,0:0:0:0:
162,235,75826,1,2,1:2:0:0:
345,108,75976,5,10,0:0:0:0:
190,21,76126,1,2,0:0:0:0:
302,188,76276,5,2,1:2:0:0:
302,188,76351,1,0,0:0:0:0:
302,188,76426,2,0,P|295:222|292:247,1,47.9999985351563,2|0,1:2|0:0,0:0:0:0:
228,360,76576,2,0,P|223:333|214:297,1,47.9999985351563,10|0,0:0|0:0,0:0:0:0:
386,267,76726,6,0,B|337:267|300:279|300:279|277:249|244:216|244:216|188:236|124:236,1,256,2|0,1:2|1:0,0:0:0:0:
0,162,77176,5,8,0:0:0:0:
108,323,77326,1,2,0:0:0:0:
110,309,77401,1,2,0:0:0:0:
114,297,77476,1,2,1:2:0:0:
49,383,77626,5,2,1:2:0:0:
149,198,77776,2,0,P|124:191|88:178,1,47.9999985351563,8|0,0:0|0:0,0:0:0:0:
1,304,77926,6,0,P|143:278|225:265,1,223.999993164063,2|0,1:2|1:0,0:0:0:0:
135,0,78376,2,0,P|149:80|153:120,1,111.999996582031,8|0,0:0|0:0,0:0:0:0:
269,359,78676,5,0,1:0:0:0:
279,361,78751,1,0,1:0:0:0:
290,364,78826,1,0,1:0:0:0:
301,366,78901,1,0,1:0:0:0:
312,369,78977,5,8,0:0:0:0:
366,340,79051,1,8,0:0:0:0:
386,281,79127,1,8,0:0:0:0:
365,222,79202,1,8,0:0:0:0:
307,199,79276,5,2,1:2:0:0:
196,263,79426,1,2,1:2:0:0:
416,153,79576,1,10,0:0:0:0:
198,0,79726,6,0,P|217:134|224:187,1,180.000006866455,6|0,1:2|0:0,0:0:0:0:
126,117,80026,2,0,B|114:111|97:111|97:111|114:106|128:97,1,60.0000022888184,2|0,3:2|3:0,0:0:0:0:
314,42,80176,5,0,3:0:0:0:
333,36,80251,1,0,3:0:0:0:
353,30,80326,1,0,3:0:0:0:
373,24,80401,1,0,3:0:0:0:
392,18,80476,6,0,P|386:45|382:73,1,55.9999982910157,10|0,0:0|0:0,0:0:0:0:
213,122,80626,2,0,P|217:150|222:178,1,55.9999982910157,0|0,1:0|0:0,0:0:0:0:
454,235,80776,2,0,P|447:262|443:290,1,55.9999982910157,10|0,0:0|0:0,0:0:0:0:
207,384,80926,6,0,B|188:368|120:279|196:153|354:180|366:285|353:325|353:325|340:298|299:295,1,420.000016021729,4|0,0:0|0:0,0:0:0:0:
159,170,82126,5,4,0:3:0:0:
155,156,82201,1,8,0:3:0:0:
151,142,82276,1,8,0:0:0:0:
327,33,82426,1,0,1:0:0:0:
