osu file format v14

[General]
AudioFilename: audio.mp3
AudioLeadIn: 0
PreviewTime: 43200
Countdown: 0
SampleSet: Soft
StackLeniency: 0.6
Mode: 0
LetterboxInBreaks: 0
WidescreenStoryboard: 1

[Editor]
DistanceSpacing: 1
BeatDivisor: 2
GridSize: 4
TimelineZoom: 2

[Metadata]
Title:Tousou
TitleUnicode:凍蒼
Artist:Daisy x Daisy
ArtistUnicode:Daisy×Daisy
Creator:Kuse
Version:Chu's Normal
Source:流星ワールドアクター Badge & Dagger
Tags:KuBsNia_ZhoYL_ arronchu1207 Hinae Kumocha dkblaze video game galgame op opening female vocals japanese eroge visual novel short ver ryuusei world actor heliodor rock jrock megu_san shirokumocha
BeatmapID:3025991
BeatmapSetID:1469017

[Difficulty]
HPDrainRate:3
CircleSize:3
OverallDifficulty:4
ApproachRate:5.7
SliderMultiplier:0.999999999999999
SliderTickRate:1

[Events]
//Background and Video events
Video,0,"video.mp4"
0,0,"bg.jpg",0,0
//Break Periods
2,34895,36781
//Storyboard Layer 0 (Background)
//Storyboard Layer 1 (Fail)
//Storyboard Layer 2 (Pass)
//Storyboard Layer 3 (Foreground)
//Storyboard Layer 4 (Overlay)
//Storyboard Sound Samples

[TimingPoints]
76,300,4,2,1,40,1,0
1275,-100,4,2,1,45,0,0
5925,-100,4,2,1,75,0,0
12525,-100,4,2,1,75,0,0
13800,-100,4,2,1,55,0,0
14475,-111.111111111111,4,2,1,65,0,0
19201,-111.111111111111,4,2,1,5,0,0
19276,-111.111111111111,4,2,1,65,0,0
22876,-100,4,2,1,65,0,0
23625,-100,4,2,1,65,0,0
24075,-100,4,2,1,70,0,0
33675,-100,4,2,1,70,0,0
37875,-100,4,2,1,70,0,0
38175,-100,4,2,1,70,0,0
38400,-100,4,2,1,5,0,0
38475,-100,4,2,1,70,0,0
43275,-100,4,2,1,40,0,0
43576,-100,4,2,1,25,0,0
44025,-100,4,2,1,70,0,0
44176,-100,4,2,1,50,0,0
44400,-100,4,2,1,5,0,0
44476,-90.9090909090909,4,2,1,85,0,1
53025,-90.9090909090909,4,2,1,65,0,1
54075,-90.9090909090909,4,2,1,85,0,1
63600,-90.9090909090909,4,2,1,5,0,1
63675,-90.9090909090909,4,2,1,85,0,1
66000,-90.9090909090909,4,2,1,5,0,1
66075,-90.9090909090909,4,2,1,85,0,1
66600,-90.9090909090909,4,2,1,85,0,1
66675,-90.9090909090909,4,2,1,85,0,1
67200,-90.9090909090909,4,2,1,85,0,1
67275,-90.9090909090909,4,2,1,85,0,1
70875,-90.9090909090909,4,2,1,55,0,1
71475,-90.9090909090909,4,2,1,70,0,1
72075,-90.9090909090909,4,2,1,85,0,1
73276,-100,4,2,1,85,0,0
73350,-100,4,2,1,45,0,0
74325,-100,4,2,1,85,0,0
80925,-100,4,2,1,85,0,0
82125,-100,4,2,1,45,0,0
82425,-100,4,2,1,55,0,0

[Colours]
Combo1 : 182,182,182
Combo2 : 255,57,57

[HitObjects]
27,306,1276,6,0,P|64:337|130:335,1,99.9999999999999,8|8,0:0|0:0,0:0:0:0:
207,375,1876,2,0,P|215:327|180:271,1,99.9999999999999,8|8,0:0|0:0,0:0:0:0:
176,184,2476,2,0,P|130:200|99:258,2,99.9999999999999,8|8|8,0:0|0:0|0:0,0:0:0:0:
271,215,3376,1,8,0:0:0:0:
354,160,3676,6,0,B|370:113|370:113|346:59,1,99.9999999999999,8|8,0:0|0:0,0:0:0:0:
260,22,4276,2,0,B|211:31|211:31|176:79,1,99.9999999999999,8|8,0:0|0:0,3:0:0:0:
188,172,4876,2,0,B|220:209|220:209|279:215,2,99.9999999999999,8|8|8,0:0|0:0|0:0,0:0:0:0:
96,131,5776,1,8,0:0:0:0:
96,131,5926,6,0,L|86:235,1,99.9999999999999,6|2,1:2|1:2,0:0:0:0:
53,268,6376,1,10,0:0:0:0:
72,365,6676,2,0,L|21:375,2,50,0|2|10,1:0|1:2|0:0,0:0:0:0:
120,352,7126,2,0,L|227:370,1,99.9999999999999,2|2,1:2|1:2,0:0:0:0:
261,343,7576,1,10,0:0:0:0:
227,248,7876,2,0,P|219:217|230:180,1,50,2|2,1:2|1:2,0:0:0:0:
248,157,8176,1,10,0:0:0:0:
248,157,8326,6,0,P|303:177|352:160,1,99.9999999999999,2|0,1:2|1:0,0:0:0:0:
381,137,8776,1,8,0:0:0:0:
394,41,9076,1,2,1:2:0:0:
394,41,9226,2,0,L|336:47,1,50,2|8,1:2|0:0,0:0:0:0:
299,67,9526,2,0,L|199:56,1,99.9999999999999,2|0,1:2|1:0,0:0:0:0:
149,51,9976,1,8,0:0:0:0:
73,116,10276,2,0,L|18:109,2,50,0|0|8,1:0|1:0|0:0,0:0:0:0:
107,159,10726,1,10,0:0:0:0:
107,159,10876,6,0,P|115:216|92:267,1,99.9999999999999,2|10,1:2|0:0,0:0:0:0:
82,301,11326,2,0,L|190:296,1,99.9999999999999,6|2,1:2|3:2,0:0:0:0:
225,321,11776,1,0,3:0:0:0:
290,245,12076,1,10,0:0:0:0:
290,245,12226,2,0,P|297:211|290:183,1,50,0|10,1:0|0:0,0:0:0:0:
284,147,12526,6,0,B|336:162|379:140|410:123|431:68|431:68|452:126|454:180|431:210|408:214|401:280|428:332,1,450,4|8,0:0|0:0,0:0:0:0:
252,378,14476,6,0,P|202:366|154:359,1,89.999997253418,2|0,1:2|1:0,0:0:0:0:
74,373,15076,2,0,P|50:326|57:282,1,89.999997253418,0|0,1:0|1:0,0:0:0:0:
89,207,15676,1,0,1:0:0:0:
172,240,15976,1,0,1:0:0:0:
225,167,16276,2,0,P|217:120|206:80,1,89.999997253418,0|0,1:0|1:0,0:0:0:0:
125,37,16876,6,0,P|85:35|40:69,1,89.999997253418,2|0,1:2|1:0,0:0:0:0:
13,146,17476,2,0,P|25:199|28:246,1,89.999997253418,0|0,1:0|1:0,0:0:0:0:
85,303,18076,1,0,1:0:0:0:
167,266,18376,1,0,1:0:0:0:
210,344,18676,2,0,P|257:360|298:345,1,89.999997253418,0|0,1:0|1:0,0:0:0:0:
355,282,19276,6,0,L|345:191,1,89.999997253418,6|0,1:2|1:0,0:0:0:0:
337,148,19726,2,0,B|296:164|296:164|252:142,1,89.999997253418
301,65,20326,1,8,0:0:0:0:
301,65,20476,2,0,P|350:55|408:48,1,89.999997253418,2|0,1:2|1:0,0:0:0:0:
471,85,21076,1,0,1:0:0:0:
428,164,21376,1,0,1:0:0:0:
507,205,21676,6,0,P|514:251|492:295,1,89.999997253418,2|0,1:2|1:0,0:0:0:0:
468,325,22126,2,0,P|427:314|380:307,1,89.999997253418
338,323,22576,1,0,1:0:0:0:
251,373,22876,2,0,P|209:384|187:384,1,50,8|8,0:0|0:0,0:0:0:0:
156,363,23176,1,8,0:0:0:0:
156,363,23326,1,8,0:0:0:0:
149,263,23626,2,0,L|162:159,1,99.9999999999999,8|0,0:0|0:0,0:0:0:0:
166,113,24076,6,0,P|210:133|271:115,1,99.9999999999999,6|8,1:2|0:0,0:0:0:0:
322,46,24676,1,0,1:0:0:0:
322,46,24826,2,0,P|350:54|379:58,1,50,2|10,0:0|0:0,0:0:0:0:
419,47,25126,2,0,P|399:95|417:158,1,99.9999999999999,2|0,0:0|0:0,0:0:0:0:
448,169,25576,1,8,0:0:0:0:
434,268,25876,2,0,L|446:324,2,50,0|0|10,1:0|0:0|0:0,0:0:0:0:
345,223,26476,6,0,P|297:219|255:250,1,99.9999999999999,2|8,1:2|0:0,0:0:0:0:
187,320,27076,1,0,1:0:0:0:
187,320,27226,2,0,P|154:314|128:311,1,50,2|10,0:0|0:0,0:0:0:0:
90,330,27526,2,0,P|95:274|95:220,1,99.9999999999999,2|0,0:0|0:0,0:0:0:0:
64,190,27976,1,8,0:0:0:0:
122,108,28276,2,0,P|152:97|188:97,1,50,0|0,1:0|0:0,0:0:0:0:
211,123,28576,2,0,P|241:134|277:134,1,50,10|2,0:0|0:0,0:0:0:0:
305,117,28876,6,0,P|290:167|306:218,1,99.9999999999999,6|10,1:2|0:0,0:0:0:0:
345,236,29326,2,0,P|339:291|329:345,1,99.9999999999999,2|0,0:0|0:0,0:0:0:0:
358,376,29776,1,10,0:0:0:0:
452,344,30076,2,0,P|489:308|488:250,1,99.9999999999999,2|10,1:2|0:0,0:0:0:0:
469,217,30526,2,0,B|448:171|448:171|468:126,1,99.9999999999999,2|0,0:0|0:0,0:0:0:0:
496,84,30976,1,10,0:0:0:0:
425,13,31276,6,0,P|362:18|315:29,1,99.9999999999999,2|10,1:2|0:0,0:0:0:0:
289,60,31726,2,0,P|259:49|226:46,1,50,2|0,0:0|1:0,0:0:0:0:
194,63,32026,1,2,0:0:0:0:
134,143,32326,2,0,L|146:253,1,99.9999999999999,6|8,1:2|0:0,0:0:0:0:
126,288,32776,1,8,0:0:0:0:
203,350,33076,2,0,P|239:353|261:346,1,50,8|8,0:0|0:3,0:0:0:0:
302,351,33376,2,0,P|322:321|327:298,1,50,4|0,0:3|1:0,0:0:0:0:
361,272,33676,5,4,1:2:0:0:
462,116,37876,6,0,L|471:61,2,50,8|4|0,0:0|0:3|1:0,0:0:0:0:
394,190,38476,1,4,1:2:0:0:
308,138,38776,1,0,1:0:0:0:
246,216,39076,2,0,P|259:291|263:331,1,99.9999999999999,0|0,1:0|1:0,0:0:0:0:
180,374,39676,1,0,1:0:0:0:
83,346,39976,1,0,1:0:0:0:
108,249,40276,2,0,P|114:193|92:136,1,99.9999999999999,0|0,1:0|1:0,0:0:0:0:
161,71,40876,6,0,P|215:82|271:84,1,99.9999999999999,4|0,1:2|1:0,0:0:0:0:
299,114,41326,2,0,P|353:103|409:101,1,99.9999999999999,0|0,3:0|3:0,0:0:0:0:
446,126,41776,1,0,1:0:0:0:
446,126,41926,2,0,L|434:238,1,99.9999999999999,12|0,0:2|1:0,0:0:0:0:
474,257,42376,1,8,0:0:0:0:
419,340,42676,1,8,0:0:0:0:
320,321,42976,1,8,0:0:0:0:
301,222,43276,5,0,0:0:0:0:
276,19,44176,5,12,0:3:0:0:
181,64,44476,2,0,P|126:70|73:31,1,110.000003356934,6|10,1:2|0:0,0:0:0:0:
9,126,45076,2,0,P|21:182|26:240,1,110.000003356934,2|10,1:2|0:0,0:0:0:0:
19,289,45526,2,0,P|70:262|127:282,1,110.000003356934,2|2,0:0|0:0,0:0:0:0:
156,314,45976,1,8,0:0:0:0:
156,314,46126,2,0,P|209:323|268:337,1,110.000003356934,2|2,0:0|0:0,0:0:0:0:
306,370,46576,1,8,0:0:0:0:
394,304,46876,5,2,1:2:0:0:
372,196,47176,1,10,0:0:0:0:
271,164,47476,1,2,1:2:0:0:
271,164,47626,2,0,L|216:175,1,55.0000016784668,2|8,0:0|0:0,0:0:0:0:
164,157,47926,2,0,P|147:106|172:44,1,110.000003356934,2|2,0:0|0:0,0:0:0:0:
214,34,48376,1,8,0:0:0:0:
323,20,48676,2,0,P|375:29|446:36,1,110.000003356934,0|8,1:0|0:0,0:0:0:0:
487,130,49276,6,0,P|455:184|466:233,1,110.000003356934,6|10,1:2|0:0,0:0:0:0:
490,275,49726,2,0,P|434:273|371:285,1,110.000003356934,2|2,0:0|0:0,0:0:0:0:
334,308,50176,1,10,0:0:0:0:
334,308,50326,1,2,0:0:0:0:
264,222,50626,2,0,L|273:165,1,55.0000016784668,2|8,0:0|0:0,0:0:0:0:
310,128,50926,1,2,0:0:0:0:
239,43,51226,2,0,P|210:52|179:55,1,55.0000016784668,2|8,0:0|0:0,0:0:0:0:
131,43,51526,6,0,P|153:95|100:188,1,165.0000050354,2|8,0:0|0:0,0:0:0:0:
12,243,52276,1,0,1:0:0:0:
12,243,52426,2,0,P|21:281|23:304,1,55.0000016784668,2|10,0:0|0:0,0:0:0:0:
15,351,52726,6,0,B|65:326|65:326|130:346,1,110.000003356934,6|8,1:2|0:0,0:0:0:0:
173,359,53176,1,8,0:0:0:0:
173,359,53326,2,0,B|223:334|223:334|288:354,1,110.000003356934,8|8,0:0|0:3,0:0:0:0:
326,369,53776,1,4,0:3:0:0:
404,291,54076,5,6,1:2:0:0:
374,185,54376,1,10,0:0:0:0:
268,216,54676,2,0,P|208:222|152:231,1,110.000003356934,2|10,1:2|0:0,0:0:0:0:
104,233,55126,2,0,P|92:206|96:171,1,55.0000016784668,2|0,0:0|1:0,0:0:0:0:
59,137,55426,2,0,P|76:113|108:99,1,55.0000016784668,2|8,0:0|0:0,0:0:0:0:
149,79,55726,2,0,L|268:90,1,110.000003356934,2|2,0:0|0:0,0:0:0:0:
308,64,56176,1,10,0:0:0:0:
417,77,56476,6,0,L|403:136,1,55.0000016784668,4|0,1:2|0:0,0:0:0:0:
377,180,56776,1,10,0:0:0:0:
377,180,56926,2,0,P|439:165|486:205,1,110.000003356934,2|0,1:2|1:0,0:0:0:0:
504,234,57376,1,8,0:0:0:0:
504,234,57526,2,0,P|489:286|482:341,1,110.000003356934,4|0,1:2|0:0,0:0:0:0:
439,375,57976,1,8,0:0:0:0:
349,310,58276,2,0,P|310:300|285:300,1,55.0000016784668,0|0,1:0|0:0,0:0:0:0:
250,267,58576,2,0,P|211:277|189:290,1,55.0000016784668,8|0,0:0|0:0,0:0:0:0:
154,317,58876,6,0,P|158:253|126:207,1,110.000003356934,6|10,1:2|0:0,0:0:0:0:
81,226,59326,2,0,L|99:111,1,110.000003356934,2|2,0:0|1:2,0:0:0:0:
178,41,59926,2,0,P|207:36|246:33,1,55.0000016784668,2|0,0:0|1:0,0:0:0:0:
280,61,60226,2,0,P|309:66|348:69,1,55.0000016784668,2|8,0:0|0:0,0:0:0:0:
384,44,60526,2,0,P|365:104|387:165,1,110.000003356934,2|2,0:0|0:0,0:0:0:0:
415,186,60976,1,8,0:0:0:0:
322,244,61276,6,0,P|272:233|208:225,1,110.000003356934,2|10,1:2|0:0,0:0:0:0:
167,256,61726,1,2,0:0:0:0:
62,221,62026,1,2,0:0:0:0:
40,118,62326,1,2,1:2:0:0:
40,118,62476,2,0,P|57:85|74:64,1,55.0000016784668,14|0,0:0|0:0,0:0:0:0:
122,69,62776,2,0,P|153:48|178:39,1,55.0000016784668,2|8,1:2|0:0,0:0:0:0:
222,59,63076,2,0,L|213:180,1,110.000003356934,2|10,0:0|0:0,0:0:0:0:
310,221,63676,6,0,B|335:178|390:180|390:180|420:208|464:208,1,165.0000050354,6|0,1:2|0:0,0:0:0:0:
503,185,64276,2,0,P|483:241|504:292,1,110.000003356934,8|0,0:0|0:0,0:0:0:0:
422,365,64876,1,0,1:0:0:0:
422,365,65026,2,0,P|370:353|313:342,1,110.000003356934,10|2,0:0|1:2,0:0:0:0:
264,365,65476,2,0,P|279:307|250:253,1,110.000003356934,8|2,0:0|0:0,0:0:0:0:
154,229,66076,6,0,B|119:222|119:222|86:237|86:237|30:228,1,110.000003356934,4|0,1:2|0:0,0:0:0:0:
32,122,66676,2,0,B|69:128|69:128|102:113|102:113|137:120,1,110.000003356934,4|0,1:2|0:0,0:0:0:0:
221,49,67276,1,4,1:2:0:0:
221,49,67426,2,0,P|255:46|290:38,1,55.0000016784668,0|8,1:0|0:0,0:0:0:0:
349,124,67876,2,0,L|341:187,1,55.0000016784668,8|8,0:0|0:0,0:0:0:0:
304,218,68176,2,0,L|312:281,1,55.0000016784668,8|4,0:3|0:3,0:0:0:0:
303,327,68476,6,0,P|363:300|407:320,1,110.000003356934,4|0,1:2|1:0,0:0:0:0:
500,363,69076,2,0,P|508:309|512:248,1,110.000003356934,0|0,1:0|1:0,0:0:0:0:
433,176,69676,1,4,1:2:0:0:
500,90,69976,1,0,1:0:0:0:
417,18,70276,2,0,P|358:10|314:48,1,110.000003356934,0|0,1:0|1:0,0:0:0:0:
352,143,70876,5,4,1:2:0:0:
264,208,71176,1,0,1:0:0:0:
174,143,71476,1,0,1:0:0:0:
208,38,71776,1,0,1:0:0:0:
319,38,72076,2,0,B|362:40|382:27|382:27|427:43|427:43|459:31|501:33,2,165.0000050354,12|8|8,0:0|0:0|0:0,0:0:0:0:
208,38,73276,5,8,0:0:0:0:
33,204,74326,6,0,P|72:183|140:203,1,99.9999999999999,6|2,1:2|1:2,0:0:0:0:
160,226,74776,1,10,0:0:0:0:
236,161,75076,2,0,L|226:110,2,50,0|2|10,1:0|1:2|0:0,0:0:0:0:
273,194,75526,2,0,L|255:301,1,99.9999999999999,2|2,1:2|1:2,0:0:0:0:
246,341,75976,1,10,0:0:0:0:
338,378,76276,2,0,P|362:379|386:372,1,50,2|2,1:2|1:2,0:0:0:0:
431,347,76576,1,10,0:0:0:0:
431,347,76726,6,0,P|411:292|428:243,1,99.9999999999999,2|0,1:2|1:0,0:0:0:0:
456,217,77176,1,8,0:0:0:0:
438,123,77476,1,2,1:2:0:0:
438,123,77626,2,0,L|380:129,1,50,2|8,1:2|0:0,0:0:0:0:
343,149,77926,2,0,L|243:138,1,99.9999999999999,2|0,1:2|1:0,0:0:0:0:
204,169,78376,1,8,0:0:0:0:
119,115,78676,2,0,L|112:63,2,50,0|0|8,1:0|1:0|0:0,0:0:0:0:
89,156,79126,1,0,1:0:0:0:
89,156,79276,6,0,P|81:213|104:264,1,99.9999999999999,2|10,1:2|0:0,0:0:0:0:
129,288,79726,2,0,L|237:283,1,99.9999999999999,6|2,1:2|3:2,0:0:0:0:
276,268,80176,1,0,3:0:0:0:
304,174,80476,1,10,0:0:0:0:
304,174,80626,2,0,P|311:140|304:112,1,50,0|10,1:0|0:0,0:0:0:0:
283,82,80926,6,0,B|233:50|170:74|170:74|106:102|45:78|45:78|110:121|144:144|146:207,1,400,4|4,0:0|0:3,0:0:0:0:
139,239,82276,2,0,L|126:300,1,50,8|0,0:0|1:0,0:0:0:0:
