osu file format v14

[General]
AudioFilename: audio.mp3
AudioLeadIn: 0
PreviewTime: 66286
Countdown: 0
SampleSet: Soft
StackLeniency: 0.4
Mode: 0
LetterboxInBreaks: 0
EpilepsyWarning: 1
WidescreenStoryboard: 0

[Editor]
DistanceSpacing: 1
BeatDivisor: 7
GridSize: 4
TimelineZoom: 2.3

[Metadata]
Title:Evidence (TV Size)
TitleUnicode:Evidence (TV Size)
Artist:Daisy x Daisy
ArtistUnicode:Daisy×Daisy
Creator:Kudosu
Version:Normal
Source:FAIRY TAIL
Tags:フェアリーテイル op opening 7 season 3 40mP pony canyon jpop j-pop japanese pop anime -mikan soop so0p
BeatmapID:2673456
BeatmapSetID:1286341

[Difficulty]
HPDrainRate:4
CircleSize:3.5
OverallDifficulty:4
ApproachRate:5.5
SliderMultiplier:1.05
SliderTickRate:1

[Events]
//Background and Video events
Video,-32,"video.mp4"
0,0,"bg.jpg",0,0
//Break Periods
//Storyboard Layer 0 (Background)
//Storyboard Layer 1 (Fail)
//Storyboard Layer 2 (Pass)
//Storyboard Layer 3 (Foreground)
//Storyboard Layer 4 (Overlay)
//Storyboard Sound Samples

[TimingPoints]
380,375,4,2,1,55,1,0
380,-111.111111111111,4,2,1,55,0,0
5630,-111.111111111111,4,2,1,70,0,0
6380,-100,4,2,1,75,0,0
18380,-111.111111111111,4,2,1,65,0,0
42380,-111.111111111111,4,2,1,60,0,0
54380,-111.111111111111,4,2,1,75,0,0
63380,-111.111111111111,4,2,1,70,0,0
64786,-111.111111111111,4,2,1,15,0,0
66380,-100,4,2,2,85,0,1
66567,-100,4,2,1,85,0,1
84380,-100,4,2,1,80,0,0

[Colours]
Combo1 : 250,180,240
Combo2 : 120,200,230
Combo3 : 255,230,130
Combo4 : 160,230,150

[HitObjects]
17,348,380,6,0,L|110:333,1,94.499997116089,2|2,0:0|0:0,0:0:0:0:
147,306,942,2,0,L|240:320,1,94.499997116089,2|2,0:0|0:0,0:0:0:0:
321,278,1692,1,2,0:0:0:0:
321,278,1880,2,0,B|310:214|310:214|313:206|313:206|300:123,1,141.749995674133,2|2,0:0|0:0,0:0:0:0:
340,113,2630,2,0,P|389:121|442:129,1,94.499997116089,2|2,0:0|0:0,0:0:0:0:
426,217,3380,6,0,P|379:209|332:202,1,94.499997116089,2|2,0:0|0:0,0:0:0:0:
291,183,3942,2,0,P|244:190|197:197,1,94.499997116089,2|2,0:0|0:0,0:0:0:0:
118,155,4692,2,0,P|125:108|132:61,1,94.499997116089,2|2,0:0|0:0,0:0:0:0:
145,18,5255,1,2,0:0:0:0:
217,70,5630,2,0,P|269:85|322:61,1,94.499997116089,2|2,1:2|1:2,0:0:0:0:
396,30,6380,6,0,L|407:101,1,52.5,6|2,1:2|1:2,0:0:0:0:
443,121,6755,1,10,0:2:0:0:
443,121,6942,2,0,L|424:231,1,105,2|2,1:2|1:2,0:0:0:0:
475,311,7692,2,0,B|407:287|389:354|321:332,1,157.5,2|8,1:2|2:2,0:0:0:0:
238,383,8630,2,0,L|218:260,1,105,2|10,0:0|0:0,0:0:0:0:
267,256,9192,1,0,1:2:0:0:
267,256,9380,6,0,L|286:133,1,105,2|10,1:2|0:0,0:0:0:0:
294,103,9942,1,2,1:2:0:0:
209,50,10317,2,0,L|137:61,1,52.5,2|8,1:2|0:0,0:0:0:0:
108,69,10692,1,2,1:2:0:0:
9,83,11067,2,0,L|17:134,1,52.5,2|10,1:2|0:0,0:0:0:0:
67,158,11442,1,2,1:2:0:0:
67,158,11630,2,0,L|50:261,1,105,2|8,0:0|0:0,0:0:0:0:
119,333,12380,6,0,L|190:321,1,52.5,6|2,1:2|1:2,0:0:0:0:
210,286,12755,1,10,0:2:0:0:
210,286,12942,2,0,L|320:304,1,105,2|2,1:2|1:2,0:0:0:0:
410,327,13692,2,0,B|397:247|397:247|400:243|400:243|388:168,1,157.5,2|8,1:2|0:0,0:0:0:0:
327,93,14630,2,0,P|373:70|424:77,1,105,2|10,1:2|0:0,0:0:0:0:
496,146,15380,6,0,L|508:250,1,105,2|10,1:2|0:0,0:0:0:0:
483,293,15942,2,0,L|379:276,1,105,2|2,1:2|1:2,0:0:0:0:
301,338,16692,2,0,P|276:292|280:241,1,105,2|2,1:2|1:2,0:0:0:0:
320,210,17255,1,10,0:0:0:0:
255,134,17630,2,0,L|187:144,1,52.5,10|8,2:2|0:0,0:0:0:0:
168,178,18005,2,0,L|100:167,1,52.5,10|8,0:0|0:0,0:0:0:0:
76,190,18380,6,0,L|93:292,1,94.499997116089,6|8,1:2|0:0,0:0:0:0:
99,327,18942,1,0,1:2:0:0:
175,370,19317,2,0,P|233:384|273:364,1,94.499997116089,2|2,1:2|1:2,0:0:0:0:
297,343,19880,1,0,1:2:0:0:
297,343,20067,2,0,P|341:330|385:345,1,94.499997116089,2|2,1:2|1:2,0:0:0:0:
473,327,20817,1,2,1:2:0:0:
390,223,21380,6,0,L|405:124,1,94.499997116089,2|10,1:2|0:0,0:0:0:0:
368,103,21942,2,0,L|269:118,1,94.499997116089,2|2,1:2|1:2,0:0:0:0:
236,94,22505,2,0,L|246:26,1,47.2499985580445,10|2,0:0|1:2,0:0:0:0:
205,23,22880,1,0,1:2:0:0:
130,73,23255,1,8,0:0:0:0:
53,119,23630,2,0,L|69:225,1,94.499997116089,2|10,0:0|0:0,0:0:0:0:
25,291,24380,6,0,P|67:308|112:296,1,94.499997116089,2|8,1:2|0:0,0:0:0:0:
147,268,24942,1,0,1:2:0:0:
229,303,25317,2,0,L|275:295,1,47.2499985580445,2|8,1:2|0:0,0:0:0:0:
320,290,25692,2,0,P|326:236|293:187,1,94.499997116089,2|2,1:2|1:2,0:0:0:0:
244,138,26442,2,0,P|285:114|339:119,1,94.499997116089,2|0,1:2|1:2,0:0:0:0:
373,130,27005,1,10,0:0:0:0:
455,166,27380,6,0,L|439:264,1,94.499997116089,2|10,1:2|0:0,0:0:0:0:
434,303,27942,1,2,1:2:0:0:
349,272,28317,2,0,L|293:280,1,47.2499985580445,2|10,1:2|0:0,0:0:0:0:
268,309,28692,2,0,L|161:292,1,94.499997116089,2|2,1:2|1:2,0:0:0:0:
129,291,29255,1,8,0:0:0:0:
51,335,29630,2,0,L|35:236,1,94.499997116089,2|10,0:0|0:0,0:0:0:0:
72,215,30192,1,8,0:0:0:0:
72,215,30380,6,0,P|80:158|58:122,1,94.499997116089,6|8,1:2|0:0,0:0:0:0:
24,104,30942,1,0,1:2:0:0:
95,50,31317,2,0,L|190:61,1,94.499997116089,2|2,1:2|1:2,0:0:0:0:
217,102,31880,1,0,1:2:0:0:
217,102,32067,2,0,L|310:91,1,94.499997116089,2|2,1:2|1:2,0:0:0:0:
400,84,32817,2,0,L|389:177,1,94.499997116089,2|2,1:2|1:2,0:0:0:0:
345,188,33380,6,0,L|355:281,1,94.499997116089,2|10,1:2|0:0,0:0:0:0:
337,322,33942,1,2,1:2:0:0:
401,384,34317,2,0,L|464:373,1,47.2499985580445,2|10,1:2|0:0,0:0:0:0:
492,369,34692,1,2,1:2:0:0:
492,369,34880,1,0,1:2:0:0:
452,288,35255,1,8,0:0:0:0:
406,210,35630,2,0,P|395:157|425:109,1,94.499997116089,2|10,0:0|0:0,0:0:0:0:
462,47,36380,6,0,P|418:29|373:41,1,94.499997116089,2|8,1:2|0:0,0:0:0:0:
334,64,36942,1,0,1:2:0:0:
265,122,37317,2,0,L|272:186,1,47.2499985580445,2|8,1:2|0:0,0:0:0:0:
307,194,37692,2,0,L|292:309,1,94.499997116089,2|2,1:2|1:2,0:0:0:0:
346,361,38442,2,0,P|285:379|241:361,1,94.499997116089,2|0,1:2|1:2,0:0:0:0:
217,349,39005,1,10,0:0:0:0:
142,298,39380,6,0,L|160:183,1,94.499997116089,2|10,1:2|0:0,0:0:0:0:
167,161,39942,1,2,1:2:0:0:
119,84,40317,2,0,P|162:66|208:73,1,94.499997116089,2|2,1:2|1:2,0:0:0:0:
248,103,40880,1,0,1:2:0:0:
248,103,41067,1,2,1:2:0:0:
332,72,41442,2,0,L|316:171,1,94.499997116089,2|10,1:1|0:3,0:0:0:0:
276,184,42005,2,0,L|285:243,1,47.2499985580445,10|8,0:0|0:0,0:0:0:0:
259,269,42380,6,0,P|205:243|161:262,1,94.499997116089,6|2,1:2|0:0,0:0:0:0:
137,277,42942,1,2,1:2:0:0:
59,231,43317,2,0,L|75:128,1,94.499997116089,2|10,0:0|0:0,0:0:0:0:
10,74,44067,2,0,P|61:50|118:63,1,94.499997116089,10|2,0:0|1:2,0:0:0:0:
174,100,44817,2,0,L|237:90,1,47.2499985580445,2|0,0:0|0:0,0:0:0:0:
256,64,45192,1,2,1:2:0:0:
256,64,45380,6,0,L|371:82,1,94.499997116089,2|2,1:2|0:0,0:0:0:0:
393,87,45942,1,2,1:2:0:0:
464,32,46317,2,0,P|482:75|470:138,1,94.499997116089,2|10,0:0|0:0,0:0:0:0:
408,178,47067,2,0,P|390:221|402:284,1,94.499997116089,10|2,0:0|1:2,0:0:0:0:
419,305,47630,1,8,0:0:0:0:
342,352,48005,2,0,L|279:342,1,47.2499985580445,2|0,0:0|1:2,0:0:0:0:
259,317,48380,6,0,L|148:335,1,94.499997116089,2|2,1:2|0:0,0:0:0:0:
121,338,48942,1,2,1:2:0:0:
45,384,49317,2,0,P|30:337|54:283,1,94.499997116089,2|10,0:0|0:0,0:0:0:0:
120,249,50067,2,0,P|135:202|111:148,1,94.499997116089,10|2,0:0|1:2,0:0:0:0:
167,83,50817,2,0,L|229:73,1,47.2499985580445,2|0,0:0|0:0,0:0:0:0:
259,95,51192,1,2,1:2:0:0:
259,95,51380,6,0,L|241:210,1,94.499997116089,2|2,1:2|0:0,0:0:0:0:
235,232,51942,1,2,1:2:0:0:
321,256,52317,2,0,L|388:245,1,47.2499985580445,2|0,0:0|0:0,0:0:0:0:
404,274,52692,2,0,L|386:385,1,94.499997116089,10|10,0:0|0:0,0:0:0:0:
477,382,53442,2,0,L|492:289,1,94.499997116089,2|8,1:2|0:0,0:0:0:0:
449,272,54005,2,0,L|440:213,1,47.2499985580445,10|8,0:0|0:0,0:0:0:0:
405,198,54380,6,0,L|420:105,1,94.499997116089,6|10,1:2|0:0,0:0:0:0:
431,61,54942,1,2,1:2:0:0:
352,16,55317,2,0,L|289:26,1,47.2499985580445,2|8,1:2|0:0,0:0:0:0:
273,55,55692,2,0,L|162:37,1,94.499997116089,2|2,1:2|1:2,0:0:0:0:
109,96,56442,2,0,L|124:189,1,94.499997116089,2|0,1:2|1:2,0:0:0:0:
130,233,57005,1,10,0:0:0:0:
85,310,57380,6,0,P|128:325|188:308,1,94.499997116089,2|10,1:2|0:0,0:0:0:0:
214,294,57942,1,2,1:2:0:0:
289,343,58317,2,0,L|336:336,1,47.2499985580445,2|8,1:2|0:0,0:0:0:0:
377,353,58692,2,0,L|395:238,1,94.499997116089,2|2,1:2|1:2,0:0:0:0:
441,184,59442,2,0,P|399:164|354:176,1,94.499997116089,2|10,1:2|2:2,0:0:0:0:
321,145,60005,2,0,L|331:82,1,47.2499985580445,10|2,2:2|1:2,0:0:0:0:
290,73,60380,6,0,L|197:88,2,94.499997116089,14|8|8,0:0|0:0|0:0,0:0:0:0:
372,108,61505,2,0,L|431:98,1,47.2499985580445,8|0,0:0|1:0,0:0:0:0:
455,126,61880,2,0,L|440:219,1,94.499997116089,8|8,0:0|0:0,0:0:0:0:
477,299,62630,2,0,L|410:310,1,47.2499985580445,10|2,0:0|1:2,0:0:0:0:
394,333,63005,2,0,L|327:322,1,47.2499985580445,10|10,0:0|0:0,0:0:0:0:
309,301,63380,6,0,L|210:317,1,94.499997116089,6|8,1:2|0:0,0:0:0:0:
171,321,63942,1,2,1:2:0:0:
104,260,64317,2,0,L|114:197,1,47.2499985580445,10|8,0:0|0:0,0:0:0:0:
119,168,64692,1,6,1:2:0:0:
40,41,66380,6,0,L|91:32,1,52.5,14|2,1:3|1:2,0:0:0:0:
136,64,66755,1,10,0:0:0:0:
136,64,66942,2,0,L|119:167,1,105,2|2,1:2|1:2,0:0:0:0:
193,234,67692,2,0,L|262:221,1,52.5,2|0,1:2|1:2,0:0:0:0:
287,198,68067,2,0,L|356:210,1,52.5,2|8,1:2|0:0,0:0:0:0:
388,210,68442,1,2,1:2:0:0:
470,266,68817,2,0,P|476:289|470:319,1,52.5,2|10,1:2|0:0,0:0:0:0:
433,348,69192,1,2,1:2:0:0:
433,348,69380,6,0,L|318:329,1,105,2|8,1:2|0:0,0:0:0:0:
258,261,70130,2,0,L|143:279,1,105,2|8,0:0|0:0,0:0:0:0:
117,243,70692,2,0,L|128:171,1,52.5,2|0,1:2|1:2,0:0:0:0:
158,154,71067,2,0,L|141:51,1,105,2|2,1:2|1:2,0:0:0:0:
233,86,71817,2,0,L|292:76,1,52.5,2|10,1:2|0:0,0:0:0:0:
333,104,72192,1,2,1:2:0:0:
333,104,72380,6,0,L|316:207,1,105,0|8,1:2|0:0,0:0:0:0:
220,235,73130,1,2,0:0:0:0:
292,304,73505,2,0,L|355:293,1,52.5,10|0,0:0|1:2,0:0:0:0:
385,323,73880,2,0,L|401:219,1,105,2|10,1:2|0:0,0:0:0:0:
413,168,74442,1,2,1:2:0:0:
354,82,74817,2,0,L|290:92,1,52.5,10|10,0:0|0:0,0:0:0:0:
271,50,75192,6,0,B|203:26|185:93|117:71,1,157.5,6|8,1:2|0:3,0:0:0:0:
34,195,76317,1,2,1:2:0:0:
34,195,76505,2,0,L|45:266,1,52.5,8|8,0:0|0:3,0:0:0:0:
85,281,76880,1,10,0:2:0:0:
85,281,77067,1,10,0:2:0:0:
65,381,77442,1,10,0:0:0:0:
161,346,77817,2,0,L|275:327,1,105,14|0,0:0|1:2,0:0:0:0:
306,301,78380,6,0,L|373:311,1,52.5,6|2,1:2|1:2,0:0:0:0:
403,285,78755,1,10,0:2:0:0:
403,285,78942,2,0,L|386:181,1,105,2|2,1:2|1:2,0:0:0:0:
428,90,79692,2,0,L|359:77,1,52.5,2|0,1:2|1:2,0:0:0:0:
334,54,80067,2,0,L|265:66,1,52.5,2|10,1:2|0:0,0:0:0:0:
233,66,80442,1,2,1:2:0:0:
148,119,80817,2,0,P|138:151|148:179,1,52.5,2|10,1:2|0:0,0:0:0:0:
189,197,81192,1,2,1:2:0:0:
189,197,81380,6,0,L|303:178,1,105,2|8,1:2|0:0,0:0:0:0:
373,122,82130,2,0,P|394:175|378:224,1,105,2|8,0:0|0:0,0:0:0:0:
342,249,82692,2,0,L|358:352,1,105,2|2,1:2|1:2,0:0:0:0:
263,384,83442,2,0,L|187:372,1,52.5,2|8,1:2|0:0,0:0:0:0:
176,339,83817,2,0,L|100:350,1,52.5,10|10,0:0|0:0,0:0:0:0:
81,332,84192,1,10,0:0:0:0:
81,332,84380,6,0,L|99:213,1,105,4|0,1:2|0:0,0:0:0:0:
64,133,85130,1,8,0:0:0:0:
28,39,85505,2,0,L|95:28,1,52.5,2|0,0:0|1:2,0:0:0:0:
123,5,85880,2,0,L|225:21,1,105,2|2,1:2|0:0,0:0:0:0:
276,26,86442,1,2,1:2:0:0:
372,0,86817,2,0,L|383:75,1,52.5,10|10,0:0|0:0,0:0:0:0:
388,101,87192,1,6,1:2:0:0:
