osu file format v14

[General]
AudioFilename: audio.mp3
AudioLeadIn: 0
PreviewTime: 66286
Countdown: 0
SampleSet: Soft
StackLeniency: 0.4
Mode: 0
LetterboxInBreaks: 0
EpilepsyWarning: 1
WidescreenStoryboard: 0

[Editor]
DistanceSpacing: 1
BeatDivisor: 8
GridSize: 8
TimelineZoom: 3.399999

[Metadata]
Title:Evidence (TV Size)
TitleUnicode:Evidence (TV Size)
Artist:Daisy x Daisy
ArtistUnicode:Daisy×Daisy
Creator:Kudosu
Version:Mystic
Source:FAIRY TAIL
Tags:フェアリーテイル op opening 7 season 3 40mP pony canyon jpop j-pop japanese pop anime -mikan soop so0p
BeatmapID:2670851
BeatmapSetID:1286341

[Difficulty]
HPDrainRate:5.5
CircleSize:4.2
OverallDifficulty:8.4
ApproachRate:9.1
SliderMultiplier:1.65
SliderTickRate:1

[Events]
//Background and Video events
Video,-32,"video.mp4"
0,0,"bg.jpg",0,0
//Break Periods
//Storyboard Layer 0 (Background)
//Storyboard Layer 1 (Fail)
//Storyboard Layer 2 (Pass)
//Storyboard Layer 3 (Foreground)
//Storyboard Layer 4 (Overlay)
//Storyboard Sound Samples

[TimingPoints]
380,375,4,2,1,55,1,0
380,-133.333333333333,4,2,1,55,0,0
5630,-55.5555555555556,4,2,1,70,0,0
5817,-66.6666666666667,4,2,1,70,0,0
6005,-66.6666666666667,4,2,1,70,0,0
6380,-100,4,2,1,75,0,1
6567,-100,4,2,1,75,0,0
8911,-100,4,2,1,5,0,0
9005,-100,4,2,1,75,0,0
9661,-100,4,2,1,5,0,0
9755,-100,4,2,1,75,0,0
13223,-100,4,2,1,5,0,0
13317,-100,4,2,1,75,0,0
17255,-74.0740740740741,4,2,1,75,0,0
17348,-74.0740740740741,4,2,1,5,0,0
17442,-100,4,2,1,75,0,0
17536,-100,4,2,1,5,0,0
17630,-100,4,2,1,75,0,0
18380,-111.111111111111,4,2,1,65,0,0
18661,-111.111111111111,4,2,1,5,0,0
18755,-111.111111111111,4,2,1,65,0,0
27661,-111.111111111111,4,2,1,5,0,0
27755,-111.111111111111,4,2,1,65,0,0
28973,-111.111111111111,4,2,1,5,0,0
29067,-111.111111111111,4,2,1,65,0,0
31973,-111.111111111111,4,2,1,5,0,0
32067,-111.111111111111,4,2,1,65,0,0
32723,-111.111111111111,4,2,1,5,0,0
32817,-111.111111111111,4,2,1,65,0,0
37223,-111.111111111111,4,2,1,5,0,0
37317,-111.111111111111,4,2,1,65,0,0
40973,-111.111111111111,4,2,1,5,0,0
41067,-111.111111111111,4,2,1,65,0,0
42380,-125,4,2,1,60,0,0
44348,-125,4,2,1,5,0,0
44442,-125,4,2,1,60,0,0
47348,-125,4,2,1,5,0,0
47442,-125,4,2,1,60,0,0
49598,-125,4,2,1,5,0,0
49692,-125,4,2,1,60,0,0
54380,-111.111111111111,4,2,1,75,0,0
56723,-111.111111111111,4,2,1,5,0,0
56817,-111.111111111111,4,2,1,75,0,0
59723,-111.111111111111,4,2,1,5,0,0
59817,-111.111111111111,4,2,1,75,0,0
62630,-62.5,4,2,1,75,0,0
63005,-62.5,4,2,1,75,0,0
63192,-83.3333333333333,4,2,1,75,0,0
63380,-74.0740740740741,4,2,1,70,0,0
63661,-74.0740740740741,4,2,1,5,0,0
63755,-74.0740740740741,4,2,1,70,0,0
63848,-74.0740740740741,4,2,1,5,0,0
63942,-64.5161290322581,4,2,1,70,0,0
64223,-64.5161290322581,4,2,1,5,0,0
64317,-74.0740740740741,4,2,1,70,0,0
64411,-74.0740740740741,4,2,1,5,0,0
64505,-74.0740740740741,4,2,1,70,0,0
64598,-74.0740740740741,4,2,1,5,0,0
64692,-215.05376344086,4,2,1,70,0,0
64786,-215.05376344086,4,2,1,15,0,0
66380,-74.0740740740741,4,2,2,85,0,1
66567,-66.6666666666667,4,2,1,85,0,1
66755,-95.2380952380952,4,2,1,85,0,1
67973,-95.2380952380952,4,2,1,5,0,1
68067,-95.2380952380952,4,2,1,85,0,1
70973,-95.2380952380952,4,2,1,5,0,1
71067,-95.2380952380952,4,2,1,85,0,1
76880,-62.5,4,2,1,85,0,1
76973,-62.5,4,2,1,5,0,1
77067,-62.5,4,2,1,85,0,1
77161,-62.5,4,2,1,5,0,1
77255,-62.5,4,2,1,85,0,1
77442,-58.8235294117647,4,2,1,85,0,1
77723,-58.8235294117647,4,2,1,5,0,1
77817,-62.5,4,2,1,85,0,1
77911,-62.5,4,2,1,5,0,1
78005,-62.5,4,2,1,85,0,1
78098,-62.5,4,2,1,5,0,1
78192,-62.5,4,2,1,85,0,0
78380,-95.2380952380952,4,2,1,85,0,1
79973,-95.2380952380952,4,2,1,5,0,1
80067,-95.2380952380952,4,2,1,85,0,1
84380,-100,4,2,1,80,0,0
87942,-100,4,2,1,65,0,0
88317,-100,4,2,1,40,0,0
88692,-100,4,2,1,25,0,0
88880,-100,4,2,1,10,0,0
89067,-100,4,2,1,5,0,0

[Colours]
Combo1 : 250,180,240
Combo2 : 120,200,230
Combo3 : 255,230,130
Combo4 : 160,230,150

[HitObjects]
86,131,381,5,2,0:0:0:0:
173,82,568,1,2,0:0:0:0:
86,32,756,1,2,0:0:0:0:
198,179,943,5,2,0:0:0:0:
195,191,1318,1,2,0:0:0:0:
192,203,1693,1,2,0:0:0:0:
351,295,1881,6,0,B|313:251|256:260|256:260|233:296|186:287,1,185.625007081032,2|2,0:0|0:0,0:0:0:0:
110,120,2631,2,0,P|193:115|195:198,1,185.625007081032,2|2,0:0|0:0,0:0:0:0:
125,359,3381,6,0,P|115:292|104:232,1,123.750004720688,2|2,0:0|0:0,0:0:0:0:
28,202,3943,2,0,P|18:230|24:260,1,61.875002360344,2|0,0:0|0:0,0:0:0:0:
207,306,4318,2,0,L|270:295,1,61.875002360344,2|0,0:0|0:0,0:0:0:0:
352,343,4693,6,0,L|362:282,1,61.875002360344,2|2,0:0|0:0,0:0:0:0:
210,138,5068,1,2,0:0:0:0:
211,147,5162,1,2,0:0:0:0:
213,157,5256,2,0,L|223:217,1,61.875002360344,2|2,0:0|0:0,0:0:0:0:
410,78,5631,6,0,B|421:61|421:61|411:34,2,37.1249988670349,2|0|2,1:2|0:0|0:0,0:0:0:0:
316,0,5817,2,0,L|327:75,1,61.875002360344,2|2,1:2|0:0,0:0:0:0:
209,129,6005,2,0,L|181:123,12,15.468750590086,2|0|0|0|2|0|0|0|2|0|0|0|2,1:2|0:0|0:0|0:0|0:0|0:0|0:0|0:0|0:0|0:0|0:0|0:0|0:0,0:0:0:0:
16,202,6381,6,0,B|57:170|109:175|109:175|125:203|163:203,1,165,6|10,1:2|0:2,0:0:0:0:
315,14,6943,2,0,P|321:54|329:95,1,82.5,2|0,1:2|0:0,0:0:0:0:
423,40,7318,1,2,1:2:0:0:
214,108,7506,1,8,0:0:0:0:
401,271,7693,6,0,B|417:161|417:161|400:191|371:194,1,165,2|0,1:2|1:2,0:0:0:0:
262,2,8256,1,8,2:2:0:0:
422,137,8443,1,0,1:2:0:0:
225,208,8631,2,0,P|156:194|92:186,1,123.75,2|0,0:0|0:0,0:0:0:0:
18,233,9006,2,0,P|5:181|25:144,1,82.5,10|0,0:0|1:2,0:0:0:0:
194,329,9381,6,0,P|242:293|301:305,1,123.75,2|0,1:2|0:0,0:0:0:0:
318,321,9756,1,10,0:0:0:0:
507,143,9943,2,0,P|500:180|491:237,1,82.5,2|0,1:2|0:0,0:0:0:0:
338,86,10318,2,0,P|345:127|352:168,1,82.5,2|8,1:2|0:0,0:0:0:0:
453,24,10693,1,2,1:2:0:0:
223,148,10881,5,0,1:2:0:0:
140,134,11068,1,2,1:2:0:0:
57,121,11256,1,10,0:0:0:0:
293,0,11443,1,2,1:2:0:0:
156,231,11631,2,0,P|150:192|140:136,1,82.5,2|2,0:0|1:2,0:0:0:0:
288,268,12006,1,8,0:0:0:0:
307,244,12099,1,8,0:0:0:0:
334,231,12193,1,10,0:0:0:0:
365,231,12287,1,10,0:0:0:0:
392,246,12380,6,0,P|384:289|375:347,1,82.5,6|2,1:2|1:2,0:0:0:0:
489,302,12755,1,10,0:2:0:0:
244,366,12943,2,0,P|191:331|117:345,1,123.75,2|0,1:2|0:0,0:0:0:0:
40,302,13318,2,0,P|46:345|52:396,1,82.5,2|8,1:2|0:0,0:0:0:0:
211,232,13693,5,2,1:2:0:0:
260,169,13880,1,0,1:2:0:0:
338,154,14068,1,0,1:2:0:0:
407,194,14255,2,0,P|413:147|422:99,1,82.5,8|0,0:0|1:2,0:0:0:0:
208,13,14630,2,0,P|214:54|221:95,1,82.5,2|0,1:2|1:2,0:0:0:0:
341,0,15005,1,10,0:0:0:0:
119,83,15192,1,0,1:2:0:0:
292,268,15380,6,0,B|308:158|308:158|291:188|262:191,1,165,2|10,1:2|0:0,0:0:0:0:
69,36,15943,2,0,P|113:29|162:21,1,82.5,2|0,1:2|0:0,0:0:0:0:
58,214,16318,2,0,P|102:220|151:228,1,82.5,2|8,1:2|0:0,0:0:0:0:
392,378,16693,5,2,1:2:0:0:
378,295,16880,1,0,1:2:0:0:
365,212,17068,1,2,1:2:0:0:
500,130,17256,6,0,L|490:199,1,55.687500212431,10|0,0:0|0:0,0:0:0:0:
512,138,17443,2,0,L|502:207,1,41.25,8|0,2:3|0:0,0:0:0:0:
297,318,17631,1,10,2:2:0:0:
268,328,17724,1,8,0:0:0:0:
237,326,17818,1,8,0:0:0:0:
210,311,17912,1,8,0:0:0:0:
192,285,18006,1,10,0:0:0:0:
174,261,18099,1,8,0:0:0:0:
148,245,18193,1,8,0:0:0:0:
117,243,18287,1,8,0:0:0:0:
88,254,18381,6,0,P|95:299|105:367,1,111.374996601105,6|0,1:2|0:0,0:0:0:0:
93,377,18756,1,8,0:0:0:0:
4,289,18943,2,0,P|-8:256|3:214,1,74.2499977340699,0|0,1:2|0:0,0:0:0:0:
213,383,19318,2,0,P|284:340|342:359,1,148.49999546814,2|2,1:2|1:2,0:0:0:0:
463,283,19881,5,0,1:2:0:0:
358,193,20068,2,0,P|364:230|370:267,1,74.2499977340699,2|8,1:2|0:0,0:0:0:0:
512,125,20443,2,0,P|508:152|501:199,1,74.2499977340699,2|0,1:2|0:0,0:0:0:0:
376,96,20818,2,0,B|312:77|299:129|232:109,1,148.49999546814,2|0,1:2|1:2,0:0:0:0:
148,64,21381,6,0,P|141:105|134:147,1,74.2499977340699,2|0,1:2|1:2,0:0:0:0:
66,22,21756,1,10,0:0:0:0:
244,110,21943,1,2,1:2:0:0:
64,240,22131,2,0,P|57:201|51:163,1,74.2499977340699,2|2,2:2|1:2,0:0:0:0:
202,273,22506,2,0,P|208:232|214:193,1,74.2499977340699,10|2,0:0|1:2,0:0:0:0:
265,322,22881,5,0,1:2:0:0:
314,259,23068,1,0,1:2:0:0:
392,244,23256,1,8,0:0:0:0:
461,284,23443,1,0,1:2:0:0:
328,109,23631,2,0,L|340:183,1,74.2499977340699,2|0,0:0|1:2,0:0:0:0:
494,84,24006,2,0,L|481:159,1,74.2499977340699,10|0,0:0|1:2,0:0:0:0:
403,50,24381,6,0,P|351:12|269:35,1,148.49999546814,2|8,1:2|0:0,0:0:0:0:
166,76,24943,2,0,P|159:35|150:-17,1,74.2499977340699,0|0,1:2|0:0,0:0:0:0:
265,144,25318,2,0,P|277:173|262:218,1,74.2499977340699,2|8,1:2|0:0,0:0:0:0:
148,295,25693,6,0,B|212:286|212:286|241:302|241:302|300:293,1,148.49999546814,2|2,1:2|1:2,0:0:0:0:
453,348,26256,1,8,0:0:0:0:
387,240,26443,2,0,P|372:327|359:405,1,148.49999546814,2|0,1:2|1:2,0:0:0:0:
494,245,27006,2,0,P|506:215|493:174,1,74.2499977340699,10|0,0:0|1:2,0:0:0:0:
275,309,27381,6,0,P|230:302|162:292,1,111.374996601105,2|0,1:2|0:0,0:0:0:0:
155,305,27756,1,10,0:0:0:0:
45,218,27943,2,0,L|57:297,1,74.2499977340699,2|0,1:2|0:0,0:0:0:0:
144,131,28318,1,2,1:2:0:0:
13,83,28506,1,10,0:0:0:0:
155,217,28693,6,0,P|208:208|281:196,1,111.374996601105,2|0,1:2|0:0,0:0:0:0:
312,272,29068,2,0,P|279:289|240:284,1,74.2499977340699,2|8,1:2|0:0,0:0:0:0:
340,84,29443,1,0,1:2:0:0:
340,84,29631,2,0,L|328:158,1,74.2499977340699,2|0,0:0|1:2,0:0:0:0:
226,57,30006,1,10,0:0:0:0:
512,226,30193,1,8,0:0:0:0:
507,219,30287,1,8,0:0:0:0:
500,214,30381,6,0,B|436:195|423:247|356:227,1,148.49999546814,6|8,1:2|0:0,0:0:0:0:
226,57,30943,2,0,L|238:131,1,74.2499977340699,0|0,1:2|0:0,0:0:0:0:
352,18,31318,2,0,L|338:102,1,74.2499977340699,2|8,1:2|0:0,0:0:0:0:
148,114,31693,6,0,P|99:106|25:95,1,111.374996601105,2|0,1:2|0:0,0:0:0:0:
0,173,32068,2,0,P|29:187|76:182,1,74.2499977340699,2|8,1:2|0:0,0:0:0:0:
250,255,32443,2,0,P|206:224|153:235,1,111.374996601105,2|0,1:2|0:0,0:0:0:0:
78,364,32818,2,0,P|72:327|66:290,1,74.2499977340699,2|8,1:2|0:0,0:0:0:0:
182,327,33193,1,2,1:2:0:0:
298,364,33381,6,0,B|362:345|375:397|442:377,1,148.49999546814,2|10,1:2|0:0,0:0:0:0:
495,227,33943,2,0,P|426:223|404:288,1,148.49999546814,2|2,1:2|1:2,0:0:0:0:
512,330,34506,1,10,0:0:0:0:
398,225,34693,1,2,1:2:0:0:
391,223,34787,1,2,0:0:0:0:
384,221,34881,6,0,B|320:212|320:212|290:228|290:228|240:221,1,148.49999546814,2|8,1:2|0:0,0:0:0:0:
102,105,35443,1,0,1:2:0:0:
206,82,35631,2,0,P|198:118|192:154,1,74.2499977340699,2|0,0:0|1:2,0:0:0:0:
5,23,36006,2,0,P|12:60|16:96,1,74.2499977340699,10|0,0:0|1:2,0:0:0:0:
133,23,36381,6,0,P|182:-15|268:10,1,148.49999546814,2|8,1:2|0:0,0:0:0:0:
343,163,36943,2,0,P|350:107|359:53,1,111.374996601105,0|0,1:2|0:0,0:0:0:0:
345,42,37318,1,2,1:2:0:0:
446,108,37506,1,8,0:0:0:0:
250,206,37693,6,0,P|215:198|155:190,1,74.2499977340699,2|0,1:2|1:2,0:0:0:0:
246,354,38068,2,0,P|269:325|306:279,1,74.2499977340699,2|8,1:2|0:0,0:0:0:0:
119,276,38443,2,0,P|131:310|153:365,1,74.2499977340699,2|0,1:2|0:0,0:0:0:0:
207,278,38818,1,0,1:2:0:0:
81,194,39006,2,0,P|50:189|2:208,1,74.2499977340699,10|0,0:0|1:2,0:0:0:0:
221,118,39381,6,0,B|285:99|298:151|365:131,1,148.49999546814,2|10,1:2|0:0,0:0:0:0:
407,62,39943,2,0,P|370:47|320:61,1,74.2499977340699,2|0,1:2|0:0,0:0:0:0:
305,212,40318,2,0,P|342:227|389:214,1,74.2499977340699,2|8,1:2|0:0,0:0:0:0:
512,329,40693,2,0,P|474:300|410:309,1,111.374996601105,2|0,1:2|0:0,0:0:0:0:
337,384,41068,2,0,L|324:308,1,74.2499977340699,2|8,1:2|0:0,0:0:0:0:
478,93,41443,5,2,1:1:0:0:
309,149,41631,1,2,2:1:0:0:
472,268,41818,1,10,0:3:0:0:
413,179,42006,1,10,0:0:0:0:
112,333,42193,5,8,0:0:0:0:
109,322,42287,1,8,0:0:0:0:
107,313,42381,2,0,P|98:255|84:170,1,132,6|2,1:2|0:0,0:0:0:0:
86,182,42943,1,2,1:2:0:0:
235,79,43131,1,8,0:0:0:0:
137,45,43318,2,0,L|150:128,1,66,2|0,0:0|0:0,0:0:0:0:
230,227,43693,6,0,P|262:231|291:216,1,66,10|0,0:0|1:2,0:0:0:0:
467,288,44068,2,0,P|425:262|377:268,1,99,10|0,0:0|0:0,0:0:0:0:
292,384,44443,2,0,P|286:351|281:318,1,66,2|8,1:2|0:0,0:0:0:0:
435,187,44818,1,2,0:0:0:0:
307,125,45006,2,0,P|312:157|317:190,1,66,0|2,0:0|1:2,0:0:0:0:
195,226,45381,6,0,B|140:218|140:218|117:232|117:232|68:225,1,132,2|2,1:2|0:0,0:0:0:0:
68,225,45943,1,2,1:2:0:0:
215,102,46131,1,8,0:0:0:0:
107,70,46318,2,0,P|113:102|117:135,1,66,2|0,0:0|0:0,0:0:0:0:
261,222,46693,6,0,P|289:206|322:209,1,66,10|0,0:0|1:2,0:0:0:0:
497,167,47068,2,0,P|449:178|405:158,1,99,10|0,0:0|0:0,0:0:0:0:
391,144,47443,1,2,1:2:0:0:
450,17,47631,2,0,P|455:53|465:111,1,66,8|0,0:0|0:0,0:0:0:0:
326,214,48006,2,0,P|293:209|260:204,1,66,2|0,0:0|1:2,0:0:0:0:
151,291,48381,6,0,P|141:220|129:139,1,132,2|2,1:2|0:0,0:0:0:0:
43,129,48943,2,0,P|35:173|60:207,1,66,2|8,1:2|0:0,0:0:0:0:
219,114,49318,2,0,P|263:94|310:105,1,99,2|0,0:0|0:0,0:0:0:0:
382,64,49693,2,0,P|391:33|380:2,1,66,10|0,0:0|1:2,0:0:0:0:
272,176,50068,2,0,P|278:211|287:270,1,66,10|0,0:0|0:0,0:0:0:0:
206,125,50443,1,2,1:2:0:0:
365,206,50631,1,8,0:0:0:0:
215,302,50818,2,0,P|182:296|149:290,1,66,2|0,0:0|0:0,0:0:0:0:
352,347,51193,1,2,1:2:0:0:
362,345,51287,1,2,0:0:0:0:
372,343,51381,6,0,B|421:336|421:336|444:350|444:350|499:342,1,132,2|2,1:2|0:0,0:0:0:0:
498,342,51943,1,2,1:2:0:0:
372,213,52131,1,8,0:0:0:0:
477,182,52317,2,0,L|461:274,1,66,2|0,0:0|0:0,0:0:0:0:
315,117,52693,2,0,B|255:106|245:147|185:134,2,132,10|10|2,0:0|0:0|1:2,0:0:0:0:
378,204,53631,5,8,0:0:0:0:
219,103,53818,1,8,0:0:0:0:
390,19,54006,1,10,0:0:0:0:
207,288,54192,1,8,0:0:0:0:
203,280,54286,1,8,0:0:0:0:
195,274,54380,6,0,P|141:236|63:256,1,148.49999546814,6|10,1:2|0:0,0:0:0:0:
307,384,54943,2,0,P|311:347|319:310,1,74.2499977340699,2|0,1:2|0:0,0:0:0:0:
111,138,55318,2,0,P|118:174|123:211,1,74.2499977340699,2|8,1:2|0:0,0:0:0:0:
189,69,55693,1,2,1:2:0:0:
29,186,55881,1,0,1:2:0:0:
208,257,56068,2,0,P|258:262|291:234,1,74.2499977340699,2|8,1:2|0:0,0:0:0:0:
463,341,56443,2,0,P|418:309|363:314,1,111.374996601105,2|0,1:2|0:0,0:0:0:0:
355,326,56818,1,0,1:2:0:0:
231,175,57006,2,0,P|236:138|242:101,1,74.2499977340699,10|0,0:0|1:2,0:0:0:0:
0,263,57381,6,0,B|64:254|64:254|94:270|94:270|144:263,1,148.49999546814,2|10,1:2|0:0,0:0:0:0:
240,384,57943,2,0,P|245:343|252:304,1,74.2499977340699,2|0,1:2|0:0,0:0:0:0:
96,243,58318,1,2,1:2:0:0:
231,142,58506,1,8,0:0:0:0:
111,347,58693,6,0,P|70:339|31:334,1,74.2499977340699,2|0,1:2|1:2,0:0:0:0:
119,141,59068,2,0,P|78:149|39:153,1,74.2499977340699,2|8,1:2|0:0,0:0:0:0:
299,245,59443,2,0,P|344:213|399:218,1,111.374996601105,2|0,1:2|0:0,0:0:0:0:
407,230,59818,1,10,2:2:0:0:
493,356,60006,2,0,L|508:261,1,74.2499977340699,10|2,2:2|1:2,0:0:0:0:
220,300,60381,5,14,0:0:0:0:
470,144,60568,1,0,1:0:0:0:
178,148,60756,5,8,0:0:0:0:
512,296,60943,1,0,1:0:0:0:
371,76,61131,5,8,0:0:0:0:
328,176,61318,1,0,1:0:0:0:
241,375,61506,1,8,0:0:0:0:
420,236,61693,1,0,1:0:0:0:
76,126,61881,5,8,0:0:0:0:
105,306,62068,1,0,1:0:0:0:
285,276,62256,1,8,0:0:0:0:
256,96,62443,1,0,1:0:0:0:
183,217,62631,6,0,B|172:202|172:202|177:182,2,33,10|0|2,0:0|0:0|0:0,0:0:0:0:
267,99,62818,6,0,P|299:103|332:109,1,66,2|2,1:2|0:0,0:0:0:0:
423,18,63005,6,0,L|421:3,4,16.5,10|0|0|0|0,0:0|0:0|0:0|0:0|0:0,0:0:0:0:
482,87,63192,6,0,P|517:81|539:79,1,49.4999984893799,8|8,0:0|0:0,0:0:0:0:
419,277,63381,6,0,B|435:167|435:167|418:197|389:200,1,167.062500637293,6|0,1:2|0:0,0:0:0:0:
297,129,63756,2,0,P|333:115|374:125,1,55.687500212431,8|0,0:0|0:0,0:0:0:0:
222,282,63943,6,0,B|192:244|134:233|90:251|90:251|117:253|137:278,1,191.812501463413,2|0,1:2|0:0,0:0:0:0:
83,384,64318,2,0,L|72:320,1,55.687500212431,10|0,0:0|0:0,0:0:0:0:
175,154,64506,2,0,L|166:209,1,55.687500212431,8|0,0:0|0:0,0:0:0:0:
45,95,64693,6,0,B|116:62|187:98|145:128|225:165|294:132,1,268.537508399992,6|0,1:2|0:0,0:0:0:0:
294,131,66381,6,0,L|284:71,1,55.687500212431,14|2,1:3|0:0,0:0:0:0:
433,186,66568,2,0,P|443:172|435:177,1,61.875002360344,2|2,1:2|0:0,0:0:0:0:
315,278,66756,1,10,0:0:0:0:
307,270,66849,1,2,0:0:0:0:
297,264,66943,2,0,B|220:240|208:311|127:281,1,173.24999471283,2|2,1:2|1:2,0:0:0:0:
14,160,67506,1,8,0:0:0:0:
184,58,67693,6,0,P|173:122|161:200,1,129.937496034622,2|0,1:2|0:0,0:0:0:0:
234,248,68068,2,0,P|257:212|252:170,1,86.6249973564149,2|8,1:2|0:0,0:0:0:0:
113,7,68443,2,0,P|89:42|94:84,1,86.6249973564149,2|0,1:2|0:0,0:0:0:0:
349,215,68818,2,0,P|393:208|443:199,1,86.6249973564149,2|10,1:2|0:0,0:0:0:0:
194,340,69193,1,2,1:2:0:0:
195,333,69287,1,2,0:0:0:0:
196,326,69381,5,2,1:2:0:0:
147,263,69568,1,0,1:2:0:0:
69,248,69756,1,8,0:0:0:0:
0,288,69943,1,0,1:2:0:0:
209,113,70131,2,0,P|201:155|194:198,1,86.6249973564149,2|0,0:0|1:2,0:0:0:0:
60,94,70506,1,8,0:0:0:0:
297,173,70693,6,0,P|348:135|429:160,1,129.937496034622,2|0,1:2|0:0,0:0:0:0:
480,88,71068,2,0,P|494:48|478:9,1,86.6249973564149,2|8,1:2|0:0,0:0:0:0:
372,230,71443,2,0,P|378:269|388:340,1,86.6249973564149,2|0,1:2|0:0,0:0:0:0:
270,176,71818,1,2,1:2:0:0:
475,258,72006,1,10,0:0:0:0:
326,384,72193,1,2,1:2:0:0:
320,378,72287,1,2,0:0:0:0:
313,373,72381,6,0,B|275:332|228:339|228:339|206:369|158:362,2,173.24999471283,2|8|0,1:2|0:0|0:0,0:0:0:0:
42,268,73318,1,0,1:2:0:0:
179,175,73506,2,0,P|171:219|163:269,1,86.6249973564149,10|0,0:0|1:2,0:0:0:0:
47,73,73881,6,0,B|118:62|118:62|150:80|150:80|216:70,1,173.24999471283,2|10,1:2|0:0,0:0:0:0:
325,143,74443,2,0,P|333:93|340:48,1,86.6249973564149,2|0,1:2|0:0,0:0:0:0:
451,2,74818,1,10,0:0:0:0:
231,81,75006,1,10,0:0:0:0:
413,318,75193,6,0,B|430:199|430:199|411:231|380:235,1,173.24999471283,6|0,1:2|0:0,0:0:0:0:
188,171,75756,1,8,0:3:0:0:
197,170,75849,1,8,0:3:0:0:
205,168,75943,2,0,P|246:162|291:154,1,86.6249973564149,8|0,0:3|0:0,0:0:0:0:
226,47,76318,1,2,1:2:0:0:
455,258,76506,1,8,0:0:0:0:
157,350,76693,1,8,0:3:0:0:
297,379,76881,6,0,L|307:313,1,66,10|0,0:2|0:0,0:0:0:0:
31,204,77068,2,0,L|41:269,1,66,10|0,0:2|0:0,0:0:0:0:
208,169,77256,1,0,1:2:0:0:
148,0,77443,6,0,B|106:33|94:96|113:145|113:145|118:114|144:94,1,210.375004012585,10|0,0:0|0:0,0:0:0:0:
198,248,77818,2,0,L|208:178,1,66,14|0,0:0|0:0,0:0:0:0:
1,58,78006,2,0,P|-14:78|8:66,1,66,0|0,1:2|0:0,0:0:0:0:
296,225,78193,5,0,1:2:0:0:
300,217,78287,1,0,1:2:0:0:
307,211,78381,2,0,P|358:189|394:202,1,86.6249973564149,6|2,1:2|1:2,0:0:0:0:
493,146,78756,1,10,0:2:0:0:
375,363,78943,2,0,P|368:321|361:278,1,86.6249973564149,2|0,1:2|0:0,0:0:0:0:
224,148,79318,1,2,1:2:0:0:
478,260,79506,1,8,0:0:0:0:
258,345,79693,6,0,P|203:312|125:345,1,129.937496034622,2|0,1:2|0:0,0:0:0:0:
46,299,80068,2,0,P|53:344|61:395,1,86.6249973564149,2|10,1:2|0:0,0:0:0:0:
224,148,80443,2,0,P|216:193|208:244,1,86.6249973564149,2|0,1:2|0:0,0:0:0:0:
58,128,80818,2,0,P|48:78|78:42,1,86.6249973564149,2|10,1:2|0:0,0:0:0:0:
304,205,81193,1,2,1:2:0:0:
311,203,81286,1,2,0:0:0:0:
319,202,81381,5,2,1:2:0:0:
402,188,81568,1,0,1:2:0:0:
485,175,81756,1,8,0:0:0:0:
494,181,81943,1,0,1:2:0:0:
360,355,82131,2,0,P|367:307|375:260,1,86.6249973564149,2|0,0:0|1:2,0:0:0:0:
166,129,82506,1,8,0:0:0:0:
136,231,82693,6,0,B|225:247|219:189|309:205,1,173.24999471283,2|2,1:2|1:2,0:0:0:0:
433,104,83256,1,8,0:0:0:0:
290,377,83443,2,0,P|284:335|277:292,1,86.6249973564149,2|8,1:2|0:0,0:0:0:0:
167,130,83818,5,10,0:0:0:0:
410,245,84006,1,10,0:0:0:0:
72,381,84193,1,10,0:0:0:0:
345,167,84381,6,0,B|386:135|438:140|438:140|454:168|492:168,1,165,4|0,1:2|0:0,0:0:0:0:
224,269,84943,1,0,1:2:0:0:
224,269,85131,2,0,P|140:255|59:242,1,165,8|2,0:0|0:0,0:0:0:0:
61,243,85693,1,0,1:2:0:0:
185,356,85881,6,0,P|224:366|264:357,1,82.5,2|8,1:2|0:0,0:0:0:0:
371,149,86256,2,0,P|363:191|354:251,1,82.5,2|2,0:0|1:2,0:0:0:0:
270,72,86631,5,8,0:0:0:0:
490,104,86818,1,10,0:0:0:0:
457,324,87006,1,10,0:0:0:0:
236,291,87193,1,6,1:2:0:0:
256,192,87286,12,0,89067,0:0:0:0:
