osu file format v14

[General]
AudioFilename: audio.mp3
AudioLeadIn: 0
PreviewTime: 66286
Countdown: 0
SampleSet: Soft
StackLeniency: 0.4
Mode: 0
LetterboxInBreaks: 0
EpilepsyWarning: 1
WidescreenStoryboard: 0

[Editor]
DistanceSpacing: 1
BeatDivisor: 8
GridSize: 4
TimelineZoom: 2.3

[Metadata]
Title:Evidence (TV Size)
TitleUnicode:Evidence (TV Size)
Artist:Daisy x Daisy
ArtistUnicode:Daisy×Daisy
Creator:Kudosu
Version:Hard
Source:FAIRY TAIL
Tags:フェアリーテイル op opening 7 season 3 40mP pony canyon jpop j-pop japanese pop anime -mikan soop so0p
BeatmapID:2673454
BeatmapSetID:1286341

[Difficulty]
HPDrainRate:5
CircleSize:4.1
OverallDifficulty:6
ApproachRate:8
SliderMultiplier:1.45
SliderTickRate:1

[Events]
//Background and Video events
Video,-32,"video.mp4"
0,0,"bg.jpg",0,0
//Break Periods
//Storyboard Layer 0 (Background)
//Storyboard Layer 1 (Fail)
//Storyboard Layer 2 (Pass)
//Storyboard Layer 3 (Foreground)
//Storyboard Layer 4 (Overlay)
//Storyboard Sound Samples

[TimingPoints]
380,375,4,2,1,55,1,0
380,-125,4,2,1,55,0,0
5630,-125,4,2,1,70,0,0
6380,-105.263157894737,4,2,1,75,0,1
6567,-105.263157894737,4,2,1,75,0,0
18380,-111.111111111111,4,2,1,65,0,0
42380,-125,4,2,1,60,0,0
54380,-111.111111111111,4,2,1,75,0,0
60380,-105.263157894737,4,2,1,75,0,0
63380,-100,4,2,1,70,0,0
64692,-273.972602739726,4,2,1,70,0,0
64786,-273.972602739726,4,2,1,15,0,0
66380,-100,4,2,2,85,0,0
66567,-100,4,2,1,85,0,1
78192,-100,4,2,1,85,0,0
78380,-100,4,2,1,85,0,1
84380,-100,4,2,1,80,0,0

[Colours]
Combo1 : 250,180,240
Combo2 : 120,200,230
Combo3 : 255,230,130
Combo4 : 160,230,150

[HitObjects]
46,304,380,5,2,0:0:0:0:
46,304,567,2,0,P|74:298|103:294,1,58,2|2,0:0|0:0,0:0:0:0:
182,345,942,2,0,P|190:287|199:230,2,116,2|2|2,0:0|0:0|0:0,0:0:0:0:
283,258,1880,6,0,P|289:230|281:203,1,58,2|2,0:0|0:0,0:0:0:0:
215,144,2255,1,2,0:0:0:0:
215,144,2442,2,0,P|258:116|337:129,1,116,2|2,0:0|0:0,0:0:0:0:
386,64,3005,2,0,P|395:34|383:7,1,58,2|2,0:0|0:0,0:0:0:0:
459,115,3380,6,0,P|449:176|438:241,1,116,2|2,0:0|0:0,0:0:0:0:
361,266,3942,2,0,P|371:327|381:392,1,116,2|2,0:0|0:0,0:0:0:0:
283,298,4505,1,0,0:0:0:0:
283,298,4692,6,0,P|274:268|282:239,1,58,2|2,0:0|0:0,0:0:0:0:
200,309,5067,2,0,P|159:278|75:294,1,116,2|2,0:0|0:0,0:0:0:0:
68,371,5630,1,2,1:2:0:0:
68,371,5723,1,2,0:0:0:0:
68,371,5817,2,0,L|131:360,1,58,2|2,1:2|1:2,0:0:0:0:
28,81,6380,6,0,P|17:149|7:217,1,137.749996321678,6|10,1:2|0:2,0:0:0:0:
83,269,6942,2,0,P|99:232|93:199,1,68.8749981608391,2|0,1:2|0:0,0:0:0:0:
0,308,7317,2,0,P|7:345|15:402,1,68.8749981608391,2|8,1:2|0:0,0:0:0:0:
144,342,7692,6,0,B|197:332|197:332|227:348|227:348|276:341,1,137.749996321678,2|0,1:2|1:2,0:0:0:0:
371,316,8255,2,0,P|364:353|355:410,1,68.8749981608391,8|0,2:2|1:2,0:0:0:0:
301,246,8630,2,0,P|290:208|313:161,1,68.8749981608391,2|0,0:0|1:2,0:0:0:0:
375,137,9005,2,0,P|412:144|469:152,1,68.8749981608391,10|0,0:0|1:2,0:0:0:0:
298,90,9380,6,0,P|211:104|139:115,1,137.749996321678,2|10,1:2|0:0,0:0:0:0:
112,38,9942,2,0,P|150:24|189:29,1,68.8749981608391,2|0,1:2|0:0,0:0:0:0:
74,116,10317,2,0,P|29:108|-5:103,1,68.8749981608391,2|8,1:2|0:0,0:0:0:0:
122,188,10692,6,0,P|110:265|97:342,1,137.749996321678,2|2,1:2|1:2,0:0:0:0:
17,357,11255,2,0,P|13:306|28:282,1,68.8749981608391,10|2,0:0|1:2,0:0:0:0:
166,379,11630,2,0,P|210:371|245:366,1,68.8749981608391,2|2,0:0|1:2,0:0:0:0:
349,384,12005,2,0,L|356:336,3,34.4374990804196,8|8|10|10,0:0|0:0|0:0|0:0,0:0:0:0:
325,324,12380,6,0,P|319:285|312:246,1,68.8749981608391,6|2,1:2|1:2,0:0:0:0:
383,161,12755,1,10,0:2:0:0:
383,161,12942,2,0,B|330:151|330:151|301:167|301:167|249:159,1,137.749996321678,2|2,1:2|1:2,0:0:0:0:
167,200,13505,1,8,0:0:0:0:
99,139,13692,6,0,L|112:52,1,68.8749981608391,2|0,1:2|1:2,0:0:0:0:
38,24,14067,2,0,P|17:57|28:103,1,68.8749981608391,0|8,1:2|0:0,0:0:0:0:
176,11,14442,1,0,1:2:0:0:
176,11,14630,2,0,L|262:24,1,68.8749981608391,2|0,1:2|1:2,0:0:0:0:
229,110,15005,2,0,L|151:97,1,68.8749981608391,10|0,0:0|1:2,0:0:0:0:
314,79,15380,6,0,B|387:65|383:120|454:105,1,137.749996321678,2|10,1:2|0:0,0:0:0:0:
341,231,15942,2,0,L|328:151,1,68.8749981608391,2|0,1:2|0:0,0:0:0:0:
420,194,16317,2,0,P|428:214|422:266,1,68.8749981608391,2|8,1:2|0:0,0:0:0:0:
358,318,16692,2,0,B|306:308|306:308|277:324|277:324|225:316,1,137.749996321678,2|2,1:2|1:2,0:0:0:0:
138,360,17255,2,0,L|124:273,1,68.8749981608391,10|8,0:0|2:3,0:0:0:0:
194,229,17630,1,10,2:2:0:0:
137,158,17817,1,8,0:0:0:0:
138,149,17911,1,8,0:0:0:0:
140,140,18005,2,0,L|146:100,3,34.4374990804196,10|8|8|8,0:0|0:0|0:0|0:0,0:0:0:0:
130,82,18380,6,0,L|-12:104,1,130.499996017456,6|8,1:2|0:0,0:0:0:0:
76,14,18942,2,0,P|137:-4|195:21,1,130.499996017456,0|2,1:2|1:2,0:0:0:0:
269,66,19505,2,0,L|340:54,1,65.2499980087281,8|2,0:0|1:2,0:0:0:0:
430,29,19880,5,0,1:2:0:0:
430,29,20067,2,0,L|418:100,1,66,2|8,1:2|0:0,0:0:0:0:
343,147,20442,2,0,L|354:218,1,66,2|0,1:2|0:0,0:0:0:0:
409,334,20817,2,0,P|344:298|286:321,1,130.499996017456,2|0,1:2|1:2,0:0:0:0:
208,384,21380,6,0,P|198:318|185:241,1,130.499996017456,2|10,1:2|0:0,0:0:0:0:
262,203,21942,1,2,1:2:0:0:
262,203,22130,2,0,P|276:232|275:267,1,65.2499980087281,2|2,2:2|1:2,0:0:0:0:
170,159,22505,2,0,L|181:87,1,65.2499980087281,10|2,0:0|1:2,0:0:0:0:
143,8,22880,6,0,B|193:0|193:0|221:14|221:14|272:7,1,130.499996017456,0|8,1:2|0:0,0:0:0:0:
352,171,23630,2,0,L|362:105,1,65.2499980087281,2|0,0:0|1:2,0:0:0:0:
429,220,24005,2,0,P|459:225|494:209,1,65.2499980087281,10|0,0:0|1:2,0:0:0:0:
343,266,24380,6,0,P|291:227|228:241,1,130.499996017456,2|8,1:2|0:0,0:0:0:0:
139,298,24942,2,0,P|150:227|162:147,1,130.499996017456,0|2,1:2|1:2,0:0:0:0:
250,124,25505,1,8,0:0:0:0:
168,70,25692,2,0,P|131:76|88:82,1,65.2499980087281,2|0,1:2|1:2,0:0:0:0:
257,24,26067,6,0,P|323:34|399:46,1,130.499996017456,2|2,1:2|1:2,0:0:0:0:
477,65,26630,2,0,P|469:21|463:-21,1,65.2499980087281,0|0,0:0|1:2,0:0:0:0:
417,125,27005,2,0,P|410:168|431:203,1,65.2499980087281,10|0,0:0|1:2,0:0:0:0:
512,271,27380,6,0,B|462:263|462:263|434:277|434:277|383:270,1,130.499996017456,2|10,1:2|0:0,0:0:0:0:
313,223,27942,2,0,P|280:228|247:233,1,65.2499980087281,2|0,1:2|0:0,0:0:0:0:
172,186,28317,2,0,P|177:153|182:120,1,65.2499980087281,2|10,1:2|0:0,0:0:0:0:
79,195,28692,2,0,P|89:254|101:337,1,130.499996017456,2|2,1:2|1:2,0:0:0:0:
31,376,29255,2,0,P|12:341|18:303,1,65.2499980087281,8|0,0:0|1:2,0:0:0:0:
173,373,29630,2,0,P|224:339|296:357,1,130.499996017456,2|10,0:0|0:0,0:0:0:0:
369,384,30192,1,8,0:0:0:0:
370,375,30286,1,8,0:0:0:0:
371,366,30380,6,0,L|381:300,1,65.2499980087281,6|0,1:2|1:2,0:0:0:0:
450,244,30755,1,8,0:0:0:0:
366,211,30942,2,0,B|316:217|316:217|288:203|288:203|238:211,1,130.499996017456,0|2,1:2|1:2,0:0:0:0:
170,153,31505,2,0,P|175:116|183:66,1,65.2499980087281,8|2,0:0|1:2,0:0:0:0:
85,180,31880,5,0,1:2:0:0:
85,180,32067,2,0,P|95:239|107:322,1,130.499996017456,2|2,1:2|1:2,0:0:0:0:
255,176,32817,2,0,P|258:126|230:95,1,65.2499980087281,2|8,1:2|0:0,0:0:0:0:
341,207,33192,1,2,1:2:0:0:
341,207,33380,6,0,P|392:173|464:191,1,130.499996017456,2|10,1:2|0:0,0:0:0:0:
471,272,33942,2,0,P|439:266|384:258,1,65.2499980087281,2|0,1:2|0:0,0:0:0:0:
326,319,34317,2,0,P|332:352|337:384,1,65.2499980087281,2|10,1:2|0:0,0:0:0:0:
239,268,34692,1,2,1:2:0:0:
239,268,34880,6,0,B|189:260|189:260|161:274|161:274|110:267,1,130.499996017456,0|8,1:2|0:0,0:0:0:0:
0,67,35630,2,0,L|10:132,1,65.2499980087281,2|0,0:0|1:2,0:0:0:0:
105,120,36005,2,0,L|94:54,1,65.2499980087281,10|0,0:0|1:2,0:0:0:0:
210,132,36380,6,0,P|200:191|188:274,1,130.499996017456,2|8,1:2|0:0,0:0:0:0:
142,379,36942,2,0,P|193:345|265:363,1,130.499996017456,0|2,1:2|1:2,0:0:0:0:
343,383,37505,1,8,0:0:0:0:
418,329,37692,6,0,P|422:293|407:263,1,65.2499980087281,2|0,1:2|1:2,0:0:0:0:
331,217,38067,2,0,P|336:184|341:151,1,65.2499980087281,2|8,1:2|0:0,0:0:0:0:
369,61,38442,2,0,B|307:43|302:94|233:76,1,130.499996017456,2|0,1:2|1:2,0:0:0:0:
186,19,39005,2,0,P|224:-1|270:8,1,65.2499980087281,10|0,0:0|1:2,0:0:0:0:
161,104,39380,6,0,P|171:169|181:234,1,130.499996017456,2|10,1:2|0:0,0:0:0:0:
121,290,39942,2,0,P|100:245|113:211,1,65.2499980087281,2|0,1:2|0:0,0:0:0:0:
214,327,40317,2,0,P|265:293|337:311,1,130.499996017456,2|2,1:2|1:2,0:0:0:0:
416,268,40880,1,0,1:2:0:0:
502,230,41067,2,0,P|509:182|518:135,1,65.2499980087281,2|8,1:2|0:0,0:0:0:0:
455,59,41442,5,2,1:1:0:0:
457,77,41630,1,2,2:1:0:0:
459,95,41817,1,10,0:3:0:0:
512,164,42005,1,10,0:0:0:0:
427,175,42192,1,8,0:0:0:0:
427,175,42286,1,8,0:0:0:0:
427,175,42380,6,0,P|361:164|298:154,1,116,6|2,1:2|0:0,0:0:0:0:
228,195,42942,2,0,P|223:164|217:134,1,58,2|8,1:2|0:0,0:0:0:0:
303,248,43317,2,0,P|310:287|292:323,1,58,2|0,0:0|0:0,0:0:0:0:
380,356,43692,6,0,P|440:348|502:339,2,116,10|10|2,0:0|0:0|1:2,0:0:0:0:
282,336,44630,1,8,0:0:0:0:
211,384,44817,2,0,P|178:377|141:372,1,58,2|0,0:0|0:0,0:0:0:0:
66,384,45192,1,2,1:2:0:0:
66,384,45380,6,0,P|55:315|45:257,1,116,2|2,1:2|0:0,0:0:0:0:
101,200,45942,2,0,B|135:205|180:212,1,58,2|8,1:2|0:0,0:0:0:0:
25,154,46317,2,0,P|14:111|34:80,1,58,2|0,0:0|0:0,0:0:0:0:
103,117,46692,2,0,P|151:88|228:110,2,116,10|10|2,0:0|0:0|1:2,0:0:0:0:
197,179,47630,2,0,P|232:173|268:167,1,58,8|0,0:0|0:0,0:0:0:0:
337,210,48005,2,0,P|341:179|346:148,1,58,2|0,0:0|1:2,0:0:0:0:
260,262,48380,6,0,P|270:326|279:384,1,116,2|2,1:2|0:0,0:0:0:0:
367,301,48942,2,0,P|402:307|438:312,1,58,2|8,1:2|0:0,0:0:0:0:
439,213,49317,2,0,P|408:208|377:203,1,58,2|0,0:0|0:0,0:0:0:0:
498,272,49692,2,0,P|488:212|477:145,2,116,10|10|2,0:0|0:0|1:2,0:0:0:0:
425,317,50630,1,8,0:0:0:0:
351,362,50817,2,0,L|279:350,1,58,2|0,0:0|0:0,0:0:0:0:
207,384,51192,1,2,1:2:0:0:
207,384,51380,6,0,P|196:315|186:257,1,116,2|2,1:2|0:0,0:0:0:0:
257,218,51942,2,0,L|267:156,1,58,2|8,1:2|0:0,0:0:0:0:
200,99,52317,2,0,P|181:124|179:153,1,58,2|0,0:0|0:0,0:0:0:0:
291,67,52692,2,0,P|354:78|417:87,2,116,10|10|2,0:0|0:0|1:2,0:0:0:0:
219,9,53630,2,0,L|139:21,1,58,8|8,0:0|0:0,0:0:0:0:
68,0,54005,1,10,0:0:0:0:
136,113,54192,1,8,0:0:0:0:
136,113,54286,1,8,0:0:0:0:
136,113,54380,6,0,P|126:172|114:255,1,130.499996017456,6|10,1:2|0:0,0:0:0:0:
34,274,54942,2,0,P|32:215|55:193,1,65.2499980087281,2|0,1:2|0:0,0:0:0:0:
177,305,55317,2,0,P|218:270|298:278,1,130.499996017456,2|2,1:2|1:2,0:0:0:0:
378,320,55880,1,0,1:2:0:0:
454,258,56067,2,0,P|449:222|442:186,1,65.2499980087281,2|8,1:2|0:0,0:0:0:0:
512,118,56442,2,0,P|446:108|381:97,1,130.499996017456,2|0,1:2|1:2,0:0:0:0:
293,61,57005,2,0,P|287:21|311:-12,1,65.2499980087281,10|0,0:0|1:2,0:0:0:0:
208,108,57380,6,0,P|167:73|87:81,1,130.499996017456,2|10,1:2|0:0,0:0:0:0:
0,179,57942,2,0,P|67:167|134:157,1,130.499996017456,2|2,1:2|1:2,0:0:0:0:
242,198,58505,1,8,0:0:0:0:
242,198,58692,2,0,L|231:262,1,65.2499980087281,2|0,1:2|1:2,0:0:0:0:
156,319,59067,2,0,L|167:390,1,65.2499980087281,2|8,1:2|0:0,0:0:0:0:
300,324,59442,2,0,L|434:302,1,130.499996017456,2|10,1:2|2:2,0:0:0:0:
486,367,60005,2,0,P|433:386|402:372,1,65.2499980087281,10|2,2:2|1:2,0:0:0:0:
354,228,60380,6,0,P|364:162|379:69,2,137.749996321678,14|8|8,0:0|0:0|0:0,0:0:0:0:
421,295,61317,1,0,1:0:0:0:
330,320,61505,2,0,P|293:314|250:307,1,68.8749981608391,8|0,0:0|1:0,0:0:0:0:
154,286,61880,2,0,P|160:323|166:360,1,68.8749981608391,8|0,0:0|1:0,0:0:0:0:
223,226,62255,2,0,P|233:187|215:150,1,68.8749981608391,8|0,0:0|1:0,0:0:0:0:
154,100,62630,2,0,L|98:108,3,34.4374990804196,10|2|2|2,0:0|0:0|1:2|0:0,0:0:0:0:
106,108,63005,1,10,0:0:0:0:
223,40,63192,1,10,0:0:0:0:
223,40,63286,1,10,0:0:0:0:
223,40,63380,6,0,L|366:62,1,145,6|8,1:2|0:0,0:0:0:0:
447,109,63942,2,0,P|460:72|453:34,1,72.5,2|0,1:2|0:0,0:0:0:0:
339,149,64317,2,0,L|354:243,1,72.5,10|8,0:0|0:0,0:0:0:0:
512,329,64692,2,0,B|476:283|420:287|420:287|394:320|348:310,1,185.2375050877,6|0,1:2|0:0,0:0:0:0:
27,230,66380,6,0,B|102:217|95:269|169:257,1,145,14|10,1:3|0:0,0:0:0:0:
261,242,66942,2,0,P|254:277|249:313,1,72.5,2|0,1:2|0:0,0:0:0:0:
200,180,67317,2,0,P|190:128|215:94,1,72.5,2|8,1:2|0:0,0:0:0:0:
338,199,67692,6,0,P|383:166|468:184,1,145,2|2,1:2|1:2,0:0:0:0:
496,265,68255,1,8,0:0:0:0:
486,273,68442,2,0,P|450:266|414:261,1,72.5,2|0,1:2|0:0,0:0:0:0:
333,366,68817,2,0,P|326:323|321:294,1,72.5,2|10,1:2|0:0,0:0:0:0:
229,344,69192,1,2,1:2:0:0:
229,344,69286,1,2,0:0:0:0:
229,344,69380,6,0,B|172:333|172:333|140:350|140:350|88:342,2,145,2|8|2,1:2|0:0|0:0,0:0:0:0:
321,294,70317,2,0,P|362:288|392:305,1,72.5,0|8,1:2|0:0,0:0:0:0:
232,240,70692,2,0,P|245:159|257:81,1,145,2|2,1:2|1:2,0:0:0:0:
229,19,71255,1,8,0:0:0:0:
337,92,71442,2,0,P|371:86|408:80,1,72.5,2|0,1:2|0:0,0:0:0:0:
512,169,71817,2,0,P|477:163|440:157,1,72.5,2|10,1:2|0:0,0:0:0:0:
371,220,72192,1,2,1:2:0:0:
371,220,72286,1,2,0:0:0:0:
371,220,72380,6,0,P|383:296|394:370,1,145,2|8,1:2|0:0,0:0:0:0:
483,384,72942,1,0,1:2:0:0:
483,384,73130,2,0,P|489:348|471:312,1,72.5,0|0,0:0|1:2,0:0:0:0:
308,384,73505,2,0,P|273:378|236:372,1,72.5,10|0,0:0|1:2,0:0:0:0:
146,384,73880,6,0,P|136:316|123:241,1,145,2|10,1:2|0:0,0:0:0:0:
211,192,74442,2,0,P|228:222|224:258,1,72.5,2|0,1:2|0:0,0:0:0:0:
132,154,74817,1,10,0:0:0:0:
147,72,75005,1,10,0:0:0:0:
107,0,75192,6,0,B|164:-26|221:2|194:31|256:61|309:34,1,217.5,6|8,1:2|0:3,0:0:0:0:
307,34,75848,1,8,0:3:0:0:
307,34,75942,1,8,0:3:0:0:
447,195,76317,2,0,P|453:154|458:123,1,72.5,2|8,1:2|0:0,0:0:0:0:
355,222,76692,1,8,0:3:0:0:
425,288,76880,6,0,P|461:282|496:276,1,72.5,10|10,0:2|0:2,0:0:0:0:
280,370,77442,2,0,P|244:364|208:358,1,72.5,10|0,0:0|0:0,0:0:0:0:
123,384,77817,2,0,P|112:311|99:233,1,145,14|0,0:0|1:2,0:0:0:0:
211,190,78380,5,6,1:2:0:0:
211,190,78567,2,0,P|205:226|200:262,1,72.5,2|10,1:2|0:2,0:0:0:0:
124,154,78942,2,0,P|115:119|128:86,1,72.5,2|0,1:2|0:0,0:0:0:0:
238,15,79317,2,0,P|232:55|226:86,1,72.5,2|8,1:2|0:0,0:0:0:0:
309,134,79692,6,0,B|366:123|366:123|398:140|398:140|450:132,1,145,2|2,1:2|1:2,0:0:0:0:
512,224,80255,1,10,0:0:0:0:
502,232,80442,2,0,P|466:225|430:220,1,72.5,2|0,1:2|0:0,0:0:0:0:
360,278,80817,2,0,P|366:312|371:349,1,72.5,2|10,1:2|0:0,0:0:0:0:
275,247,81192,1,2,1:2:0:0:
275,247,81286,1,2,0:0:0:0:
275,247,81380,6,0,B|200:234|207:286|133:274,2,145,2|8|2,1:2|0:0|0:0,0:0:0:0:
351,180,82317,2,0,P|395:177|442:201,1,72.5,0|8,1:2|0:0,0:0:0:0:
259,143,82692,2,0,P|244:98|268:54,1,72.5,2|0,1:2|1:2,0:0:0:0:
349,21,83067,2,0,L|338:93,1,72.5,2|8,1:2|0:0,0:0:0:0:
173,179,83442,1,2,1:2:0:0:
157,176,83630,1,8,0:0:0:0:
141,173,83817,1,10,0:0:0:0:
248,236,84005,2,0,P|285:230|319:224,1,72.5,10|10,0:0|0:0,0:0:0:0:
492,290,84380,6,0,B|435:264|378:292|405:321|343:351|290:324,1,217.5,4|0,1:2|1:2,0:0:0:0:
196,383,85130,2,0,P|208:311|218:239,1,145,8|2,0:0|0:0,0:0:0:0:
119,79,85880,6,0,P|125:38|130:7,1,72.5,2|8,1:2|0:0,0:0:0:0:
27,106,86255,1,2,0:0:0:0:
97,172,86443,2,0,P|133:166|168:160,1,72.5,2|8,1:2|0:0,0:0:0:0:
320,31,86817,5,10,0:0:0:0:
232,81,87005,1,10,0:0:0:0:
320,131,87192,1,6,1:2:0:0:
