osu file format v14

[General]
AudioFilename: audio.mp3
AudioLeadIn: 0
PreviewTime: 228430
Countdown: 0
SampleSet: Soft
StackLeniency: 0.7
Mode: 0
LetterboxInBreaks: 0
WidescreenStoryboard: 0

[Editor]
Bookmarks: 570,6570,12570,24570,36570,48570,60570,66570,72570,96570,108570,120570,132570,144570,150570,156570,177382,198382,213570,228570,252570,264570,270570,276570,287070
DistanceSpacing: 0.4
BeatDivisor: 4
GridSize: 16
TimelineZoom: 2.3

[Metadata]
Title:Evidence
TitleUnicode:Evidence
Artist:Daisy x Daisy
ArtistUnicode:Daisy×Daisy
Creator:Subahibi
Version:Insane
Source:FAIRY TAIL
Tags:フェアリーテイル op opening 7 season 3 40mp pony canyon jpop j-pop japanese pop anime female vocalist
BeatmapID:3481382
BeatmapSetID:1703793

[Difficulty]
HPDrainRate:5
CircleSize:3.6
OverallDifficulty:8.2
ApproachRate:9
SliderMultiplier:1.9
SliderTickRate:1

[Events]
//Background and Video events
0,0,"why he ourple.jpg",0,0
//Break Periods
//Storyboard Layer 0 (Background)
//Storyboard Layer 1 (Fail)
//Storyboard Layer 2 (Pass)
//Storyboard Layer 3 (Foreground)
//Storyboard Layer 4 (Overlay)
//Storyboard Sound Samples

[TimingPoints]
570,375,4,2,1,30,1,0
570,-166.666666666667,4,2,1,30,0,0
6570,-200,4,2,1,40,0,0
12570,-111.111111111111,4,2,1,60,0,0
13413,-111.111111111111,4,2,1,5,0,0
13507,-111.111111111111,4,2,1,60,0,0
15476,-111.111111111111,4,2,1,5,0,0
15570,-111.111111111111,4,2,1,60,0,0
17163,-111.111111111111,4,2,1,5,0,0
17257,-111.111111111111,4,2,1,60,0,0
21851,-111.111111111111,4,2,1,5,0,0
21945,-111.111111111111,4,2,1,60,0,0
22788,-111.111111111111,4,2,1,5,0,0
22882,-111.111111111111,4,2,1,60,0,0
23913,-111.111111111111,4,2,1,5,0,0
24007,-111.111111111111,4,2,1,60,0,0
24101,-111.111111111111,4,2,1,5,0,0
24195,-111.111111111111,4,2,1,60,0,0
24570,-125,4,2,1,50,0,0
26538,-125,4,2,1,5,0,0
26632,-125,4,2,1,50,0,0
27851,-125,4,2,1,5,0,0
27945,-125,4,2,1,50,0,0
33476,-125,4,2,1,5,0,0
33570,-125,4,2,1,50,0,0
34413,-125,4,2,1,5,0,0
34507,-125,4,2,1,50,0,0
35163,-125,4,2,1,5,0,0
35257,-125,4,2,1,50,0,0
38913,-125,4,2,1,5,0,0
39007,-125,4,2,1,50,0,0
43413,-125,4,2,1,5,0,0
43507,-125,4,2,1,50,0,0
44538,-125,4,2,1,5,0,0
44632,-125,4,2,1,50,0,0
48570,-111.111111111111,4,2,1,60,0,0
70882,-222.222222222222,4,2,1,60,0,0
72570,-100,4,2,2,80,0,1
72663,-100,4,2,2,5,0,1
72757,-100,4,2,1,80,0,1
72851,-100,4,2,1,5,0,1
72945,-100,4,2,1,80,0,1
73038,-100,4,2,1,5,0,1
73132,-100,4,2,1,80,0,1
73413,-100,4,2,1,5,0,1
73507,-100,4,2,1,80,0,1
74913,-100,4,2,1,5,0,1
75007,-100,4,2,1,80,0,1
75851,-100,4,2,1,5,0,1
75945,-100,4,2,1,80,0,1
78570,-111.111111111111,4,2,1,80,0,1
78945,-100,4,2,1,80,0,1
81382,-111.111111111111,4,2,1,80,0,1
83913,-111.111111111111,4,2,1,5,0,1
84007,-100,4,2,1,80,0,1
88226,-100,4,2,1,5,0,1
88320,-100,4,2,1,80,0,1
88601,-100,4,2,1,5,0,1
88695,-100,4,2,1,80,0,1
90570,-125,4,2,1,70,0,0
91601,-125,4,2,1,5,0,0
91695,-125,4,2,1,70,0,0
93382,-200,4,2,1,70,0,0
96195,-125,4,2,1,70,0,0
96476,-125,4,2,1,5,0,0
96570,-111.111111111111,4,2,1,60,0,0
103413,-111.111111111111,4,2,1,5,0,0
103507,-111.111111111111,4,2,1,60,0,0
106788,-111.111111111111,4,2,1,5,0,0
106882,-111.111111111111,4,2,1,60,0,0
107913,-111.111111111111,4,2,1,5,0,0
108007,-111.111111111111,4,2,1,60,0,0
108101,-111.111111111111,4,2,1,5,0,0
108195,-111.111111111111,4,2,1,60,0,0
108570,-125,4,2,1,60,0,0
110538,-125,4,2,1,5,0,0
110632,-125,4,2,1,50,0,0
111851,-125,4,2,1,5,0,0
111945,-125,4,2,1,50,0,0
114476,-125,4,2,1,5,0,0
114570,-125,4,2,1,50,0,0
115976,-125,4,2,1,5,0,0
116070,-125,4,2,1,50,0,0
116538,-125,4,2,1,5,0,0
116632,-125,4,2,1,50,0,0
120101,-125,4,2,1,5,0,0
120195,-125,4,2,1,50,0,0
120476,-125,4,2,1,5,0,0
120570,-125,4,2,1,50,0,0
121413,-125,4,2,1,5,0,0
121507,-125,4,2,1,50,0,0
123851,-125,4,2,1,5,0,0
123945,-125,4,2,1,50,0,0
127413,-125,4,2,1,5,0,0
127507,-125,4,2,1,50,0,0
129476,-125,4,2,1,5,0,0
129570,-125,4,2,1,50,0,0
132570,-111.111111111111,4,2,1,60,0,0
147476,-111.111111111111,4,2,1,5,0,0
147570,-111.111111111111,4,2,1,60,0,0
155632,-111.111111111111,4,2,1,60,0,0
156570,-100,4,2,2,80,0,1
156663,-100,4,2,2,5,0,1
156757,-100,4,2,1,80,0,1
156851,-100,4,2,1,5,0,1
156945,-100,4,2,1,80,0,1
157038,-100,4,2,1,5,0,1
157132,-100,4,2,1,80,0,1
157413,-100,4,2,1,5,0,1
157507,-100,4,2,1,80,0,1
158163,-100,4,2,1,5,0,1
158257,-100,4,2,1,80,0,1
163976,-100,4,2,1,5,0,1
164070,-100,4,2,1,80,0,1
164913,-100,4,2,1,5,0,1
165007,-100,4,2,1,80,0,1
165382,-99.9999999999999,4,2,1,80,0,1
167913,-111.111111111111,4,2,1,5,0,1
168007,-111.111111111111,4,2,1,80,0,1
169132,-99.9999999999999,4,2,1,80,0,1
169413,-99.9999999999999,4,2,1,5,0,1
169507,-99.9999999999999,4,2,1,80,0,1
170538,-99.9999999999999,4,2,1,5,0,1
170632,-99.9999999999999,4,2,1,80,0,1
172320,-111.111111111111,4,2,1,80,0,1
174570,-125,4,2,1,70,0,0
177382,-100,4,2,1,70,0,0
179913,-100,4,2,1,5,0,0
180007,-100,4,2,1,70,0,0
185913,-100,4,2,1,5,0,0
186007,-100,4,2,1,70,0,0
191913,-100,4,2,1,5,0,0
192007,-100,4,2,1,70,0,0
193320,-100,4,2,1,70,0,0
193413,-100,4,2,1,5,0,0
193507,-100,4,2,1,70,0,0
193601,-100,4,2,1,5,0,0
193695,-100,4,2,1,70,0,0
193788,-100,4,2,1,5,0,0
193882,-100,4,2,1,70,0,0
194163,-100,4,2,1,5,0,0
194257,-100,4,2,1,70,0,0
195570,-125,4,2,1,60,0,0
198382,-200,4,2,1,50,0,0
201570,-142.857142857143,4,2,1,60,0,0
213570,-125,4,2,1,50,0,0
219570,-111.111111111111,4,2,1,50,0,0
221070,-111.111111111111,4,2,1,60,0,0
222570,-111.111111111111,4,2,1,70,0,0
224070,-111.111111111111,4,2,1,80,0,0
225570,-111.111111111111,4,2,1,80,0,0
226882,-200,4,2,1,60,0,0
228570,-100,4,2,2,80,0,1
228663,-100,4,2,2,5,0,1
228757,-100,4,2,1,80,0,1
228851,-100,4,2,1,5,0,1
228945,-100,4,2,1,80,0,1
229038,-100,4,2,1,5,0,1
229132,-100,4,2,1,80,0,1
229413,-100,4,2,1,5,0,1
229507,-100,4,2,1,80,0,1
230538,-100,4,2,1,5,0,1
230632,-100,4,2,1,80,0,1
235976,-100,4,2,1,5,0,1
236070,-100,4,2,1,80,0,1
237382,-111.111111111111,4,2,1,80,0,1
239913,-100,4,2,1,5,0,1
240007,-100,4,2,1,80,0,1
242163,-100,4,2,1,5,0,1
242257,-100,4,2,1,80,0,1
244226,-100,4,2,1,5,0,1
244320,-100,4,2,1,80,0,1
246570,-125,4,2,1,70,0,0
249757,-125,4,2,1,50,0,0
250882,-125,4,2,1,60,0,0
251820,-125,4,2,1,70,0,0
252007,-125,4,2,1,80,0,0
252570,-111.111111111111,4,2,1,60,0,0
253413,-111.111111111111,4,2,1,5,0,0
253507,-111.111111111111,4,2,1,60,0,0
255476,-111.111111111111,4,2,1,5,0,0
255570,-111.111111111111,4,2,1,60,0,0
256507,-125,4,2,1,60,0,0
256882,-111.111111111111,4,2,1,60,0,0
259413,-111.111111111111,4,2,1,5,0,0
259507,-111.111111111111,4,2,1,60,0,0
261476,-111.111111111111,4,2,1,5,0,0
261570,-111.111111111111,4,2,1,60,0,0
262413,-111.111111111111,4,2,1,5,0,0
262507,-111.111111111111,4,2,1,60,0,0
267476,-111.111111111111,4,2,1,5,0,0
267570,-111.111111111111,4,2,1,60,0,0
270382,-111.111111111111,4,2,1,80,0,0
276195,-111.111111111111,4,2,1,80,0,0
276288,-111.111111111111,4,2,1,70,0,0
276382,-111.111111111111,4,2,1,60,0,0
276476,-111.111111111111,4,2,1,50,0,0
276570,-166.666666666667,4,2,1,40,0,0
282757,-270.27027027027,4,2,1,60,0,0
282851,-270.27027027027,4,2,1,5,0,0
287070,-270.27027027027,4,2,1,5,0,0

[Colours]
Combo1 : 176,255,174
Combo2 : 124,111,253
Combo3 : 255,128,192

[HitObjects]
115,332,570,5,2,0:0:0:0:
135,309,757,1,0,0:0:0:0:
145,280,945,1,0,0:0:0:0:
141,250,1132,1,0,0:0:0:0:
209,182,1507,1,0,0:0:0:0:
59,277,1882,1,0,0:0:0:0:
117,338,2070,6,1,B|147:340|175:350|175:350|212:339|212:339|250:356|282:357,1,170.999994781494,2|0,0:0|0:0,0:0:0:0:
270,267,2820,1,0,0:0:0:0:
181,263,3195,1,0,0:0:0:0:
291,352,3570,5,2,0:0:0:0:
367,292,3945,1,0,0:0:0:0:
367,292,4132,2,0,L|482:270,1,113.999996520996
512,174,4882,1,0,0:0:0:0:
456,90,5070,5,2,0:0:0:0:
461,62,5257,1,0,0:0:0:0:
479,36,5445,1,0,0:0:0:0:
358,22,5820,1,0,0:0:0:0:
261,73,6195,1,0,0:0:0:0:
154,46,6570,6,0,L|147:0,1,47.5,2|2,0:0|0:0,0:0:0:0:
60,14,6945,1,2,0:0:0:0:
60,14,7132,2,0,L|69:61,1,47.5,2|0,0:0|0:0,0:0:0:0:
42,144,7507,2,0,P|78:150|128:127,1,95,2|0,0:0|0:0,0:0:0:0:
216,115,8070,6,0,P|222:162|234:218,1,95,2|2,0:0|0:0,0:0:0:0:
397,182,8820,1,2,0:0:0:0:
296,49,9195,1,2,0:0:0:0:
435,18,9570,6,0,P|419:63|363:90,1,95,2|2,0:0|0:0,0:0:0:0:
307,150,10132,2,0,P|297:197|290:244,1,95,2|2,0:0|0:0,0:0:0:0:
220,108,10882,1,2,0:0:0:0:
220,108,11257,1,2,0:0:0:0:
220,108,11632,1,2,0:0:0:0:
205,203,11820,6,0,L|196:249,1,47.5,2|2,1:2|1:2,0:0:0:0:
191,337,12195,2,0,P|179:336|169:331,3,23.75,2|2|2|2,1:0|0:0|1:0|0:0,0:0:0:0:
109,245,12570,6,0,P|115:201|125:153,1,85.4999973907472,6|2,1:2|1:0,0:0:0:0:
194,15,12945,1,10,0:0:0:0:
326,130,13132,2,0,P|264:140|210:108,1,128.249996086121,2|0,1:0|0:0,0:0:0:0:
210,108,13507,2,0,P|199:63|194:18,1,85.4999973907472,2|8,1:0|0:0,0:0:0:0:
370,36,13882,5,2,1:0:0:0:
423,116,14070,1,2,1:0:0:0:
325,121,14257,1,0,1:0:0:0:
458,35,14445,1,8,0:0:0:0:
496,173,14632,2,0,B|485:215|485:215|547:274|493:361,1,170.999994781494,0|0,1:0|1:0,0:0:0:0:
324,292,15195,6,0,P|374:259|432:287,1,128.249996086121,10|0,0:0|0:0,0:0:0:0:
422,369,15570,2,0,P|379:381|331:368,1,85.4999973907472,2|0,1:0|1:0,0:0:0:0:
139,266,15945,1,10,0:0:0:0:
231,240,16132,2,0,P|221:281|215:323,1,85.4999973907472,2|0,1:0|0:0,0:0:0:0:
50,294,16507,2,0,P|59:252|65:210,1,85.4999973907472,2|8,1:0|0:0,0:0:0:0:
229,99,16882,2,0,B|178:66|178:66|114:83,1,128.249996086121,2|0,1:0|0:0,0:0:0:0:
109,89,17257,5,2,1:0:0:0:
143,260,17445,2,0,L|158:176,1,85.4999973907472,10|2,0:0|1:0,0:0:0:0:
316,122,17820,1,2,0:0:0:0:
281,269,18007,1,2,1:0:0:0:
253,187,18195,1,8,0:0:0:0:
374,290,18382,5,10,0:0:0:0:
374,290,18476,1,10,0:0:0:0:
374,290,18570,2,0,P|414:257|419:213,1,85.4999973907472,2|2,1:0|1:0,0:0:0:0:
246,185,18945,1,10,0:0:0:0:
323,123,19132,2,0,P|328:167|337:206,1,85.4999973907472,2|0,1:0|0:0,0:0:0:0:
512,259,19507,2,0,P|507:216|497:175,1,85.4999973907472,2|8,1:0|0:0,0:0:0:0:
410,143,19882,1,2,1:0:0:0:
437,320,20070,5,2,1:0:0:0:
354,292,20257,1,0,1:0:0:0:
424,229,20445,1,8,0:0:0:0:
368,384,20632,2,0,P|326:374|284:369,1,85.4999973907472,0|2,1:0|0:0,0:0:0:0:
126,361,21007,1,0,1:0:0:0:
182,296,21195,2,0,P|224:286|265:281,1,85.4999973907472,10|0,0:0|1:0,0:0:0:0:
74,162,21570,6,0,P|65:224|98:278,1,128.249996086121,2|0,1:0|0:0,0:0:0:0:
105,282,21945,1,10,0:0:0:0:
249,192,22132,2,0,P|207:201|164:206,1,85.4999973907472,2|0,1:0|0:0,0:0:0:0:
78,75,22507,2,0,B|147:74|122:119|194:119,1,128.249996086121,2|0,1:0|0:0,0:0:0:0:
205,117,22882,2,0,P|225:62|202:30,1,85.4999973907472,2|0,1:0|1:0,0:0:0:0:
132,1,23257,5,2,1:0:0:0:
79,68,23445,1,10,0:0:0:0:
25,139,23632,1,2,1:0:0:0:
209,186,23820,6,0,L|202:143,1,42.7499986953736,10|0,0:0|0:0,0:0:0:0:
118,158,24007,2,0,L|124:200,1,42.7499986953736,10|0,0:0|0:0,0:0:0:0:
183,275,24195,1,10,0:0:0:0:
197,298,24288,1,10,0:0:0:0:
206,325,24382,1,10,0:0:0:0:
207,354,24476,1,10,0:0:0:0:
196,380,24570,2,0,P|159:375|121:366,1,76,6|0,1:2|1:0,0:0:0:0:
273,245,24945,5,8,0:0:0:0:
295,334,25132,2,0,B|328:325|328:325|346:305|346:305|410:311|436:242,1,152,2|2,1:0|1:0,0:0:0:0:
339,145,25695,2,0,P|348:183|354:230,1,76,8|2,0:0|1:0,0:0:0:0:
472,343,26070,1,2,1:0:0:0:
461,192,26257,2,0,P|406:184|359:214,1,114,2|0,1:0|0:0,0:0:0:0:
353,219,26632,2,0,P|315:228|268:234,1,76,2|0,1:0|0:0,0:0:0:0:
153,254,27007,2,0,B|189:260|189:260|206:318|274:332,1,152,2|0,1:0|1:0,0:0:0:0:
215,168,27570,6,0,L|92:151,1,114,2|0,1:0|0:0,0:0:0:0:
100,159,27945,2,0,P|84:189|43:204,1,76,10|2,0:0|1:0,0:0:0:0:
30,46,28320,2,0,P|63:44|97:72,1,76,2|0,0:0|1:0,0:0:0:0:
186,152,28695,1,10,0:0:0:0:
306,26,28882,1,2,1:0:0:0:
306,26,29070,2,0,P|239:12|179:100,1,152,2|8,1:0|0:0,0:0:0:0:
276,184,29632,1,2,1:0:0:0:
276,184,29820,2,0,P|268:145|263:109,1,76,2|0,0:0|1:0,0:0:0:0:
352,245,30195,2,0,P|359:206|364:170,1,76,10|0,0:0|1:0,0:0:0:0:
172,293,30570,6,0,B|217:255|267:278|267:278|284:315|331:326,1,152,2|8,1:0|0:0,0:0:0:0:
447,354,31132,2,0,P|410:325|377:326,1,76,2|0,1:0|0:0,0:0:0:0:
243,356,31507,2,0,P|285:338|301:309,1,76,2|8,1:0|0:0,0:0:0:0:
346,172,31882,2,0,P|339:217|356:245,1,76,2|0,1:0|1:0,0:0:0:0:
457,247,32257,1,2,1:0:0:0:
381,93,32445,1,8,0:0:0:0:
494,171,32632,6,0,B|405:146|429:195|346:172,1,152,2|0,1:0|1:0,0:0:0:0:
201,68,33195,2,0,P|263:67|302:131,1,114,10|0,0:0|0:0,0:0:0:0:
292,110,33570,2,0,P|266:146|229:154,1,76,2|0,1:0|1:0,0:0:0:0:
151,145,33945,5,10,0:0:0:0:
247,291,34132,2,0,P|288:253|344:250,1,114,2|0,1:0|0:0,0:0:0:0:
356,254,34507,2,0,L|436:266,1,76,2|10,1:0|0:0,0:0:0:0:
508,89,34882,2,0,P|495:143|450:177,1,114,2|0,1:0|0:0,0:0:0:0:
439,177,35257,2,0,L|359:165,1,76,2|8,1:0|0:0,0:0:0:0:
192,213,35632,1,2,1:0:0:0:
263,120,35820,2,0,P|269:154|274:195,1,76,2|2,0:0|1:0,0:0:0:0:
192,27,36195,2,0,L|172:136,1,76,10|10,0:0|0:0,0:0:0:0:
178,112,36476,5,10,0:0:0:0:
176,122,36570,1,2,1:2:0:0:
95,244,36757,1,2,1:0:0:0:
38,117,36945,1,10,0:0:0:0:
182,213,37132,2,1,B|207:212|241:196|241:196|275:206|275:206|301:197|328:196,1,152,2|2,1:0|1:0,0:0:0:0:
419,216,37695,5,8,0:0:0:0:
278,122,37882,2,0,L|289:46,1,76,2|0,1:0|1:0,0:0:0:0:
405,58,38257,2,0,L|393:136,1,76,2|8,1:0|0:0,0:0:0:0:
244,255,38632,2,0,P|296:201|358:208,1,114,2|0,1:0|0:0,0:0:0:0:
336,205,39007,2,0,P|340:242|348:280,1,76,2|8,1:0|0:0,0:0:0:0:
512,350,39382,5,2,1:0:0:0:
433,236,39570,2,0,P|438:303|383:368,1,152,2|8,1:0|0:0,0:0:0:0:
265,332,40132,2,0,P|261:294|253:257,1,76,2|0,1:0|0:0,0:0:0:0:
100,199,40507,1,2,1:0:0:0:
197,184,40695,1,10,0:0:0:0:
65,294,40882,1,2,1:0:0:0:
169,348,41070,2,0,P|160:310|157:273,1,76,2|0,1:0|1:0,0:0:0:0:
199,194,41445,1,8,0:0:0:0:
95,199,41632,1,0,1:0:0:0:
298,94,41820,6,0,P|294:131|286:168,1,76,2|0,0:0|1:0,0:0:0:0:
201,27,42195,2,0,P|204:64|212:101,1,76,10|0,0:0|1:0,0:0:0:0:
381,107,42476,1,0,1:0:0:0:
381,107,42570,2,0,P|357:33|283:12,1,152,2|8,1:0|0:0,0:0:0:0:
143,182,43132,2,0,L|22:204,1,114,2|0,1:0|0:0,0:0:0:0:
24,202,43507,6,0,P|0:160|14:127,1,76,2|8,1:0|0:0,0:0:0:0:
132,111,43882,2,0,P|156:153|142:186,1,76,2|0,1:0|1:0,0:0:0:0:
57,294,44257,2,0,P|80:269|164:278,1,114,2|0,1:0|0:0,0:0:0:0:
158,279,44632,2,0,L|233:294,1,76,2|0,1:0|0:0,0:0:0:0:
329,296,45007,1,0,1:0:0:0:
352,210,45195,2,0,P|314:206|280:222,1,76,10|0,0:0|1:0,0:0:0:0:
376,370,45570,6,0,P|327:385|288:373,1,76,2|0,1:0|1:0,0:0:0:0:
242,315,45945,1,10,0:0:0:0:
421,280,46132,2,0,P|458:284|496:293,1,76,2|0,1:0|0:0,0:0:0:0:
240,306,46507,2,0,P|203:316|168:331,1,76,2|8,1:0|0:0,0:0:0:0:
20,384,46882,1,2,1:0:0:0:
20,384,46976,1,2,1:0:0:0:
20,384,47070,2,0,P|44:340|42:297,1,76,2|2,1:0|1:0,0:0:0:0:
0,141,47445,5,8,0:0:0:0:
149,106,47632,2,0,P|140:142|135:180,1,76,2|0,1:0|0:0,0:0:0:0:
238,75,48007,1,8,0:3:0:0:
88,44,48195,1,8,0:0:0:0:
228,170,48382,5,10,0:0:0:0:
228,170,48476,1,10,0:0:0:0:
228,170,48570,2,0,B|271:174|271:174|319:102|414:140,1,170.999994781494,2|0,1:2|0:0,0:0:0:0:
479,103,49132,1,0,1:0:0:0:
512,259,49320,2,0,B|480:207|433:205|433:205|395:233|341:210,1,170.999994781494,10|0,0:0|0:0,0:0:0:0:
139,330,49882,2,0,B|127:290|127:290|169:243,1,85.4999973907472,2|0,0:0|1:0,0:0:0:0:
239,271,50257,2,0,B|252:312|252:312|229:346,1,85.4999973907472,2|0,0:0|0:0,0:0:0:0:
136,131,50632,1,0,1:0:0:0:
207,181,50820,2,1,B|217:152|220:122|220:122|246:93|246:93|246:52|259:23,1,170.999994781494,10|0,0:0|0:0,0:0:0:0:
291,199,51382,5,0,1:0:0:0:
134,125,51570,2,0,P|101:126|32:240,1,170.999994781494,2|0,1:2|0:0,0:0:0:0:
52,321,52132,1,0,1:0:0:0:
205,230,52320,2,0,B|169:222|169:222|160:225|160:225|121:216,2,85.4999973907472,10|2|0,0:0|0:0|0:0,0:0:0:0:
326,262,52882,2,0,B|362:254|362:254|371:257|371:257|409:248,1,85.4999973907472,2|0,0:0|1:0,0:0:0:0:
216,140,53257,2,0,B|181:136|181:136|174:130|174:130|134:124,1,85.4999973907472,2|0,0:0|0:0,0:0:0:0:
283,191,53632,1,0,1:0:0:0:
261,384,53820,2,0,B|240:348|240:348|248:305,1,85.4999973907472,10|0,0:0|0:0,0:0:0:0:
289,188,54195,5,2,0:0:0:0:
451,282,54382,1,0,1:0:0:0:
363,384,54570,2,1,B|373:324|373:324|359:287|359:287|373:218,1,170.999994781494,2|0,1:0|0:0,0:0:0:0:
494,87,55132,1,0,1:0:0:0:
360,127,55320,2,0,B|401:119|401:119|462:179|462:179|507:172,1,170.999994781494,10|0,0:0|0:0,0:0:0:0:
486,80,55882,1,10,0:0:0:0:
271,108,56070,5,2,1:0:0:0:
271,108,56257,2,0,B|260:149|260:149|284:184,1,85.4999973907472,2|0,0:0|0:0,0:0:0:0:
222,248,56632,1,2,1:0:0:0:
367,216,56820,2,0,B|350:255|350:255|309:268,1,85.4999973907472,10|0,0:0|0:0,0:0:0:0:
173,177,57195,1,0,0:0:0:0:
209,340,57382,1,2,1:0:0:0:
209,340,57476,1,2,1:0:0:0:
209,340,57570,2,0,B|166:336|166:336|118:408|23:370,1,170.999994781494,2|0,1:2|0:0,0:0:0:0:
4,241,58132,5,0,1:0:0:0:
95,126,58320,2,1,B|80:195|80:195|94:232|94:232|84:291,1,170.999994781494,10|0,0:0|0:0,0:0:0:0:
21,86,58882,2,0,B|45:48|45:48|104:41,1,85.4999973907472,2|0,0:0|1:0,0:0:0:0:
108,208,59257,2,0,B|148:203|148:203|172:165,1,85.4999973907472,2|0,0:0|0:0,0:0:0:0:
171,73,59632,1,0,1:0:0:0:
232,231,59820,5,10,0:0:0:0:
311,195,60007,1,10,0:0:0:0:
258,85,60195,1,10,0:0:0:0:
256,95,60288,1,10,0:0:0:0:
254,106,60382,1,10,0:0:0:0:
252,116,60476,1,10,0:0:0:0:
250,130,60570,2,0,L|232:33,1,85.4999973907472,2|0,1:2|1:0,0:0:0:0:
411,131,60945,5,10,0:0:0:0:
411,131,61132,2,0,P|378:107|336:110,1,85.4999973907472,2|0,1:0|0:0,0:0:0:0:
446,217,61507,2,0,P|488:195|502:152,1,85.4999973907472,2|8,1:0|0:0,0:0:0:0:
354,198,61882,5,2,1:0:0:0:
354,198,62070,2,0,P|341:236|332:281,1,85.4999973907472,2|0,1:0|1:0,0:0:0:0:
248,251,62445,1,10,0:0:0:0:
417,297,62632,2,0,P|430:338|438:380,1,85.4999973907472,2|0,1:0|0:0,0:0:0:0:
333,273,63007,5,0,1:0:0:0:
176,384,63195,2,0,B|154:348|154:348|173:299,1,85.4999973907472,10|0,0:0|1:0,0:0:0:0:
260,343,63476,1,0,1:0:0:0:
260,343,63570,2,0,L|235:228,1,85.4999973907472,2|0,1:0|1:0,0:0:0:0:
122,139,63945,5,10,0:0:0:0:
201,110,64132,2,0,P|207:160|182:199,1,85.4999973907472,2|0,1:0|0:0,0:0:0:0:
42,171,64507,2,0,P|35:120|60:81,1,85.4999973907472,2|8,1:0|0:0,0:0:0:0:
191,189,64882,1,2,1:0:0:0:
191,189,65070,2,0,L|279:174,1,85.4999973907472,2|0,1:0|1:0,0:0:0:0:
391,49,65445,1,8,0:0:0:0:
312,5,65632,2,0,L|297:93,1,85.4999973907472,2|0,1:0|0:0,0:0:0:0:
431,237,66007,5,10,0:0:0:0:
374,150,66195,1,10,0:0:0:0:
341,245,66382,1,2,1:0:0:0:
461,153,66570,5,14,0:0:0:0:
416,322,66757,1,0,1:0:0:0:
221,249,66945,5,10,0:0:0:0:
335,374,67132,1,0,1:0:0:0:
348,237,67320,5,10,0:0:0:0:
235,350,67507,1,0,1:0:0:0:
204,134,67695,5,10,0:0:0:0:
141,308,67882,1,0,1:0:0:0:
67,167,68070,5,10,0:0:0:0:
229,252,68257,1,0,1:0:0:0:
60,354,68445,5,10,0:0:0:0:
147,203,68632,1,0,1:0:0:0:
242,342,68820,6,0,L|227:258,1,85.4999973907472,10|2,0:0|1:0,0:0:0:0:
207,126,69195,2,0,L|201:83,3,42.7499986953736,10|2|10|10,0:0|0:0|0:0|0:0,0:0:0:0:
287,183,69570,5,14,0:0:0:0:
294,87,69945,5,10,0:0:0:0:
219,265,70132,1,6,1:2:0:0:
82,85,70507,5,6,1:2:0:0:
215,125,70695,1,10,0:0:0:0:
58,171,70882,2,1,B|61:185|57:199|57:199|107:238|116:299|116:299|107:238|143:186|143:186|133:173|131:154,1,299.249990867615,6|0,1:2|0:0,0:0:0:0:
83,83,72570,6,0,P|117:67|149:70,1,47.5,14|0,1:3|0:0,0:0:0:0:
212,154,72757,2,0,P|212:178|204:200,1,47.5,2|0,1:0|0:0,0:0:0:0:
82,227,72945,2,0,P|61:214|45:196,1,47.5,10|0,0:0|0:0,0:0:0:0:
127,151,73132,6,0,P|144:217|156:292,1,142.5,2|0,1:0|0:0,0:0:0:0:
149,296,73507,2,0,P|193:279|238:292,1,95,2|8,1:0|0:0,0:0:0:0:
461,220,73882,2,0,P|421:196|375:201,1,95,2|0,1:0|1:0,0:0:0:0:
250,378,74257,1,2,1:0:0:0:
403,285,74445,1,8,0:0:0:0:
292,175,74632,2,0,B|286:261|325:231|317:313,1,142.5,2|0,1:0|0:0,0:0:0:0:
323,322,75007,5,2,1:0:0:0:
190,204,75195,1,10,0:0:0:0:
330,98,75382,1,2,1:0:0:0:
262,255,75570,2,1,B|292:211|265:157|265:157|287:179|304:177,1,142.5,2|0,1:0|0:0,0:0:0:0:
379,166,75945,2,0,P|416:126|411:73,1,95,8|0,0:0|1:0,0:0:0:0:
275,24,76320,5,2,0:0:0:0:
239,106,76507,1,0,1:0:0:0:
374,0,76695,1,8,0:0:0:0:
171,35,76882,6,0,L|70:54,1,95,2|0,1:0|1:0,0:0:0:0:
307,171,77257,2,0,L|408:190,1,95,2|8,1:0|0:0,0:0:0:0:
215,278,77632,2,1,B|217:244|228:212|228:212|216:170|216:170|235:128|236:92,1,190,2|2,1:0|1:0,0:0:0:0:
298,272,78195,1,10,0:0:0:0:
142,124,78382,1,0,1:0:0:0:
142,124,78570,2,0,B|125:166|125:166|131:205,1,85.4999973907472,2|0,1:0|1:0,0:0:0:0:
196,352,78945,6,1,B|226:299|302:306|302:306|318:353|389:358,1,190,10|0,0:0|0:0,0:0:0:0:
491,235,79507,1,0,1:0:0:0:
404,170,79695,2,0,L|387:272,1,95,10|0,0:0|1:0,0:0:0:0:
438,357,80070,2,0,P|378:346|332:373,1,95,2|0,1:0|1:0,2:0:0:0:
133,358,80445,1,10,0:0:0:0:
196,261,80632,2,0,L|297:280,1,95,2|0,1:0|0:0,0:0:0:0:
230,359,81007,5,10,0:0:0:0:
85,251,81195,1,10,0:0:0:0:
192,176,81382,2,0,B|161:181|161:181|103:132|26:165,1,170.999994781494,14|0,0:0|0:0,0:0:0:0:
0,355,81945,1,4,0:3:0:0:
0,355,82038,1,4,0:3:0:0:
0,355,82132,2,0,P|73:327|81:227,1,170.999994781494,4|2,0:3|1:0,0:0:0:0:
37,160,82695,5,8,0:0:0:0:
97,235,82882,1,8,0:3:0:0:
3,251,83070,5,10,0:2:0:0:
75,74,83257,1,10,0:0:0:0:
202,203,83445,1,2,1:0:0:0:
251,124,83632,6,0,P|190:109|136:141,1,128.249996086121,12|0,0:0|0:0,0:0:0:0:
132,149,84007,5,12,0:0:0:0:
259,120,84195,1,2,1:0:0:0:
270,255,84382,1,6,0:3:0:0:
351,231,84570,6,0,L|335:137,1,95,6|2,1:2|1:0,0:0:0:0:
334,328,84945,1,10,0:0:0:0:
500,314,85132,2,0,P|458:279|413:294,1,95,2|0,1:0|0:0,0:0:0:0:
271,265,85507,2,0,P|313:230|358:245,1,95,2|8,1:0|0:0,0:0:0:0:
442,375,85882,1,2,1:0:0:0:
340,321,86070,1,0,1:0:0:0:
440,199,86257,2,0,P|449:252|413:284,1,95,2|8,1:0|0:0,0:0:0:0:
257,247,86632,2,0,P|247:193|283:161,1,95,2|0,1:0|0:0,0:0:0:0:
238,50,87007,5,2,1:0:0:0:
350,217,87195,1,10,0:0:0:0:
399,106,87382,1,2,1:0:0:0:
171,146,87570,2,0,L|153:239,1,95,2|0,1:0|1:0,0:0:0:0:
196,366,87945,2,0,P|162:337|60:350,1,142.5,8|0,0:0|0:0,0:0:0:0:
61,350,88320,6,0,L|35:206,1,142.5,2|0,0:0|0:0,0:0:0:0:
28,205,88695,1,10,0:0:0:0:
217,200,88882,2,0,P|169:243|137:247,1,95,2|0,1:0|1:0,0:0:0:0:
41,84,89257,2,0,P|102:102|122:129,1,95,2|8,1:0|0:0,0:0:0:0:
29,300,89632,2,0,P|14:237|27:206,1,95,2|8,1:0|0:0,0:0:0:0:
125,118,90007,5,10,0:0:0:0:
134,244,90195,1,10,0:0:0:0:
21,302,90382,1,10,0:0:0:0:
234,309,90570,6,1,B|260:311|286:319|286:319|319:310|319:310|352:325|381:326,1,152,6|0,1:2|0:0,0:0:0:0:
483,328,91132,1,0,1:0:0:0:
420,128,91320,2,0,P|380:157|378:237,1,114,10|0,0:0|0:0,0:0:0:0:
372,227,91695,2,0,L|454:241,1,76,2|0,0:0|1:0,0:0:0:0:
443,33,92070,2,0,L|361:47,1,76,2|8,1:0|0:0,0:0:0:0:
167,79,92445,1,2,0:0:0:0:
252,156,92632,2,0,L|272:58,1,76,2|8,1:0|0:0,0:0:0:0:
165,174,93007,5,10,0:0:0:0:
118,247,93195,1,10,0:0:0:0:
52,303,93382,2,1,B|92:298|102:257|102:257|88:201|88:201|103:169|136:168|136:168|259:191|259:191|231:204|222:238,1,380,6|0,1:2|0:0,0:0:0:0:
316,273,95070,5,10,0:2:0:0:
270,88,95257,1,10,0:0:0:0:
66,303,95632,5,10,0:2:0:0:
137,254,95820,1,8,3:0:0:0:
62,218,96007,1,8,0:3:0:0:
149,340,96195,2,0,P|192:356|262:316,1,114,4|0,3:0|0:0,0:0:0:0:
242,242,96570,6,0,L|227:150,1,85.4999973907472,6|2,1:2|1:0,0:0:0:0:
134,165,96945,1,10,0:0:0:0:
324,55,97132,2,0,L|310:139,1,85.4999973907472,2|0,1:0|0:0,0:0:0:0:
235,76,97507,2,0,B|229:34|229:34|259:-6,1,85.4999973907472,2|8,1:0|0:0,0:0:0:0:
392,123,97882,5,2,1:0:0:0:
392,123,98070,2,0,B|398:165|398:165|368:205,1,85.4999973907472,2|0,1:0|1:0,0:0:0:0:
305,135,98445,1,8,0:0:0:0:
467,62,98632,2,0,L|484:158,1,85.4999973907472,0|2,1:0|0:0,0:0:0:0:
387,289,99007,1,0,1:0:0:0:
447,223,99195,2,0,P|407:203|356:210,1,85.4999973907472,10|0,0:0|1:0,0:0:0:0:
223,278,99476,5,0,1:0:0:0:
223,278,99570,2,0,L|308:262,1,85.4999973907472,2|0,1:0|1:0,0:0:0:0:
395,288,99945,1,10,0:0:0:0:
324,349,100132,2,0,L|239:365,1,85.4999973907472,2|0,1:0|0:0,0:0:0:0:
126,298,100507,2,0,B|116:339|116:339|137:376,1,85.4999973907472,2|8,1:0|0:0,0:0:0:0:
232,362,100882,2,0,B|242:321|242:321|221:284,1,85.4999973907472,2|0,1:0|1:0,0:0:0:0:
109,186,101257,5,2,1:0:0:0:
198,171,101444,1,10,0:0:0:0:
283,155,101632,1,2,1:0:0:0:
137,94,101820,2,0,P|94:103|53:108,1,85.4999973907472,2|0,0:0|1:0,0:0:0:0:
17,191,102195,1,10,0:0:0:0:
192,168,102382,5,10,0:0:0:0:
192,168,102476,1,10,0:0:0:0:
192,168,102570,2,0,P|225:121|225:85,1,85.4999973907472,6|2,1:2|1:0,0:0:0:0:
133,90,102945,1,10,0:0:0:0:
261,228,103132,2,0,P|291:192|313:91,1,128.249996086121,2|0,1:0|0:0,0:0:0:0:
321,109,103507,2,0,P|363:119|405:124,1,85.4999973907472,2|8,1:0|0:0,0:0:0:0:
446,215,103882,5,2,1:0:0:0:
388,292,104070,1,2,1:0:0:0:
350,201,104257,1,0,1:0:0:0:
477,297,104445,1,8,0:0:0:0:
322,362,104632,5,0,1:0:0:0:
322,362,104820,2,0,P|281:354|245:376,1,85.4999973907472,2|0,0:0|1:0,0:0:0:0:
52,181,105195,2,0,P|93:173|129:194,1,85.4999973907472,10|0,0:0|1:0,0:0:0:0:
163,357,105476,5,0,1:0:0:0:
163,357,105570,2,0,L|179:261,1,85.4999973907472,2|0,1:0|1:0,0:0:0:0:
93,278,105945,1,10,0:0:0:0:
261,294,106132,2,0,P|267:252|246:216,1,85.4999973907472,2|0,1:0|0:0,0:0:0:0:
163,102,106507,6,1,B|185:103|206:111|206:111|234:102|234:102|262:115|286:116,1,128.249996086121,2|0,1:0|0:0,0:0:0:0:
297,118,106882,2,0,P|343:102|366:69,1,85.4999973907472,2|0,1:0|1:0,0:0:0:0:
291,33,107257,5,2,1:0:0:0:
201,21,107444,1,10,0:0:0:0:
113,13,107632,1,2,1:0:0:0:
123,190,107820,6,0,L|168:182,1,42.7499986953736,10|0,0:0|0:0,0:0:0:0:
152,97,108007,2,0,L|109:104,1,42.7499986953736,10|0,0:0|0:0,0:0:0:0:
38,157,108195,1,10,0:0:0:0:
24,180,108288,1,10,0:0:0:0:
15,207,108382,1,10,0:0:0:0:
14,236,108476,1,10,0:0:0:0:
25,262,108570,2,0,P|61:269|100:274,1,76,6|0,1:2|1:0,0:0:0:0:
255,199,108945,5,8,0:0:0:0:
168,182,109132,2,0,L|192:331,1,152,2|2,1:0|1:0,0:0:0:0:
271,280,109695,2,0,L|257:200,1,76,8|0,0:0|1:0,0:0:0:0:
292,38,110070,1,2,1:0:0:0:
229,102,110257,2,0,P|267:126|343:114,1,114,2|0,1:0|0:0,0:0:0:0:
342,117,110632,2,0,P|350:153|357:194,1,76,2|0,1:0|0:0,0:0:0:0:
416,314,111007,2,0,B|407:227|448:259|442:168,1,152,2|0,1:0|1:0,0:0:0:0:
510,300,111570,6,0,P|476:337|419:320,1,114,2|0,1:0|0:0,0:0:0:0:
414,314,111945,2,0,L|322:329,1,76,10|0,0:0|1:0,0:0:0:0:
202,236,112320,2,0,L|294:251,1,76,2|0,0:0|1:0,0:0:0:0:
111,299,112695,1,10,0:0:0:0:
155,134,112882,1,2,1:0:0:0:
0,192,113070,2,0,P|38:257|101:297,1,152,2|8,1:0|0:0,0:0:0:0:
273,241,113632,1,0,1:0:0:0:
149,130,113820,2,0,L|162:207,1,76,2|0,0:0|1:0,0:0:0:0:
66,99,114195,2,0,P|86:62|165:44,1,114,10|0,0:0|0:0,0:0:0:0:
158,43,114570,6,0,L|244:60,1,76,2|0,1:0|1:0,0:0:0:0:
372,162,114945,1,8,0:0:0:0:
306,218,115132,2,1,B|274:171|302:113|302:113|279:137|267:135,1,152,2|0,1:0|1:0,0:0:0:0:
439,219,115695,2,0,P|453:186|443:111,1,114,10|0,0:0|0:0,0:0:0:0:
435,108,116070,5,2,1:0:0:0:
357,22,116257,2,0,L|469:0,1,114,2|0,1:0|0:0,0:0:0:0:
477,6,116632,2,0,P|507:40|504:91,1,76,2|0,1:0|0:0,0:0:0:0:
351,157,117007,5,8,0:3:0:0:
433,99,117195,1,8,0:3:0:0:
433,99,117288,1,8,0:3:0:0:
433,99,117382,1,4,0:3:0:0:
485,225,117570,6,1,B|458:227|433:236|433:236|400:226|400:226|367:241|338:242,1,152,2|2,1:2|0:0,0:0:0:0:
223,107,118132,2,0,P|296:100|347:153,1,152,2|2,1:2|0:0,0:0:0:0:
260,279,118695,1,2,0:0:0:0:
121,181,118882,2,0,B|158:174|158:174|211:221|285:179,1,152,2|2,0:0|0:0,0:0:0:0:
272,39,119445,2,0,P|219:24|178:44,1,76,2|2,0:0|0:0,0:0:0:0:
32,210,119820,2,0,L|52:91,1,114,2|0,0:0|0:0,0:0:0:0:
58,92,120195,2,0,P|103:85|184:129,1,114,2|0,0:0|0:0,0:0:0:0:
169,118,120570,5,6,1:2:0:0:
201,265,120757,1,0,1:0:0:0:
313,145,120945,1,8,0:0:0:0:
131,204,121132,2,0,P|108:248|126:323,1,114,2|0,1:0|0:0,0:0:0:0:
124,318,121507,6,0,P|163:348|213:351,1,76,2|8,1:0|0:0,0:0:0:0:
294,345,121882,1,2,1:0:0:0:
238,173,122070,1,2,1:0:0:0:
319,238,122257,2,0,L|238:259,1,76,2|8,1:0|0:0,0:0:0:0:
294,337,122632,1,2,1:0:0:0:
246,171,122820,1,2,0:0:0:0:
404,260,123007,6,0,B|413:173|372:205|378:114,1,152,2|2,1:0|1:0,0:0:0:0:
486,39,123570,2,0,P|494:111|464:136,1,114,2|0,1:0|0:0,0:0:0:0:
460,133,123945,1,10,0:0:0:0:
395,24,124132,2,0,L|317:37,1,76,2|0,1:0|0:0,0:0:0:0:
171,147,124507,1,2,1:0:0:0:
233,9,124695,1,10,0:0:0:0:
245,98,124882,1,2,1:0:0:0:
15,67,125070,2,0,B|52:74|52:74|105:27|179:69,1,152,2|8,1:0|0:0,0:0:0:0:
242,182,125632,1,0,1:0:0:0:
103,302,125820,6,0,L|116:224,1,76,2|0,0:0|1:0,0:0:0:0:
288,343,126195,2,0,L|274:265,1,76,10|0,0:0|1:0,0:0:0:0:
186,353,126476,1,0,1:0:0:0:
169,357,126570,2,0,B|78:363|110:322|23:331,1,152,2|8,1:0|0:0,0:0:0:0:
42,174,127132,2,0,P|105:138|169:167,1,114,2|0,1:0|0:0,0:0:0:0:
146,154,127507,6,0,L|133:229,1,76,2|8,1:0|0:0,0:0:0:0:
265,61,127882,2,0,L|278:135,1,76,2|0,1:0|1:0,0:0:0:0:
347,201,128257,1,2,1:0:0:0:
434,89,128445,1,8,0:0:0:0:
347,47,128632,2,0,L|360:121,1,76,2|0,1:0|0:0,0:0:0:0:
406,262,129007,1,0,1:0:0:0:
512,106,129195,2,0,P|466:117|434:178,1,114,10|0,0:0|0:0,0:0:0:0:
437,181,129570,2,0,P|496:194|517:184,1,76,2|0,1:0|1:0,0:0:0:0:
296,331,129945,5,10,0:0:0:0:
333,210,130132,2,0,B|339:247|339:247|401:280|387:364,1,152,2|2,1:0|1:0,0:0:0:0:
232,379,130695,1,10,0:0:0:0:
220,298,130882,2,0,L|234:224,1,76,2|0,1:0|1:0,0:0:0:0:
49,171,131257,2,0,L|62:245,1,76,2|8,1:0|0:0,0:0:0:0:
244,141,131632,6,0,P|177:160|164:185,1,76,2|0,1:0|0:0,0:0:0:0:
145,243,132007,1,8,0:3:0:0:
308,188,132195,1,8,0:2:0:0:
176,68,132382,5,10,0:0:0:0:
176,68,132476,1,10,0:0:0:0:
176,68,132570,2,1,B|205:55|246:55|246:55|275:29|275:29|305:26|334:16,1,170.999994781494,6|0,1:2|0:0,0:0:0:0:
455,149,133132,1,0,1:0:0:0:
469,60,133320,2,0,B|428:52|428:52|367:112|367:112|322:105,1,170.999994781494,10|0,0:0|0:0,0:0:0:0:
399,269,133882,2,0,B|410:229|410:229|368:182,1,85.4999973907472,2|0,0:0|1:0,0:0:0:0:
299,210,134257,2,0,B|285:251|285:251|308:285,1,85.4999973907472,2|0,0:0|0:0,0:0:0:0:
368,355,134632,1,0,1:0:0:0:
140,307,134820,2,1,B|200:297|200:297|237:311|237:311|306:297,1,170.999994781494,10|0,0:0|0:0,0:0:0:0:
330,131,135382,5,0,1:0:0:0:
173,192,135570,2,0,B|179:229|179:229|241:262|227:346,1,170.999994781494,2|0,1:0|0:0,0:0:0:0:
93,233,136132,1,0,1:0:0:0:
251,152,136320,2,0,P|180:110|104:141,1,170.999994781494,10|0,0:0|0:0,0:0:0:0:
314,231,136882,2,0,B|319:200|319:200|326:191|326:191|336:135,1,85.4999973907472,2|0,0:0|1:0,0:0:0:0:
417,323,137257,2,0,B|411:292|411:292|405:283|405:283|395:227,1,85.4999973907472,2|0,0:0|0:0,0:0:0:0:
336,349,137632,1,0,1:0:0:0:
474,208,137820,2,0,B|458:180|458:180|449:174|449:174|427:137,2,85.4999973907472,10|2|2,0:0|0:0|0:0,0:0:0:0:
413,27,138382,5,0,1:0:0:0:
507,0,138570,2,0,P|504:50|411:128,1,170.999994781494,2|0,0:0|0:0,0:0:0:0:
289,0,139132,1,0,1:0:0:0:
323,131,139320,2,1,B|326:162|346:198|346:198|338:236|338:236|351:263|356:293,1,170.999994781494,10|0,0:0|0:0,0:0:0:0:
170,191,139882,2,0,B|211:199|211:199|216:197|216:197|262:207,1,85.4999973907472,2|0,0:0|1:0,0:0:0:0:
242,291,140257,2,0,B|204:285|204:285|200:282|200:282|158:276,1,85.4999973907472,2|0,0:0|0:0,0:0:0:0:
86,222,140632,1,0,1:0:0:0:
216,23,140820,2,1,B|204:88|204:88|179:118|179:118|168:188,1,170.999994781494,10|0,0:0|0:0,0:0:0:0:
120,44,141382,5,0,1:0:0:0:
263,155,141570,2,0,L|437:124,1,170.999994781494,2|0,1:0|0:0,0:0:0:0:
448,37,142132,1,0,1:0:0:0:
413,217,142320,2,0,L|244:246,1,170.999994781494,10|0,0:0|0:0,0:0:0:0:
502,177,142882,2,0,B|525:139|525:139|508:86,1,85.4999973907472,2|0,0:0|1:0,0:0:0:0:
364,71,143257,2,0,B|341:109|341:109|358:162,1,85.4999973907472,2|0,0:0|0:0,0:0:0:0:
414,217,143632,1,0,1:0:0:0:
263,138,143820,5,10,0:0:0:0:
248,322,144007,1,10,0:0:0:0:
319,227,144195,1,10,0:0:0:0:
321,237,144288,1,10,0:0:0:0:
323,247,144382,1,10,0:0:0:0:
325,258,144476,1,10,0:0:0:0:
326,267,144570,2,0,P|376:299|436:290,1,85.4999973907472,6|0,1:2|1:0,0:0:0:0:
232,234,144945,5,10,0:0:0:0:
232,234,145132,2,0,L|241:325,1,85.4999973907472,2|0,1:0|0:0,0:0:0:0:
162,98,145507,2,0,L|153:189,1,85.4999973907472,2|8,1:0|0:0,0:0:0:0:
1,137,145882,5,2,1:0:0:0:
1,137,146070,2,0,P|50:130|81:163,1,85.4999973907472,2|0,1:0|1:0,0:0:0:0:
69,234,146445,1,10,0:0:0:0:
227,85,146632,2,0,P|178:78|147:111,1,85.4999973907472,2|0,1:0|0:0,0:0:0:0:
156,186,147007,1,0,1:0:0:0:
329,133,147195,6,0,L|306:4,1,128.249996086121,10|0,0:0|0:0,0:0:0:0:
315,5,147570,2,0,L|401:21,1,85.4999973907472,2|0,1:0|1:0,0:0:0:0:
465,179,147945,1,10,0:0:0:0:
494,86,148132,2,0,L|408:102,1,85.4999973907472,2|0,1:0|0:0,0:0:0:0:
275,221,148507,2,0,L|189:237,1,85.4999973907472,2|8,1:0|0:0,0:0:0:0:
366,243,148882,6,0,B|363:140|320:179|322:80,1,170.999994781494,2|2,1:0|1:0,0:0:0:0:
458,189,149445,1,8,0:0:0:0:
356,328,149632,2,0,P|345:281|367:244,1,85.4999973907472,2|0,1:0|0:0,0:0:0:0:
467,361,150007,1,10,0:0:0:0:
429,288,150195,1,10,0:0:0:0:
512,295,150382,1,2,1:0:0:0:
348,326,150570,5,14,0:0:0:0:
365,166,150757,1,0,1:0:0:0:
266,336,150945,5,10,0:0:0:0:
167,183,151132,1,0,1:0:0:0:
291,225,151320,5,10,0:0:0:0:
133,312,151507,1,0,1:0:0:0:
92,130,151695,5,10,0:0:0:0:
208,263,151882,1,0,1:0:0:0:
175,97,152070,5,10,0:0:0:0:
89,226,152257,1,0,1:0:0:0:
250,146,152445,5,10,0:0:0:0:
108,46,152632,1,0,1:0:0:0:
167,183,152820,6,0,L|176:97,1,85.4999973907472,10|2,0:0|1:0,0:0:0:0:
247,53,153195,2,0,P|264:36|271:17,3,42.7499986953736,10|2|10|10,0:0|0:0|0:0|0:0,0:0:0:0:
23,74,153570,5,6,1:2:0:0:
110,8,153945,5,10,0:2:0:0:
41,181,154132,1,6,1:2:0:0:
284,219,154507,5,6,1:2:0:0:
210,159,154695,1,10,0:0:0:0:
199,257,154882,2,0,B|247:217|301:242|301:242|319:281|371:288,1,170.999994781494,6|0,1:2|1:0,0:0:0:0:
386,160,155445,6,0,L|378:201,1,42.7499986953736,8|2,0:0|0:0,0:0:0:0:
299,344,155632,1,10,0:0:0:0:
275,354,155725,1,10,0:0:0:0:
249,360,155819,1,10,0:3:0:0:
223,362,155913,1,10,0:3:0:0:
197,360,156007,1,4,0:3:0:0:
172,354,156100,1,4,0:3:0:0:
148,344,156194,1,4,0:3:0:0:
232,215,156570,6,0,P|249:199|261:178,1,47.5,14|0,1:3|0:0,0:0:0:0:
227,55,156757,2,0,P|204:46|181:47,1,47.5,2|0,1:0|0:0,0:0:0:0:
99,142,156945,2,0,P|104:165|116:186,1,47.5,10|0,0:0|0:0,0:0:0:0:
188,132,157132,6,0,P|254:115|334:102,1,142.5,2|0,1:0|0:0,0:0:0:0:
418,122,157507,1,2,1:0:0:0:
454,201,157695,1,8,0:0:0:0:
386,335,157882,2,0,L|360:192,1,142.5,2|0,1:0|0:0,0:0:0:0:
355,201,158257,2,0,L|262:187,1,95,2|8,1:0|0:0,0:0:0:0:
392,329,158632,2,0,L|486:344,1,95,2|0,1:0|0:0,0:0:0:0:
264,195,159007,5,2,1:0:0:0:
190,313,159195,1,10,0:0:0:0:
278,366,159382,1,2,1:0:0:0:
179,125,159570,2,0,L|165:219,1,95,2|0,1:0|1:0,0:0:0:0:
282,379,159945,2,0,L|297:286,1,95,8|0,0:0|1:0,0:0:0:0:
74,201,160320,2,0,P|94:275|203:302,1,190,2|8,0:0|0:0,0:0:0:0:
400,256,160882,6,0,P|446:247|494:242,1,95,2|0,1:0|1:0,0:0:0:0:
242,129,161257,2,0,P|194:123|149:115,1,95,2|8,1:0|0:0,0:0:0:0:
346,103,161632,2,0,B|347:213|295:168|297:283,1,190,2|2,1:0|1:0,0:0:0:0:
437,95,162195,1,10,0:0:0:0:
385,20,162382,1,0,1:0:0:0:
336,181,162570,5,2,1:0:0:0:
393,14,162757,1,0,1:0:0:0:
427,179,162945,1,10,0:0:0:0:
259,100,163132,2,1,B|297:104|341:89|341:89|382:106|382:106|416:98|449:99,1,190,2|0,1:0|1:0,0:0:0:0:
482,328,163695,2,0,P|419:318|387:242,1,142.5,10|0,0:0|0:0,0:0:0:0:
336,181,164070,5,2,1:0:0:0:
239,194,164257,1,0,1:0:0:0:
146,205,164445,1,10,0:0:0:0:
233,366,164632,2,0,P|292:336|300:261,1,142.5,2|0,1:0|0:0,0:0:0:0:
298,260,165007,5,10,0:0:0:0:
148,370,165195,1,10,0:0:0:0:
332,174,165382,2,0,B|231:152|251:227|142:201,1,190,14|0,0:0|0:0,0:0:0:0:
47,42,165945,5,8,0:3:0:0:
47,42,166038,1,8,0:3:0:0:
47,42,166132,2,0,P|113:30|186:125,1,190,8|2,0:3|1:0,0:0:0:0:
144,200,166695,1,8,0:0:0:0:
96,119,166882,1,8,0:3:0:0:
251,47,167070,5,10,0:0:0:0:
139,206,167257,1,10,0:0:0:0:
150,24,167445,1,2,1:0:0:0:
290,134,167632,6,0,P|332:95|326:1,1,142.5,14|0,0:0|0:0,0:0:0:0:
326,11,168007,5,14,0:0:0:0:
176,125,168195,1,0,1:0:0:0:
382,188,168382,1,8,0:3:0:0:
249,58,168570,5,6,1:2:0:0:
224,200,168757,1,2,1:0:0:0:
361,94,168945,1,10,0:0:0:0:
303,232,169132,2,0,P|363:281|441:263,1,142.5,2|0,1:0|0:0,0:0:0:0:
474,200,169507,6,0,L|490:106,1,95,2|8,1:0|0:0,0:0:0:0:
381,193,169882,1,2,1:0:0:0:
509,287,170070,1,0,1:0:0:0:
348,373,170257,2,0,P|352:318|426:278,1,142.5,2|0,1:0|0:0,0:0:0:0:
512,293,170632,2,0,P|502:339|464:365,1,95,2|0,1:0|0:0,0:0:0:0:
241,332,171007,5,2,1:0:0:0:
385,185,171194,1,10,0:0:0:0:
182,259,171382,5,2,1:0:0:0:
285,255,171570,2,0,P|279:204|267:161,1,95,2|0,1:0|1:0,0:0:0:0:
344,384,171945,2,0,P|348:334|361:285,1,95,8|0,0:0|1:0,0:0:0:0:
464,115,172320,6,0,P|416:138|323:75,1,170.999994781494,2|8,0:0|0:0,0:0:0:0:
485,24,172882,2,0,P|488:65|475:106,1,85.4999973907472,2|0,1:0|1:0,0:0:0:0:
321,90,173257,2,0,P|355:64|396:55,1,85.4999973907472,2|8,1:0|0:0,0:0:0:0:
462,197,173632,2,0,P|422:179|394:147,1,85.4999973907472,2|8,1:0|0:0,0:0:0:0:
328,0,174007,5,10,0:0:0:0:
233,133,174195,1,10,0:0:0:0:
340,251,174382,1,10,0:0:0:0:
192,0,174570,6,0,B|186:30|186:30|120:68|124:152,1,152,14|0,0:0|0:0,0:0:0:0:
259,295,175132,1,0,1:0:0:0:
266,209,175320,2,1,B|239:210|213:219|213:219|179:209|179:209|146:225|117:225,1,152,8|2,0:0|0:0,0:0:0:0:
0,301,175882,1,0,1:0:0:0:
0,301,176070,2,0,L|75:314,1,76,2|8,1:0|0:0,0:0:0:0:
220,179,176445,1,2,0:0:0:0:
220,179,176632,2,0,L|207:104,1,76,2|8,1:0|0:0,0:0:0:0:
137,384,177007,1,10,0:0:0:0:
353,294,177195,1,10,0:0:0:0:
353,294,177288,1,10,0:0:0:0:
353,294,177382,2,0,B|308:287|308:287|265:201|265:201|218:192,1,190,6|0,1:2|1:0,0:0:0:0:
389,142,177945,6,0,L|397:94,3,47.5,10|2|2|2,0:0|0:0|1:2|0:0,0:0:0:0:
413,228,178320,2,0,L|449:258,3,47.5,2|2|2|2,0:0|0:0|1:2|0:0,0:0:0:0:
330,207,178695,2,0,L|284:223,3,47.5,10|2|2|2,0:0|0:0|1:2|0:0,0:0:0:0:
478,159,179070,1,0,1:0:0:0:
359,291,179257,1,0,1:0:0:0:
301,123,179445,5,10,0:0:0:0:
453,265,179632,2,0,P|456:318|394:386,1,142.5,2|0,1:0|0:0,0:0:0:0:
261,315,180007,2,0,P|307:303|355:296,1,95,2|8,1:0|0:0,0:0:0:0:
164,211,180382,2,0,P|117:203|70:192,1,95,2|0,1:0|1:0,0:0:0:0:
162,307,180757,1,0,1:0:0:0:
268,215,180945,5,10,0:0:0:0:
172,121,181132,1,2,1:0:0:0:
276,217,181320,2,0,P|322:209|369:198,1,95,2|0,0:0|1:0,0:0:0:0:
388,56,181695,1,8,0:0:0:0:
306,126,181882,6,1,B|341:76|416:90|416:90|425:137|487:152,1,190,2|0,1:0|1:0,0:0:0:0:
500,68,182445,1,10,0:0:0:0:
364,208,182632,2,0,P|371:254|382:301,1,95,2|0,1:0|0:0,0:0:0:0:
218,184,183007,2,0,P|210:137|199:90,1,95,2|8,1:0|0:0,0:0:0:0:
39,217,183382,1,2,1:0:0:0:
39,217,183476,1,2,1:0:0:0:
39,217,183570,2,0,P|79:195|131:200,1,95,2|0,1:0|1:0,0:0:0:0:
277,288,183945,1,10,0:0:0:0:
277,288,184039,1,2,1:0:0:0:
277,288,184132,2,0,P|236:266|184:271,1,95,2|0,1:0|0:0,0:0:0:0:
99,288,184507,5,2,1:0:0:0:
76,378,184695,1,8,0:0:0:0:
261,199,184882,2,0,L|279:295,1,95,2|0,1:0|1:0,0:0:0:0:
152,104,185257,2,0,L|128:201,1,95,2|8,1:0|0:0,0:0:0:0:
372,90,185632,2,0,P|310:70|236:109,1,142.5,2|0,1:0|0:0,0:0:0:0:
241,110,186007,2,0,L|257:205,1,95,2|8,1:0|0:0,0:0:0:0:
430,233,186382,5,2,1:0:0:0:
430,233,186476,1,2,1:0:0:0:
430,233,186570,2,0,P|389:211|337:216,1,95,2|0,1:0|1:0,0:0:0:0:
291,286,186945,1,10,0:0:0:0:
453,316,187132,2,0,P|492:291|513:243,1,95,2|0,1:0|0:0,0:0:0:0:
291,286,187507,2,0,P|262:249|258:197,1,95,2|8,1:0|0:0,0:0:0:0:
349,63,187882,6,0,P|299:98|198:11,1,190,2|0,1:0|1:0,0:0:0:0:
97,157,188445,2,0,P|80:173|69:194,3,47.5,10|2|2|2,0:0|0:0|1:2|0:0,0:0:0:0:
108,73,188820,2,0,P|102:50|88:30,3,47.5,2|2|2|2,0:0|0:0|1:2|0:0,0:0:0:0:
178,123,189195,1,10,0:0:0:0:
201,130,189288,1,2,1:2:0:0:
224,128,189382,1,10,0:3:0:0:
26,102,189570,2,0,P|43:194|58:296,1,190,6|8,1:2|0:0,0:0:0:0:
136,384,190132,6,0,P|143:337|154:290,1,95,2|0,1:0|0:0,0:0:0:0:
233,133,190507,1,2,1:0:0:0:
317,327,190695,1,10,0:0:0:0:
126,201,190882,2,0,P|172:208|219:219,1,95,2|0,1:0|1:0,0:0:0:0:
322,326,191257,1,0,1:0:0:0:
300,190,191445,1,8,0:0:0:0:
260,384,191632,6,0,P|328:370|403:360,1,142.5,2|0,1:0|0:0,0:0:0:0:
409,361,192007,1,2,1:0:0:0:
233,306,192195,1,10,0:0:0:0:
410,149,192382,2,0,P|404:196|395:242,1,95,2|0,1:0|1:0,0:0:0:0:
348,84,192757,1,0,1:0:0:0:
484,214,192945,1,8,0:0:0:0:
307,274,193132,1,0,1:0:0:0:
425,136,193320,6,0,L|394:172,1,47.5,2|0,0:0|0:0,0:0:0:0:
315,173,193507,2,0,L|361:181,1,47.5,2|0,1:2|0:0,0:0:0:0:
403,252,193695,2,0,L|378:186,1,47.5,10|0,0:0|0:0,0:0:0:0:
322,0,193882,6,0,L|159:27,1,142.5,2|0,1:0|0:0,0:0:0:0:
128,102,194257,2,0,P|171:125|226:103,1,95,2|8,1:0|0:0,0:0:0:0:
82,19,194632,2,0,P|45:48|32:103,1,95,2|8,1:0|0:0,0:0:0:0:
114,251,195007,5,8,0:0:0:0:
210,106,195195,1,10,0:0:0:0:
0,181,195382,1,8,0:0:0:0:
235,190,195570,6,0,B|149:198|180:154|88:164,1,152,14|0,0:0|0:0,0:0:0:0:
248,274,196132,1,0,1:0:0:0:
314,217,196320,2,0,L|417:199,1,76,10|2,0:0|0:0,0:0:0:0:
475,197,196695,1,2,0:0:0:0:
422,123,196882,2,0,P|384:117|348:127,1,76,2|0,1:0|1:0,0:0:0:0:
359,290,197257,2,0,P|396:295|432:285,1,76,10|0,0:0|0:0,0:0:0:0:
420,129,197632,2,0,P|397:159|388:195,1,76,2|8,1:0|0:0,0:0:0:0:
433,370,198007,1,2,1:0:0:0:
507,322,198195,1,10,0:0:0:0:
302,215,198382,6,1,B|273:198|275:160|292:168|308:151|308:103|263:93|263:93|232:98|232:98|232:103|232:103|230:98|230:98|191:104|191:104|192:110|192:110|191:104|191:104|148:109|148:109|150:115|150:115|146:109|146:109|112:114|112:114|65:149|77:218|137:236|141:226|148:217|259:226|249:345|249:345|203:265|105:299,1,807.5,6|2,1:2|1:2,0:0:0:0:
264,285,203070,5,2,1:0:0:0:
329,134,204570,5,2,1:0:0:0:
171,157,205695,5,2,1:0:0:0:
171,157,206070,1,2,1:0:0:0:
342,228,207570,5,2,1:0:0:0:
180,250,209070,5,2,1:0:0:0:
244,104,210570,5,2,1:0:0:0:
257,195,211695,5,2,1:0:0:0:
257,195,212070,1,2,1:0:0:0:
256,192,213570,6,0,L|350:175,1,76,2|0,1:0|0:0,0:0:0:0:
211,117,213945,1,2,1:0:0:0:
208,272,214132,2,0,P|253:288|292:279,1,76,0|0,0:0|1:0,0:0:0:0:
167,193,214507,2,0,P|129:223|118:262,1,76,0|8,0:0|0:0,0:0:0:0:
254,192,214882,5,0,0:0:0:0:
125,118,215070,2,0,L|30:101,1,76,0|0,1:0|0:0,0:0:0:0:
171,194,215445,1,0,1:0:0:0:
266,56,215632,1,2,0:0:0:0:
266,56,215726,1,2,0:0:0:0:
266,56,215820,2,0,P|224:48|190:74,1,76,2|0,1:2|0:0,0:0:0:0:
263,216,216195,2,0,L|247:131,1,76,10|0,0:0|0:0,0:0:0:0:
249,299,216570,2,0,P|290:302|322:274,1,76,2|0,1:0|0:0,0:0:0:0:
431,191,216945,5,2,1:0:0:0:
332,126,217132,2,0,L|346:200,1,76,2|0,0:0|1:0,0:0:0:0:
445,327,217507,2,0,P|430:287|391:271,1,76,2|8,0:0|0:0,0:0:0:0:
263,216,217882,1,0,0:0:0:0:
306,357,218070,2,0,L|320:282,1,76,2|0,1:0|0:0,0:0:0:0:
222,384,218445,5,0,1:0:0:0:
154,284,218632,1,10,0:0:0:0:
154,284,218726,1,10,0:0:0:0:
154,284,218820,2,0,L|246:304,1,76,2|8,1:2|0:0,0:0:0:0:
180,192,219195,1,10,0:0:0:0:
61,263,219382,5,10,0:0:0:0:
61,263,219476,1,10,0:0:0:0:
61,263,219570,1,6,1:2:0:0:
0,177,219757,1,0,0:0:0:0:
87,160,219945,1,0,1:0:0:0:
127,325,220132,5,0,0:0:0:0:
29,349,220320,1,0,1:0:0:0:
61,263,220507,1,0,0:0:0:0:
196,374,220695,5,0,1:0:0:0:
148,235,220882,1,2,0:0:0:0:
148,235,220976,1,2,0:0:0:0:
148,235,221070,1,6,1:2:0:0:
36,350,221257,5,0,1:0:0:0:
214,288,221445,1,0,1:0:0:0:
0,188,221632,1,0,1:0:0:0:
120,327,221820,5,0,1:0:0:0:
80,142,222007,1,0,1:0:0:0:
245,193,222195,1,2,1:2:0:0:
217,189,222288,1,2,1:2:0:0:
191,193,222382,1,2,1:2:0:0:
166,202,222476,1,2,1:2:0:0:
144,215,222570,5,14,0:0:0:0:
305,268,222757,1,0,1:0:0:0:
268,96,222945,1,8,0:0:0:0:
202,290,223132,5,0,1:0:0:0:
333,175,223320,1,8,0:0:0:0:
168,104,223507,1,0,1:0:0:0:
315,266,223695,1,8,0:0:0:0:
371,79,223882,1,0,1:0:0:0:
201,283,224070,5,14,0:0:0:0:
160,103,224257,1,10,0:0:0:0:
326,263,224445,5,10,0:0:0:0:
375,69,224632,1,10,0:0:0:0:
217,190,224820,5,10,0:0:0:0:
217,190,224913,1,10,0:0:0:0:
217,190,225007,1,10,0:0:0:0:
310,165,225195,1,8,0:0:0:0:
231,58,225382,6,0,L|244:106,1,42.7499986953736,10|8,0:0|0:0,0:0:0:0:
334,256,225570,2,0,P|384:295|465:274,1,128.249996086121,6|0,1:2|0:0,0:0:0:0:
451,284,225945,1,8,0:0:0:0:
432,73,226132,2,0,L|406:208,1,128.249996086121,6|0,1:2|0:0,0:0:0:0:
406,209,226507,5,6,1:2:0:0:
336,373,226695,1,8,0:0:0:0:
242,217,226882,2,0,B|225:227|225:227|259:287|231:367|231:367|260:288|334:267|334:267|326:250,1,332.5,6|0,1:2|0:0,0:0:0:0:
231,205,228570,6,0,P|209:197|186:197,1,47.5,14|0,1:3|0:0,0:0:0:0:
105,300,228757,2,0,P|109:323|121:343,1,47.5,2|0,1:0|0:0,0:0:0:0:
241,362,228945,2,0,P|258:346|271:326,1,47.5,10|0,0:0|0:0,0:0:0:0:
193,289,229132,6,0,P|258:270|330:242,1,142.5,2|0,1:0|0:0,0:0:0:0:
408,170,229507,2,0,P|359:158|311:151,1,95,2|8,1:0|0:0,0:0:0:0:
103,208,229882,1,2,1:0:0:0:
246,50,230070,1,0,1:0:0:0:
62,0,230257,2,0,P|77:68|133:109,1,142.5,2|0,1:0|0:0,0:0:0:0:
138,114,230632,2,0,P|150:65|157:17,1,95,2|0,1:0|0:0,0:0:0:0:
325,107,231007,5,2,1:0:0:0:
96,213,231195,1,10,0:0:0:0:
225,288,231382,1,2,1:0:0:0:
228,136,231570,2,0,P|235:89|247:43,1,95,2|0,1:0|1:0,0:0:0:0:
385,20,231945,2,0,P|407:61|426:104,1,95,8|0,0:0|1:0,0:0:0:0:
512,273,232320,2,0,P|469:229|350:277,1,190,2|8,0:0|0:0,0:0:0:0:
106,222,232882,6,0,P|156:212|200:241,1,95,2|0,1:0|1:0,0:0:0:0:
412,353,233257,2,0,P|361:343|317:372,1,95,2|8,1:0|0:0,0:0:0:0:
231,384,233632,2,0,B|230:274|282:319|280:200,1,190,2|2,1:0|1:0,0:0:0:0:
52,371,234195,1,10,0:0:0:0:
115,126,234382,1,2,1:0:0:0:
135,384,234570,2,0,P|153:336|132:288,1,95,2|0,1:0|1:0,0:0:0:0:
27,89,234945,5,10,0:0:0:0:
189,197,235132,2,1,B|222:199|254:210|254:210|296:198|296:198|337:217|373:218,1,190,2|0,1:0|1:0,0:0:0:0:
470,39,235695,2,0,P|403:60|362:117,1,142.5,10|0,0:0|0:0,0:0:0:0:
365,125,236070,6,0,L|461:143,1,95,2|0,1:0|1:0,0:0:0:0:
110,165,236445,1,10,0:0:0:0:
199,200,236632,2,0,L|293:183,1,95,2|0,1:0|0:0,0:0:0:0:
107,173,237007,5,10,0:0:0:0:
3,361,237195,1,10,0:0:0:0:
50,95,237382,2,0,B|123:64|181:113|181:113|212:108,1,170.999994781494,14|0,0:0|0:0,0:0:0:0:
41,235,237945,1,4,0:3:0:0:
41,235,238038,1,4,0:3:0:0:
41,235,238132,2,0,P|120:259|190:214,1,170.999994781494,4|2,0:3|1:0,0:0:0:0:
280,172,238695,1,8,0:0:0:0:
207,115,238882,1,8,0:3:0:0:
271,268,239070,5,10,0:0:0:0:
435,195,239257,1,10,0:0:0:0:
273,34,239445,1,2,1:0:0:0:
336,328,239632,6,1,B|373:289|355:232|355:232|373:257|390:258,1,128.249996086121,14|0,0:0|0:0,0:0:0:0:
453,276,240007,5,14,0:0:0:0:
362,149,240195,1,0,1:0:0:0:
267,267,240382,1,8,0:3:0:0:
444,194,240570,6,0,P|453:154|442:101,1,95,6|2,1:2|1:0,0:0:0:0:
267,170,240945,1,10,0:0:0:0:
378,29,241132,2,0,L|475:10,1,95,2|0,1:0|0:0,0:0:0:0:
204,114,241507,2,0,L|107:96,1,95,2|8,1:0|0:0,0:0:0:0:
258,42,241882,2,0,P|274:60|267:178,1,142.5,2|0,1:0|0:0,0:0:0:0:
189,202,242257,2,0,L|90:184,1,95,2|8,1:0|0:0,0:0:0:0:
333,104,242632,2,0,L|428:119,1,95,2|0,1:0|0:0,0:0:0:0:
394,365,243007,5,2,1:0:0:0:
273,170,243195,1,10,0:0:0:0:
117,355,243382,1,2,1:0:0:0:
355,279,243570,2,0,L|262:262,1,95,2|0,1:0|1:0,0:0:0:0:
99,181,243945,2,0,P|148:203|167:289,1,142.5,8|0,0:0|0:0,0:0:0:0:
207,365,244320,5,2,0:0:0:0:
83,266,244507,1,0,1:0:0:0:
264,171,244695,1,8,0:0:0:0:
118,354,244882,2,0,P|50:358|15:307,1,95,2|0,1:0|1:0,0:0:0:0:
47,184,245257,2,0,P|115:180|150:231,1,95,2|8,1:0|0:0,0:0:0:0:
113,349,245632,2,0,P|76:292|103:236,1,95,2|8,1:0|0:0,0:0:0:0:
348,29,246007,5,10,0:0:0:0:
266,229,246195,1,10,0:0:0:0:
57,172,246382,1,10,0:0:0:0:
253,125,246570,6,0,B|216:131|216:131|205:203|114:204,1,152,14|0,0:0|0:0,0:0:0:0:
48,14,247132,1,0,1:0:0:0:
48,14,247320,2,0,P|115:48|124:136,1,152,10|2,0:0|0:0,0:0:0:0:
80,275,247882,1,0,1:0:0:0:
212,225,248070,2,0,P|172:206|132:216,1,76,2|8,1:0|0:0,0:0:0:0:
104,357,248445,1,2,0:0:0:0:
161,292,248632,1,2,1:0:0:0:
62,184,248820,5,8,0:0:0:0:
96,360,249007,1,8,0:0:0:0:
251,315,249195,1,8,0:0:0:0:
74,272,249382,2,0,P|34:262|-6:242,1,76,12|0,0:0|0:0,0:0:0:0:
188,384,249757,5,8,0:0:0:0:
162,292,249945,1,8,0:0:0:0:
88,362,250132,1,8,0:0:0:0:
260,314,250320,5,8,0:0:0:0:
138,185,250507,1,8,0:0:0:0:
82,367,250695,1,8,0:0:0:0:
235,216,250882,5,8,0:0:0:0:
65,270,251070,1,8,0:0:0:0:
195,384,251257,1,8,0:0:0:0:
141,173,251445,5,8,0:0:0:0:
75,376,251632,1,8,0:0:0:0:
271,318,251820,5,10,0:3:0:0:
30,150,252007,1,10,0:3:0:0:
0,322,252570,6,0,P|34:289|93:290,1,85.4999973907472,6|2,1:2|1:0,0:0:0:0:
239,286,252945,1,10,0:0:0:0:
174,162,253132,2,0,L|146:320,1,128.249996086121,2|0,1:0|0:0,0:0:0:0:
152,300,253507,2,0,P|169:344|223:368,1,85.4999973907472,2|8,1:0|0:0,0:0:0:0:
416,368,253882,5,2,1:0:0:0:
328,274,254070,2,0,L|312:358,1,85.4999973907472,0|0,1:0|1:0,0:0:0:0:
414,252,254445,1,8,0:0:0:0:
272,201,254632,2,0,L|187:216,1,85.4999973907472,0|2,1:0|0:0,0:0:0:0:
245,290,255007,1,0,1:0:0:0:
354,192,255195,2,0,L|380:51,1,128.249996086121,10|0,0:0|0:0,0:0:0:0:
461,26,255570,6,0,P|470:75|433:122,1,85.4999973907472,2|0,1:0|1:0,0:0:0:0:
289,95,255945,1,10,0:0:0:0:
439,190,256132,2,0,P|481:189|518:166,1,85.4999973907472,2|0,1:0|0:0,0:0:0:0:
381,58,256507,2,0,L|362:154,1,76,2|8,1:0|0:0,0:0:0:0:
409,279,256882,2,0,P|368:253|350:215,1,85.4999973907472,2|0,1:0|1:0,0:0:0:0:
279,153,257257,5,2,1:0:0:0:
196,121,257444,1,10,0:0:0:0:
109,136,257632,1,2,1:0:0:0:
222,292,257820,2,0,L|206:203,1,85.4999973907472,2|0,0:0|1:0,0:0:0:0:
30,76,258195,1,8,0:0:0:0:
143,48,258382,5,10,0:0:0:0:
143,48,258476,1,10,0:0:0:0:
143,48,258570,1,6,1:2:0:0:
119,217,258757,1,2,1:0:0:0:
196,125,258945,1,10,0:0:0:0:
35,187,259132,2,0,P|30:243|84:299,1,128.249996086121,2|0,1:0|0:0,0:0:0:0:
180,383,259507,2,0,L|166:299,1,85.4999973907472,2|8,1:0|0:0,0:0:0:0:
256,280,259788,5,0,1:0:0:0:
256,280,259882,2,0,L|272:374,1,85.4999973907472,2|0,1:0|1:0,0:0:0:0:
194,207,260257,1,0,1:0:0:0:
351,271,260445,1,8,0:0:0:0:
294,204,260632,2,0,P|267:244|264:283,1,85.4999973907472,0|2,1:0|0:0,0:0:0:0:
357,355,261007,1,0,1:0:0:0:
382,189,261195,2,0,P|360:145|284:118,1,128.249996086121,8|0,0:0|0:0,0:0:0:0:
276,119,261570,5,2,1:0:0:0:
361,269,261757,1,0,1:0:0:0:
441,122,261945,1,10,0:0:0:0:
382,180,262132,2,0,P|440:205|520:170,1,128.249996086121,2|0,1:0|0:0,0:0:0:0:
504,180,262507,2,0,P|521:139|514:86,1,85.4999973907472,2|8,1:0|0:0,0:0:0:0:
362,93,262882,2,0,P|359:135|376:174,1,85.4999973907472,2|0,1:0|1:0,0:0:0:0:
441,38,263257,1,2,1:0:0:0:
266,85,263445,1,10,0:0:0:0:
383,176,263632,1,10,0:3:0:0:
361,0,263820,5,12,0:0:0:0:
361,0,263913,1,8,0:0:0:0:
361,0,264007,2,0,L|310:7,1,42.7499986953736,8|8,0:0|0:0,0:0:0:0:
211,147,264195,1,12,0:0:0:0:
211,147,264288,1,8,0:0:0:0:
211,147,264382,2,0,L|168:140,1,42.7499986953736,8|8,0:0|0:0,0:0:0:0:
76,0,264570,5,6,1:2:0:0:
186,58,264757,1,2,1:0:0:0:
2,154,264945,1,10,0:0:0:0:
100,81,265132,2,0,L|84:164,1,85.4999973907472,2|0,1:0|0:0,0:0:0:0:
0,147,265507,2,0,L|15:63,1,85.4999973907472,2|8,1:0|0:0,0:0:0:0:
32,319,265882,5,2,1:0:0:0:
183,239,266070,2,0,L|98:254,1,85.4999973907472,0|0,1:0|1:0,0:0:0:0:
19,231,266445,1,8,0:0:0:0:
115,338,266632,2,0,L|199:322,1,85.4999973907472,0|2,1:0|0:0,0:0:0:0:
256,178,267007,1,0,1:0:0:0:
394,290,267195,6,0,P|329:249|284:262,1,128.249996086121,10|0,0:0|0:0,0:0:0:0:
280,344,267570,2,0,P|320:368|363:363,1,85.4999973907472,2|0,1:0|1:0,0:0:0:0:
479,239,267945,1,10,0:0:0:0:
381,200,268132,2,0,L|396:284,1,85.4999973907472,2|0,1:0|0:0,0:0:0:0:
459,155,268507,2,0,P|422:120|370:116,1,85.4999973907472,2|8,1:0|0:0,0:0:0:0:
238,43,268882,5,2,1:0:0:0:
303,106,269070,1,2,1:0:0:0:
299,196,269257,1,2,1:0:0:0:
236,261,269445,1,10,0:0:0:0:
323,282,269632,1,2,1:0:0:0:
218,177,269820,5,2,0:0:0:0:
187,332,270007,1,2,1:0:0:0:
331,278,270195,1,10,0:0:0:0:
157,245,270382,5,10,0:0:0:0:
157,245,270476,1,10,0:0:0:0:
157,245,270570,5,14,0:0:0:0:
271,345,270757,1,0,1:0:0:0:
298,188,270945,5,10,0:0:0:0:
183,336,271132,1,0,1:0:0:0:
213,170,271320,5,10,0:0:0:0:
273,352,271507,1,0,1:0:0:0:
388,200,271695,6,0,L|305:184,1,85.4999973907472,10|0,0:0|1:0,0:0:0:0:
327,273,272070,5,10,0:0:0:0:
272,103,272257,1,0,1:0:0:0:
329,283,272445,5,10,0:0:0:0:
359,79,272632,1,0,1:0:0:0:
331,294,272820,5,10,0:0:0:0:
444,116,273007,1,0,1:0:0:0:
334,303,273195,6,0,L|245:287,1,85.4999973907472,10|0,0:0|1:0,0:0:0:0:
300,197,273570,5,10,0:0:0:0:
434,253,273757,1,0,1:0:0:0:
222,368,273945,5,10,0:0:0:0:
341,298,274132,1,2,1:0:0:0:
197,183,274320,5,10,0:0:0:0:
304,378,274507,2,0,P|376:379|411:350,1,85.4999973907472,2|8,1:0|0:0,0:0:0:0:
232,99,274882,2,0,P|160:98|125:127,1,85.4999973907472,2|8,1:0|0:0,0:0:0:0:
242,275,275257,5,2,1:0:0:0:
306,203,275445,1,10,0:0:0:0:
146,265,275632,5,2,1:0:0:0:
372,263,275820,1,10,0:0:0:0:
105,177,276007,5,2,1:0:0:0:
322,336,276195,1,10,0:0:0:0:
355,337,276288,1,10,0:0:0:0:
372,333,276382,1,10,0:0:0:0:
383,325,276476,1,10,0:0:0:0:
389,315,276570,2,0,P|391:288|357:255,1,56.9999982604981,14|0,0:0|0:0,0:0:0:0:
300,235,276945,5,0,0:0:0:0:
300,235,277132,1,0,0:0:0:0:
361,177,277507,1,0,0:0:0:0:
466,276,277882,1,0,0:0:0:0:
466,276,278070,5,2,0:0:0:0:
446,193,278445,1,0,0:0:0:0:
361,177,278820,1,0,0:0:0:0:
333,94,279195,1,0,0:0:0:0:
174,76,279570,5,2,0:0:0:0:
260,53,279945,1,0,0:0:0:0:
260,53,280132,1,0,0:0:0:0:
336,10,280507,1,0,0:0:0:0:
346,105,281069,1,2,0:0:0:0:
346,105,281163,1,2,0:0:0:0:
346,105,281257,1,2,0:0:0:0:
189,0,282570,5,2,0:0:0:0:
189,0,282664,1,2,0:0:0:0:
189,0,282757,1,2,0:0:0:0:
