osu file format v14

[General]
AudioFilename: audio.mp3
AudioLeadIn: 0
PreviewTime: 228430
Countdown: 0
SampleSet: Soft
StackLeniency: 0.7
Mode: 2
LetterboxInBreaks: 0
WidescreenStoryboard: 1

[Editor]
Bookmarks: 570,6570,12570,24570,36570,48570,60570,66570,72570,96570,108570,120570,132570,144570,150570,156570,177382,198382,213570,228570,252570,264570,270570,276570,287070
DistanceSpacing: 0.3
BeatDivisor: 8
GridSize: 16
TimelineZoom: 2.3

[Metadata]
Title:Evidence
TitleUnicode:Evidence
Artist:Daisy x Daisy
ArtistUnicode:Daisy×Daisy
Creator:Secre
Version:Sorceress of the Sky
Source:FAIRY TAIL
Tags:chickenbible subahibi フェアリーテイル op opening 7 season 3 40mp pony canyon jpop j-pop japanese pop anime female vocalist wendy marvell
BeatmapID:3616096
BeatmapSetID:1766573

[Difficulty]
HPDrainRate:5
CircleSize:3.4
OverallDifficulty:8.9
ApproachRate:8.9
SliderMultiplier:1.91
SliderTickRate:2

[Events]
//Background and Video events
0,0,"wendy is ina in another universe.jpg",0,0
//Break Periods
//Storyboard Layer 0 (Background)
//Storyboard Layer 1 (Fail)
//Storyboard Layer 2 (Pass)
//Storyboard Layer 3 (Foreground)
//Storyboard Layer 4 (Overlay)
//Storyboard Sound Samples

[TimingPoints]
570,375,4,2,1,30,1,0
570,-100,4,2,1,30,0,0
6570,-100,4,2,1,40,0,0
12570,-100,4,2,1,60,0,0
13507,-100,4,2,1,60,0,0
15570,-100,4,2,1,60,0,0
17257,-100,4,2,1,60,0,0
21945,-100,4,2,1,60,0,0
22882,-100,4,2,1,60,0,0
24007,-100,4,2,1,60,0,0
24195,-100,4,2,1,60,0,0
24570,-100,4,2,1,50,0,0
26632,-100,4,2,1,50,0,0
27945,-100,4,2,1,50,0,0
33570,-100,4,2,1,50,0,0
34507,-100,4,2,1,50,0,0
35257,-100,4,2,1,50,0,0
39007,-100,4,2,1,50,0,0
43507,-100,4,2,1,50,0,0
44632,-100,4,2,1,50,0,0
48570,-100,4,2,1,60,0,0
70882,-100,4,2,1,60,0,0
72570,-100,4,2,2,80,0,1
72757,-100,4,2,1,80,0,1
72945,-100,4,2,1,80,0,1
73132,-100,4,2,1,80,0,1
73507,-100,4,2,1,80,0,1
75007,-100,4,2,1,80,0,1
75945,-100,4,2,1,80,0,1
78570,-100,4,2,1,80,0,1
78945,-100,4,2,1,80,0,1
81382,-100,4,2,1,80,0,1
84007,-100,4,2,1,80,0,1
88320,-100,4,2,1,80,0,1
88695,-100,4,2,1,80,0,1
90570,-100,4,2,1,70,0,0
91695,-100,4,2,1,70,0,0
93382,-100,4,2,1,70,0,0
96195,-100,4,2,1,70,0,0
96570,-100,4,2,1,60,0,0
103507,-100,4,2,1,60,0,0
106882,-100,4,2,1,60,0,0
108007,-100,4,2,1,60,0,0
108195,-100,4,2,1,60,0,0
108570,-100,4,2,1,60,0,0
110632,-100,4,2,1,50,0,0
111945,-100,4,2,1,50,0,0
114570,-100,4,2,1,50,0,0
116070,-100,4,2,1,50,0,0
116632,-100,4,2,1,50,0,0
120195,-100,4,2,1,50,0,0
120570,-100,4,2,1,50,0,0
121507,-100,4,2,1,50,0,0
123945,-100,4,2,1,50,0,0
127507,-100,4,2,1,50,0,0
129570,-100,4,2,1,50,0,0
132570,-100,4,2,1,60,0,0
147570,-100,4,2,1,60,0,0
155632,-100,4,2,1,60,0,0
156570,-100,4,2,2,80,0,1
156757,-100,4,2,1,80,0,1
156945,-100,4,2,1,80,0,1
157132,-100,4,2,1,80,0,1
157507,-100,4,2,1,80,0,1
158257,-100,4,2,1,80,0,1
164070,-100,4,2,1,80,0,1
165007,-100,4,2,1,80,0,1
165382,-100,4,2,1,80,0,1
168007,-100,4,2,1,80,0,1
169132,-100,4,2,1,80,0,1
169507,-100,4,2,1,80,0,1
170632,-100,4,2,1,80,0,1
172320,-100,4,2,1,80,0,1
174570,-100,4,2,1,70,0,0
177382,-100,4,2,1,70,0,0
180007,-100,4,2,1,70,0,0
186007,-100,4,2,1,70,0,0
192007,-100,4,2,1,70,0,0
193320,-100,4,2,1,70,0,0
193507,-100,4,2,1,70,0,0
193695,-100,4,2,1,70,0,0
193882,-100,4,2,1,70,0,0
194257,-100,4,2,1,70,0,0
195570,-100,4,2,1,60,0,0
198382,-100,4,2,1,50,0,0
201570,-100,4,2,1,60,0,0
213570,-100,4,2,1,50,0,0
219570,-100,4,2,1,50,0,0
221070,-100,4,2,1,60,0,0
222570,-100,4,2,1,70,0,0
224070,-100,4,2,1,80,0,0
225570,-100,4,2,1,80,0,0
226882,-100,4,2,1,60,0,0
228570,-100,4,2,2,80,0,1
228757,-100,4,2,1,80,0,1
228945,-100,4,2,1,80,0,1
229132,-100,4,2,1,80,0,1
229507,-100,4,2,1,80,0,1
230632,-100,4,2,1,80,0,1
236070,-100,4,2,1,80,0,1
237382,-100,4,2,1,80,0,1
240007,-100,4,2,1,80,0,1
242257,-100,4,2,1,80,0,1
244320,-100,4,2,1,80,0,1
246570,-100,4,2,1,70,0,0
249757,-100,4,2,1,50,0,0
250882,-100,4,2,1,60,0,0
251820,-100,4,2,1,70,0,0
252007,-100,4,2,1,80,0,0
252570,-100,4,2,1,60,0,0
253507,-100,4,2,1,60,0,0
255570,-100,4,2,1,60,0,0
256507,-100,4,2,1,60,0,0
256882,-100,4,2,1,60,0,0
259507,-100,4,2,1,60,0,0
261570,-100,4,2,1,60,0,0
262507,-100,4,2,1,60,0,0
267570,-100,4,2,1,60,0,0
270382,-100,4,2,1,80,0,0
276195,-100,4,2,1,80,0,0
276288,-100,4,2,1,70,0,0
276382,-100,4,2,1,60,0,0
276476,-100,4,2,1,50,0,0
276570,-100,4,2,1,40,0,0
282757,-100,4,2,1,60,0,0
287070,-100,4,2,1,5,0,0

[Colours]
Combo1 : 232,174,117
Combo2 : 124,111,253
Combo3 : 247,70,132

[HitObjects]
322,214,570,6,0,L|207:209,2,95.5,2|0|0,0:0|0:0|0:0,0:0:0:0:
414,218,1132,1,0,0:0:0:0:
249,140,1507,1,0,0:0:0:0:
408,110,1882,1,0,0:0:0:0:
234,68,2070,6,1,P|171:74|125:191,1,191,2|0,0:0|0:0,0:0:0:0:
300,212,2820,2,0,L|304:10,1,191
25,128,3570,5,2,0:0:0:0:
187,99,3945,2,0,L|290:62,1,95.5
103,70,4507,1,0,0:0:0:0:
265,74,4882,1,0,0:0:0:0:
103,70,5070,6,0,P|48:80|124:151,1,191,2|0,0:0|0:0,0:0:0:0:
271,197,5820,2,0,L|69:188,1,191
399,127,6570,6,0,L|502:122,2,95.5,2|2|2,0:0|0:0|0:0,0:0:0:0:
240,173,7132,2,0,P|196:149|269:60,1,191,2|2,0:0|0:0,0:0:0:0:
414,62,7882,1,0,0:0:0:0:
246,26,8070,6,0,P|163:24|118:135,1,191,2|2,0:0|0:0,0:0:0:0:
204,124,8632,1,0,0:0:0:0:
289,114,8820,2,0,L|292:322,1,191,2|2,0:0|0:0,0:0:0:0:
31,172,9570,5,2,0:0:0:0:
188,102,9945,2,0,L|70:124,1,95.5,2|2,0:0|0:0,0:0:0:0:
261,41,10507,1,2,0:0:0:0:
105,33,10882,1,2,0:0:0:0:
288,98,11070,5,0,0:0:0:0:
256,192,11257,12,2,12195,1:0:0:0:
166,158,12570,6,0,L|56:156,2,95.5,6|2|10,1:2|1:0|0:0,0:0:0:0:
335,177,13132,2,0,P|337:113|216:80,1,191,2|2,1:0|1:0,0:0:0:0:
144,80,13695,1,8,0:0:0:0:
315,64,13882,6,0,L|317:283,1,191,2|0,1:0|1:0,0:0:0:0:
229,264,14445,1,8,0:0:0:0:
316,267,14632,1,0,1:0:0:0:
159,189,14820,2,0,L|157:88,1,95.5,0|0,0:0|1:0,0:0:0:0:
325,99,15195,2,0,L|426:102,1,95.5,10|0,0:0|0:0,0:0:0:0:
251,37,15570,6,0,P|204:37|124:161,1,191,2|10,1:0|0:0,0:0:0:0:
287,181,16132,2,0,L|410:184,1,95.5,2|0,1:0|0:0,0:0:0:0:
217,100,16507,2,0,L|216:-7,1,95.5,2|8,1:0|0:0,0:0:0:0:
50,111,16882,6,0,P|51:49|178:15,1,191,2|2,1:0|1:0,0:0:0:0:
321,136,17445,2,0,L|212:129,1,95.5,10|2,0:0|1:0,0:0:0:0:
395,139,17820,2,0,L|400:242,1,95.5,2|2,0:0|1:0,0:0:0:0:
241,255,18195,2,0,L|128:254,1,95.5,8|10,0:0|0:0,0:0:0:0:
197,196,18476,1,10,0:0:0:0:
389,155,18570,6,0,L|485:153,2,95.5,2|2|10,1:0|1:0|0:0,0:0:0:0:
221,95,19132,2,0,L|426:88,1,191,2|2,1:0|1:0,0:0:0:0:
322,148,19695,1,8,0:0:0:0:
150,159,19882,6,0,P|100:138|165:57,1,191,2|0,1:0|1:0,0:0:0:0:
246,56,20445,1,8,0:0:0:0:
158,54,20632,1,0,1:0:0:0:
325,152,20820,2,0,L|333:45,1,95.5,2|0,0:0|1:0,0:0:0:0:
158,54,21195,2,0,L|147:-59,1,95.5,10|0,0:0|1:0,0:0:0:0:
321,20,21570,6,0,P|406:33|435:159,1,191,2|10,1:0|0:0,0:0:0:0:
282,190,22132,2,0,L|158:189,1,95.5,2|0,1:0|0:0,0:0:0:0:
351,141,22507,2,0,L|357:7,1,95.5,2|0,1:0|0:0,0:0:0:0:
184,238,22882,6,0,P|183:165|291:129,1,191,2|2,1:0|1:0,0:0:0:0:
116,118,23445,2,0,L|106:7,1,95.5,10|2,0:0|1:0,0:0:0:0:
264,86,23820,2,0,L|354:88,2,47.75,10|0|10,0:0|0:0|0:0,0:0:0:0:
94,181,24195,2,0,L|6:181,2,47.75,10|10|10,0:0|0:0|0:0,0:0:0:0:
367,207,24570,6,0,L|474:205,2,95.5,6|0|8,1:2|1:0|0:0,0:0:0:0:
206,219,25132,2,0,P|204:140|321:120,1,191,2|2,1:0|1:0,0:0:0:0:
139,94,25695,2,0,L|35:96,1,95.5,8|2,0:0|1:0,0:0:0:0:
196,165,26070,5,2,1:0:0:0:
36,113,26257,2,0,L|30:-4,1,95.5,2|0,1:0|0:0,0:0:0:0:
194,70,26632,2,0,P|258:81|291:201,1,191,2|2,1:0|1:0,0:0:0:0:
132,228,27195,2,0,L|252:230,1,95.5,0|0,0:0|1:0,0:0:0:0:
499,225,27570,6,0,P|503:165|382:114,1,191,2|10,1:0|0:0,0:0:0:0:
296,134,28132,1,2,1:0:0:0:
447,119,28320,2,0,L|453:3,1,95.5,2|0,0:0|1:0,0:0:0:0:
296,134,28695,2,0,L|396:132,1,95.5,10|2,0:0|1:0,0:0:0:0:
231,34,29070,6,0,P|137:36|110:141,1,191,2|8,1:0|0:0,0:0:0:0:
233,169,29632,1,2,1:0:0:0:
77,131,29820,2,0,L|75:6,1,95.5,2|0,0:0|1:0,0:0:0:0:
232,54,30195,2,0,L|94:60,1,95.5,10|0,0:0|1:0,0:0:0:0:
416,212,30570,6,0,P|476:193|412:121,1,191,2|8,1:0|0:0,0:0:0:0:
261,115,31132,2,0,L|261:10,1,95.5,2|0,1:0|0:0,0:0:0:0:
418,24,31507,2,0,L|309:22,1,95.5,2|8,1:0|0:0,0:0:0:0:
168,113,31882,1,2,1:0:0:0:
325,102,32070,5,0,1:0:0:0:
168,113,32257,2,0,L|165:9,1,95.5,2|8,1:0|0:0,0:0:0:0:
320,180,32632,2,0,L|125:183,1,191,2|0,1:0|1:0,0:0:0:0:
279,124,33195,2,0,L|288:25,1,95.5,10|0,0:0|0:0,0:0:0:0:
132,30,33570,6,0,P|65:34|31:148,1,191,2|10,1:0|0:0,0:0:0:0:
190,167,34132,2,0,L|192:51,1,95.5,2|0,1:0|0:0,0:0:0:0:
33,66,34507,2,0,L|140:57,1,95.5,2|10,1:0|0:0,0:0:0:0:
286,108,34882,6,0,L|287:9,1,95.5,2|0,1:0|0:0,0:0:0:0:
136,86,35257,2,0,L|343:85,1,191,2|2,1:0|1:0,0:0:0:0:
179,169,35820,2,0,L|168:44,1,95.5,2|2,0:0|1:0,0:0:0:0:
320,41,36195,2,0,L|435:43,1,95.5,10|10,0:0|0:0,0:0:0:0:
151,128,36570,6,0,L|45:132,2,95.5,2|2|10,1:2|1:0|0:0,0:0:0:0:
312,175,37132,2,1,L|311:70,1,95.5,2|0,1:0|0:0,0:0:0:0:
156,70,37507,2,0,L|55:71,1,95.5,2|8,1:0|0:0,0:0:0:0:
229,70,37882,1,2,1:0:0:0:
65,69,38070,5,0,1:0:0:0:
229,70,38257,2,0,L|235:173,1,95.5,2|8,1:0|0:0,0:0:0:0:
65,69,38632,2,0,L|56:-32,1,95.5,2|0,1:0|0:0,0:0:0:0:
229,69,39007,2,0,P|310:78|345:190,1,191,2|2,1:0|1:0,0:0:0:0:
195,218,39570,6,0,L|391:215,1,191,2|8,1:0|0:0,0:0:0:0:
234,141,40132,2,0,L|226:42,1,95.5,2|0,1:0|0:0,0:0:0:0:
384,55,40507,2,0,L|244:52,2,95.5,2|10|2,1:0|0:0|1:0,0:0:0:0:
224,46,41070,6,0,P|148:45|92:152,1,191,2|8,1:0|0:0,0:0:0:0:
249,173,41632,1,0,1:0:0:0:
88,101,41820,2,0,L|84:1,1,95.5,2|0,0:0|1:0,0:0:0:0:
241,145,42195,1,10,0:0:0:0:
84,5,42382,1,0,1:0:0:0:
350,67,42570,6,0,P|400:80|352:173,1,191,2|8,1:0|0:0,0:0:0:0:
200,225,43132,2,0,L|327:222,1,95.5,2|0,1:0|0:0,0:0:0:0:
128,141,43507,2,0,L|125:29,1,95.5,2|8,1:0|0:0,0:0:0:0:
291,75,43882,1,2,1:0:0:0:
131,84,44069,5,0,1:0:0:0:
131,84,44257,1,2,1:0:0:0:
227,154,44445,1,0,0:0:0:0:
405,182,44632,2,0,P|472:166|404:106,1,191,2|0,1:0|1:0,0:0:0:0:
255,76,45195,2,0,L|137:80,1,95.5,10|0,0:0|1:0,0:0:0:0:
326,70,45570,6,0,P|346:134|312:286,1,191,2|10,1:0|0:0,0:0:0:0:
171,247,46132,2,0,L|283:240,1,95.5,2|0,1:0|0:0,0:0:0:0:
426,235,46507,2,0,L|435:123,1,95.5,2|8,1:0|0:0,0:0:0:0:
271,108,46882,6,0,L|379:106,1,95.5,2|2,1:0|1:0,0:0:0:0:
199,36,47257,2,0,P|136:37|78:151,1,191,2|2,1:0|1:0,0:0:0:0:
153,137,47820,1,0,0:0:0:0:
75,137,48007,1,8,0:3:0:0:
228,137,48195,1,8,0:0:0:0:
75,137,48382,1,10,0:0:0:0:
363,237,48570,6,0,P|416:217|346:134,1,191,2|0,1:2|0:0,0:0:0:0:
212,106,49132,1,0,1:0:0:0:
368,70,49320,2,0,L|376:277,1,191,10|0,0:0|0:0,0:0:0:0:
283,263,49882,1,2,0:0:0:0:
116,182,50070,5,0,1:0:0:0:
32,112,50257,1,2,0:0:0:0:
123,44,50445,1,0,0:0:0:0:
210,39,50632,1,0,1:0:0:0:
35,100,50820,2,1,L|31:314,1,191,10|0,0:0|0:0,0:0:0:0:
120,295,51382,1,0,1:0:0:0:
291,290,51570,6,0,P|294:234|157:190,1,191,2|0,1:2|0:0,0:0:0:0:
279,142,52132,1,0,0:0:0:0:
105,117,52320,2,0,L|4:117,2,95.5,10|0|0,0:0|0:0|0:0,0:0:0:0:
271,32,52882,1,2,0:0:0:0:
105,117,53070,5,0,1:0:0:0:
271,32,53257,2,0,L|388:32,2,95.5,2|0|0,0:0|0:0|1:0,0:0:0:0:
106,166,53820,2,0,L|106:49,1,95.5,10|0,0:0|0:0,0:0:0:0:
201,74,54195,2,0,L|97:70,1,95.5,2|0,0:0|1:0,0:0:0:0:
373,248,54570,6,1,P|435:219|365:147,1,191,2|0,1:0|0:0,0:0:0:0:
279,142,55132,1,0,1:0:0:0:
446,113,55320,2,0,L|453:318,1,191,10|0,0:0|0:0,0:0:0:0:
361,309,55882,1,10,0:0:0:0:
191,202,56070,6,0,L|53:197,1,95.5,2|2,1:0|0:0,0:0:0:0:
258,126,56445,2,0,L|361:125,1,95.5,0|2,0:0|1:0,0:0:0:0:
181,50,56820,2,0,P|80:52|59:158,1,191,10|0,0:0|0:0,0:0:0:0:
143,146,57382,1,2,1:0:0:0:
322,212,57570,6,0,L|325:16,1,191,2|0,1:2|0:0,0:0:0:0:
163,22,58132,1,0,1:0:0:0:
333,26,58320,1,10,0:0:0:0:
439,57,58507,1,0,0:0:0:0:
448,146,58695,1,0,0:0:0:0:
351,192,58882,1,2,0:0:0:0:
191,192,59070,6,0,L|186:75,1,95.5,0|2,1:0|0:0,0:0:0:0:
338,95,59445,2,0,L|353:-29,1,95.5,0|0,0:0|1:0,0:0:0:0:
179,55,59820,2,0,L|63:58,3,95.5,10|10|10|10,0:0|0:0|0:0|0:0,0:0:0:0:
341,216,60570,6,0,P|384:191|315:100,1,191,2|10,1:2|0:0,0:0:0:0:
165,123,61132,2,0,L|157:12,1,95.5,2|0,1:0|0:0,0:0:0:0:
318,33,61507,2,0,L|419:37,1,95.5,2|8,1:0|0:0,0:0:0:0:
249,125,61882,1,2,1:0:0:0:
411,123,62070,5,2,1:0:0:0:
249,125,62257,2,0,L|245:12,1,95.5,0|10,1:0|0:0,0:0:0:0:
405,40,62632,2,0,L|200:37,1,191,2|0,1:0|1:0,0:0:0:0:
371,135,63195,2,0,L|471:138,1,95.5,10|0,0:0|1:0,0:0:0:0:
296,53,63570,6,0,P|212:50|165:157,1,191,2|10,1:0|0:0,0:0:0:0:
331,178,64132,2,0,L|339:75,1,95.5,2|0,1:0|0:0,0:0:0:0:
173,60,64507,2,0,L|40:59,1,95.5,2|8,1:0|0:0,0:0:0:0:
237,152,64882,6,0,L|432:155,1,191,2|0,1:0|1:0,0:0:0:0:
328,89,65445,1,8,0:0:0:0:
162,86,65632,2,0,L|157:-20,1,95.5,2|0,1:0|0:0,0:0:0:0:
328,89,66007,1,10,0:0:0:0:
165,87,66195,1,10,0:0:0:0:
328,89,66382,1,2,1:0:0:0:
49,198,66570,6,0,L|40:88,1,95.5,14|0,0:0|1:0,0:0:0:0:
138,71,66945,1,10,0:0:0:0:
301,197,67132,2,0,L|310:87,1,95.5,0|10,1:0|0:0,0:0:0:0:
212,70,67507,1,0,1:0:0:0:
375,70,67695,2,0,L|377:169,1,95.5,10|0,0:0|1:0,0:0:0:0:
212,70,68070,5,10,0:0:0:0:
375,70,68257,2,0,L|492:70,2,95.5,0|10|0,1:0|0:0|1:0,0:0:0:0:
189,181,68820,5,10,0:0:0:0:
127,174,68913,1,0,0:0:0:0:
102,151,68960,1,0,0:0:0:0:
126,129,69007,1,2,1:0:0:0:
187,120,69101,1,0,0:0:0:0:
346,124,69195,2,0,L|462:125,1,95.5,10|10,0:0|0:0,0:0:0:0:
388,173,69476,1,10,0:0:0:0:
184,51,69570,6,0,P|86:59|53:177,1,191,14|10,0:0|0:0,0:0:0:0:
221,187,70132,2,0,L|223:70,1,95.5,6|0,1:2|0:0,0:0:0:0:
51,83,70507,2,0,L|44:-34,1,95.5,6|10,1:2|0:0,0:0:0:0:
328,47,70882,5,6,1:2:0:0:
256,192,71070,12,0,72195,0:0:0:0:
353,173,72570,6,0,L|470:172,2,95.5,14|2|10,1:3|1:0|0:0,0:0:0:0:
182,172,73132,2,0,L|280:167,1,95.5,2|0,1:0|0:0,0:0:0:0:
446,150,73507,2,0,L|459:35,1,95.5,2|8,1:0|0:0,0:0:0:0:
171,81,73882,6,0,L|366:69,1,191,2|2,1:0|1:0,0:0:0:0:
267,147,74445,1,8,0:0:0:0:
92,156,74632,2,0,P|47:128|119:39,1,191,2|2,1:0|1:0,0:0:0:0:
261,38,75195,1,10,0:0:0:0:
415,41,75382,1,2,1:0:0:0:
109,192,75570,6,1,L|315:182,1,191,2|8,1:0|0:0,0:0:0:0:
299,182,76132,1,0,1:0:0:0:
137,121,76320,2,0,P|139:62|263:16,1,191,2|8,0:0|0:0,0:0:0:0:
406,119,76882,6,0,L|412:9,1,95.5,2|0,1:0|1:0,0:0:0:0:
242,39,77257,2,0,L|132:39,1,95.5,2|8,1:0|0:0,0:0:0:0:
320,63,77632,2,1,P|406:72|445:192,1,191,2|2,1:0|1:0,0:0:0:0:
299,178,78195,1,10,0:0:0:0:
446,180,78382,1,0,1:0:0:0:
158,118,78570,6,0,L|42:120,2,95.5,2|0|10,1:0|1:0|0:0,0:0:0:0:
328,165,79132,2,0,P|329:96|209:74,1,191,0|0,0:0|1:0,0:0:0:0:
397,76,79695,2,0,L|502:74,1,95.5,10|0,0:0|1:0,0:0:0:0:
315,37,80070,6,0,L|120:37,1,191,2|10,1:0|0:0,2:0:0:0:
280,142,80632,2,0,L|282:31,1,95.5,2|0,1:0|0:0,0:0:0:0:
124,44,81007,2,0,L|0:46,1,95.5,10|10,0:0|0:0,0:0:0:0:
301,53,81382,6,0,P|367:62|416:173,1,191,14|0,0:0|0:0,0:0:0:0:
318,185,81945,2,0,L|234:179,1,47.75,4|4,0:3|0:3,0:0:0:0:
86,122,82132,2,0,L|82:5,1,95.5,4|0,0:3|0:0,0:0:0:0:
236,97,82507,2,0,L|99:92,1,95.5,2|8,1:0|0:0,0:0:0:0:
303,39,82882,1,8,0:3:0:0:
457,32,83070,5,10,0:2:0:0:
303,39,83257,2,0,L|305:155,1,95.5,10|2,0:0|1:0,0:0:0:0:
132,173,83632,2,0,L|130:73,1,95.5,12|0,0:0|0:0,0:0:0:0:
391,67,84007,2,0,P|459:84|386:136,1,191,12|6,0:0|0:3,0:0:0:0:
244,219,84570,6,0,L|359:212,2,95.5,6|2|10,1:2|1:0|0:0,0:0:0:0:
398,190,85132,2,0,L|399:78,1,95.5,2|0,1:0|0:0,0:0:0:0:
236,72,85507,2,0,L|114:74,1,95.5,2|8,1:0|0:0,0:0:0:0:
307,177,85882,6,0,P|308:117|173:78,1,191,2|2,1:0|1:0,0:0:0:0:
110,65,86445,1,8,0:0:0:0:
276,65,86632,2,0,L|475:68,1,191,2|2,1:0|1:0,0:0:0:0:
310,152,87195,1,10,0:0:0:0:
151,142,87382,1,2,1:0:0:0:
419,213,87570,6,0,P|477:178|408:108,1,191,2|8,1:0|0:0,0:0:0:0:
319,102,88132,1,0,0:0:0:0:
156,155,88320,2,0,L|16:157,2,95.5,2|0|10,0:0|0:0|0:0,0:0:0:0:
315,147,88882,6,0,L|316:32,1,95.5,2|0,1:0|1:0,0:0:0:0:
147,65,89257,2,0,L|143:-44,1,95.5,2|8,1:0|0:0,0:0:0:0:
315,51,89632,1,2,1:0:0:0:
148,65,89820,1,8,0:0:0:0:
315,51,90007,1,10,0:0:0:0:
472,52,90195,1,10,0:0:0:0:
472,52,90382,1,10,0:0:0:0:
169,96,90570,6,1,P|81:101|50:205,1,191,6|0,1:2|0:0,0:0:0:0:
141,196,91132,1,0,1:0:0:0:
311,210,91320,2,0,L|315:15,1,191,10|2,0:0|0:0,0:0:0:0:
220,26,91882,1,0,1:0:0:0:
393,139,92070,6,0,L|394:31,1,95.5,2|8,1:0|0:0,0:0:0:0:
297,34,92445,1,2,0:0:0:0:
123,152,92632,2,0,L|121:52,1,95.5,2|8,1:0|0:0,0:0:0:0:
297,34,93007,1,10,0:0:0:0:
121,56,93195,1,10,0:0:0:0:
388,73,93382,5,6,1:2:0:0:
256,192,93570,12,0,94695,0:0:0:0:
183,152,95070,5,10,0:2:0:0:
338,151,95257,1,10,0:0:0:0:
72,83,95632,1,10,0:2:0:0:
218,82,96007,1,8,0:3:0:0:
134,77,96195,1,4,3:0:0:0:
418,187,96570,6,0,L|294:186,2,95.5,6|2|10,1:2|1:0|0:0,0:0:0:0:
257,95,97132,2,0,P|170:93|129:212,1,191,2|2,1:0|1:0,0:0:0:0:
220,192,97695,1,8,0:0:0:0:
393,206,97882,6,0,P|451:186|382:109,1,191,2|0,1:0|1:0,0:0:0:0:
229,83,98445,2,0,L|116:84,1,95.5,8|0,0:0|1:0,0:0:0:0:
307,99,98820,2,0,L|505:97,1,191,2|10,0:0|0:0,0:0:0:0:
195,78,99570,6,0,P|131:87|204:148,1,191,2|10,1:0|0:0,0:0:0:0:
340,162,100132,2,0,L|345:54,1,95.5,2|0,1:0|0:0,0:0:0:0:
185,66,100507,2,0,L|177:-37,1,95.5,2|8,1:0|0:0,0:0:0:0:
333,142,100882,6,0,L|96:141,1,191,2|2,1:0|1:0,0:0:0:0:
295,207,101445,2,0,L|302:83,1,95.5,10|2,0:0|1:0,0:0:0:0:
145,92,101820,2,0,L|245:86,1,95.5,2|0,0:0|1:0,0:0:0:0:
409,78,102195,2,0,L|473:79,2,47.75,10|0|10,0:0|0:0|0:0,0:0:0:0:
140,167,102570,6,0,L|11:174,2,95.5,6|2|10,1:2|1:0|0:0,0:0:0:0:
303,187,103132,2,0,L|312:78,1,95.5,2|0,1:0|0:0,0:0:0:0:
152,79,103507,2,0,L|151:-37,1,95.5,2|8,1:0|0:0,0:0:0:0:
314,32,103882,6,0,P|385:42|428:153,1,191,2|0,1:0|1:0,0:0:0:0:
261,174,104445,2,0,L|138:175,1,95.5,8|0,0:0|1:0,0:0:0:0:
336,229,104820,2,0,L|337:32,1,191,2|10,0:0|0:0,0:0:0:0:
181,32,105382,1,0,1:0:0:0:
343,35,105570,6,0,P|418:42|466:146,1,191,2|10,1:0|0:0,0:0:0:0:
310,190,106132,2,0,L|304:79,1,95.5,2|0,1:0|0:0,0:0:0:0:
461,97,106507,2,1,L|470:-9,1,95.5,2|0,1:0|0:0,0:0:0:0:
303,18,106882,6,0,P|226:23|174:127,1,191,2|2,1:0|1:0,0:0:0:0:
330,157,107445,2,0,L|192:155,1,95.5,10|2,0:0|1:0,0:0:0:0:
398,258,107820,1,10,0:0:0:0:
484,239,108007,1,10,0:0:0:0:
485,151,108195,1,10,0:0:0:0:
399,131,108382,1,10,0:0:0:0:
145,207,108570,6,0,L|38:205,2,95.5,6|0|8,1:2|1:0|0:0,0:0:0:0:
306,219,109132,2,0,P|308:140|191:120,1,191,2|2,1:0|1:0,0:0:0:0:
373,94,109695,2,0,L|477:96,1,95.5,8|0,0:0|1:0,0:0:0:0:
316,165,110070,5,2,1:0:0:0:
476,113,110257,2,0,L|482:-4,1,95.5,2|0,1:0|0:0,0:0:0:0:
318,70,110632,2,0,P|254:81|221:201,1,191,2|2,1:0|1:0,0:0:0:0:
380,228,111195,2,0,L|260:230,1,95.5,0|0,0:0|1:0,0:0:0:0:
13,225,111570,6,0,L|11:112,1,95.5,2|0,1:0|0:0,0:0:0:0:
176,129,111945,2,0,L|184:14,1,95.5,10|0,0:0|1:0,0:0:0:0:
26,152,112320,2,0,L|135:146,2,95.5,2|0|10,0:0|1:0|0:0,0:0:0:0:
194,52,112882,1,2,1:0:0:0:
357,43,113070,6,0,P|417:60|362:137,1,191,2|8,1:0|0:0,0:0:0:0:
279,169,113632,1,0,1:0:0:0:
435,131,113820,2,0,L|437:6,1,95.5,2|0,0:0|1:0,0:0:0:0:
280,54,114195,2,0,L|418:60,1,95.5,10|0,0:0|0:0,0:0:0:0:
96,212,114570,6,0,P|36:193|100:121,1,191,2|8,1:0|0:0,0:0:0:0:
251,115,115132,2,1,L|251:10,1,95.5,2|0,1:0|0:0,0:0:0:0:
155,12,115507,1,0,1:0:0:0:
323,72,115695,2,0,L|325:210,1,95.5,10|0,0:0|0:0,0:0:0:0:
187,102,116070,5,2,1:0:0:0:
344,113,116257,2,0,L|347:9,1,95.5,2|0,1:0|0:0,0:0:0:0:
192,180,116632,2,0,L|387:183,1,191,2|8,1:0|0:3,0:0:0:0:
218,119,117195,2,0,L|145:116,2,47.75,8|8|4,0:3|0:3|0:3,0:0:0:0:
471,0,117570,6,1,P|507:67|470:177,1,191,2|2,1:2|0:0,0:0:0:0:
322,167,118132,2,0,L|320:51,1,95.5,2|0,1:2|0:0,0:0:0:0:
479,66,118507,2,0,L|372:57,1,95.5,2|2,0:0|0:0,0:0:0:0:
226,108,118882,6,0,L|225:9,1,95.5,2|0,0:0|0:0,0:0:0:0:
376,86,119257,2,0,L|169:85,1,191,2|2,0:0|0:0,0:0:0:0:
333,169,119820,2,0,L|344:44,1,95.5,2|0,0:0|0:0,0:0:0:0:
192,41,120195,2,0,L|77:43,1,95.5,2|0,0:0|0:0,0:0:0:0:
361,128,120570,6,0,L|467:132,2,95.5,6|0|8,1:2|1:0|0:0,0:0:0:0:
200,175,121132,2,0,L|201:70,1,95.5,2|0,1:0|0:0,0:0:0:0:
356,70,121507,2,0,L|457:71,1,95.5,2|8,1:0|0:0,0:0:0:0:
283,70,121882,1,2,1:0:0:0:
447,69,122070,5,2,1:0:0:0:
283,70,122257,2,0,L|170:69,1,95.5,2|8,1:0|0:0,0:0:0:0:
342,167,122632,1,2,1:0:0:0:
499,181,122820,1,2,0:0:0:0:
326,71,123007,2,0,P|245:80|210:192,1,191,2|2,1:0|1:0,0:0:0:0:
361,223,123570,6,0,L|165:220,1,191,2|10,1:0|0:0,0:0:0:0:
318,149,124132,2,0,L|326:50,1,95.5,2|0,1:0|0:0,0:0:0:0:
159,53,124507,2,0,L|299:50,2,95.5,2|10|2,1:0|0:0|1:0,0:0:0:0:
310,46,125070,6,0,P|386:45|413:163,1,191,2|8,1:0|0:0,0:0:0:0:
263,173,125632,1,0,1:0:0:0:
424,101,125820,2,0,L|428:1,1,95.5,2|0,0:0|1:0,0:0:0:0:
271,145,126195,1,10,0:0:0:0:
428,5,126382,1,0,1:0:0:0:
162,67,126570,6,0,P|112:80|160:173,1,191,2|8,1:0|0:0,0:0:0:0:
312,225,127132,2,0,L|185:222,1,95.5,2|0,1:0|0:0,0:0:0:0:
384,141,127507,2,0,L|387:29,1,95.5,2|8,1:0|0:0,0:0:0:0:
221,75,127882,1,2,1:0:0:0:
381,84,128069,5,0,1:0:0:0:
381,84,128257,1,2,1:0:0:0:
285,154,128445,1,8,0:0:0:0:
107,182,128632,2,0,P|40:166|108:106,1,191,2|0,1:0|1:0,0:0:0:0:
257,76,129195,2,0,L|375:80,1,95.5,10|0,0:0|0:0,0:0:0:0:
186,70,129570,6,0,P|166:134|200:286,1,191,2|10,1:0|0:0,0:0:0:0:
341,247,130132,2,0,L|229:240,1,95.5,2|0,1:0|0:0,0:0:0:0:
86,235,130507,2,0,L|77:123,1,95.5,2|10,1:0|0:0,0:0:0:0:
241,108,130882,6,0,L|133:106,1,95.5,2|0,1:0|1:0,0:0:0:0:
313,36,131257,2,0,P|376:37|434:151,1,191,2|2,1:0|1:0,0:0:0:0:
359,137,131820,1,0,0:0:0:0:
437,137,132007,1,8,0:3:0:0:
284,137,132195,1,8,0:2:0:0:
437,137,132382,1,10,0:0:0:0:
149,237,132570,6,1,P|96:217|166:134,1,191,6|0,1:2|0:0,0:0:0:0:
300,106,133132,1,0,1:0:0:0:
144,70,133320,2,0,L|136:277,1,191,10|0,0:0|0:0,0:0:0:0:
229,263,133882,1,2,0:0:0:0:
396,182,134070,5,0,1:0:0:0:
480,112,134257,1,2,0:0:0:0:
389,44,134445,1,0,0:0:0:0:
302,39,134632,1,0,1:0:0:0:
477,100,134820,2,1,L|481:314,1,191,10|0,0:0|0:0,0:0:0:0:
392,295,135382,1,0,1:0:0:0:
221,290,135570,6,0,P|218:234|355:190,1,191,2|0,1:0|0:0,0:0:0:0:
172,160,136132,2,0,L|168:40,1,95.5,0|10,1:0|0:0,0:0:0:0:
325,68,136507,2,0,L|334:-37,1,95.5
241,32,136882,1,2,0:0:0:0:
394,155,137070,5,0,1:0:0:0:
241,32,137257,2,0,L|124:32,2,95.5,2|0|0,0:0|0:0|1:0,0:0:0:0:
406,166,137820,2,0,L|406:49,1,95.5,10|2,0:0|0:0,0:0:0:0:
311,74,138195,2,0,L|415:70,1,95.5,2|0,0:0|1:0,0:0:0:0:
139,248,138570,6,0,P|77:219|147:147,1,191,2|0,0:0|0:0,0:0:0:0:
233,142,139132,1,0,1:0:0:0:
66,113,139320,2,1,L|59:318,1,191,10|0,0:0|0:0,0:0:0:0:
151,309,139882,1,2,0:0:0:0:
321,202,140070,6,0,L|459:197,1,95.5,0|2,1:0|0:0,0:0:0:0:
254,126,140445,2,0,L|151:125,1,95.5,0|0,0:0|1:0,0:0:0:0:
331,50,140820,2,1,P|432:52|453:158,1,191,10|0,0:0|0:0,0:0:0:0:
369,146,141382,1,0,1:0:0:0:
190,212,141570,6,0,L|187:16,1,191,2|0,1:0|0:0,0:0:0:0:
349,22,142132,1,0,1:0:0:0:
179,26,142320,1,10,0:0:0:0:
73,57,142507,1,0,0:0:0:0:
64,146,142695,1,0,0:0:0:0:
161,192,142882,1,2,0:0:0:0:
321,192,143070,6,0,L|326:75,1,95.5,0|2,1:0|0:0,0:0:0:0:
174,95,143445,2,0,L|159:-29,1,95.5,0|0,0:0|1:0,0:0:0:0:
333,55,143820,2,0,L|449:58,3,95.5,10|10|10|10,0:0|0:0|0:0|0:0,0:0:0:0:
171,216,144570,6,0,P|128:191|197:100,1,191,6|10,1:2|0:0,0:0:0:0:
347,123,145132,2,0,L|355:12,1,95.5,2|0,1:0|0:0,0:0:0:0:
194,33,145507,2,0,L|93:37,1,95.5,2|8,1:0|0:0,0:0:0:0:
263,125,145882,1,2,1:0:0:0:
101,123,146070,5,2,1:0:0:0:
263,125,146257,2,0,L|267:12,1,95.5,0|10,1:0|0:0,0:0:0:0:
107,40,146632,2,0,L|312:37,1,191,2|0,1:0|1:0,0:0:0:0:
141,135,147195,2,0,L|41:138,1,95.5,10|0,0:0|0:0,0:0:0:0:
216,53,147570,6,0,P|300:50|347:157,1,191,2|10,1:0|0:0,0:0:0:0:
181,178,148132,2,0,L|173:75,1,95.5,2|0,1:0|0:0,0:0:0:0:
339,60,148507,2,0,L|472:59,1,95.5,2|8,1:0|0:0,0:0:0:0:
275,152,148882,6,0,L|80:155,1,191,2|2,1:0|1:0,0:0:0:0:
184,89,149445,1,8,0:0:0:0:
350,86,149632,2,0,L|355:-20,1,95.5,2|0,1:0|0:0,0:0:0:0:
184,89,150007,1,10,0:0:0:0:
347,87,150195,1,10,0:0:0:0:
184,89,150382,1,2,1:0:0:0:
463,198,150570,6,0,L|472:88,1,95.5,14|0,0:0|1:0,0:0:0:0:
374,71,150945,1,10,0:0:0:0:
211,197,151132,2,0,L|202:87,1,95.5,0|10,1:0|0:0,0:0:0:0:
300,70,151507,1,0,1:0:0:0:
137,70,151695,2,0,L|135:169,1,95.5,10|0,0:0|1:0,0:0:0:0:
300,70,152070,5,10,0:0:0:0:
137,70,152257,2,0,L|20:70,2,95.5,0|10|0,1:0|0:0|1:0,0:0:0:0:
323,181,152820,5,10,0:0:0:0:
385,174,152913,1,0,0:0:0:0:
409,151,152960,1,0,0:0:0:0:
386,129,153007,1,2,1:0:0:0:
325,120,153101,1,0,0:0:0:0:
166,124,153195,2,0,L|50:125,1,95.5,10|10,0:0|0:0,0:0:0:0:
124,173,153476,1,10,0:0:0:0:
328,51,153570,6,0,P|426:59|459:177,1,191,6|10,1:2|0:2,0:0:0:0:
291,187,154132,2,0,L|289:70,1,95.5,6|0,1:2|0:0,0:0:0:0:
461,83,154507,2,0,L|468:-34,1,95.5,6|10,1:2|0:0,0:0:0:0:
184,47,154882,5,6,1:2:0:0:
256,192,155070,12,4,156195,0:3:0:0:
159,173,156570,6,0,L|42:172,2,95.5,14|2|10,1:3|1:0|0:0,0:0:0:0:
330,172,157132,2,0,L|232:167,1,95.5,2|0,1:0|0:0,0:0:0:0:
66,150,157507,2,0,L|53:35,1,95.5,2|8,1:0|0:0,0:0:0:0:
341,81,157882,6,0,L|146:69,1,191,2|2,1:0|1:0,0:0:0:0:
245,147,158445,1,8,0:0:0:0:
420,156,158632,2,0,P|465:128|393:39,1,191,2|2,1:0|1:0,0:0:0:0:
251,38,159195,1,10,0:0:0:0:
97,41,159382,1,2,1:0:0:0:
403,192,159570,6,0,L|197:182,1,191,2|8,1:0|0:0,0:0:0:0:
213,182,160132,1,0,1:0:0:0:
375,121,160320,2,0,P|373:62|249:16,1,191,2|8,0:0|0:0,0:0:0:0:
106,119,160882,6,0,L|100:9,1,95.5,2|0,1:0|1:0,0:0:0:0:
270,39,161257,2,0,L|380:39,1,95.5,2|8,1:0|0:0,0:0:0:0:
192,63,161632,2,0,P|106:72|67:192,1,191,2|2,1:0|1:0,0:0:0:0:
213,178,162195,1,10,0:0:0:0:
66,180,162382,1,0,1:0:0:0:
354,118,162570,6,0,L|470:120,2,95.5,2|0|10,1:0|1:0|0:0,0:0:0:0:
184,165,163132,2,1,P|183:96|303:74,1,191,2|0,1:0|1:0,0:0:0:0:
115,76,163695,2,0,L|10:74,1,95.5,10|0,0:0|0:0,0:0:0:0:
197,37,164070,6,0,L|392:37,1,191,2|10,1:0|0:0,0:0:0:0:
232,142,164632,2,0,L|230:31,1,95.5,2|0,1:0|0:0,0:0:0:0:
388,44,165007,2,0,L|512:46,1,95.5,10|10,0:0|0:0,0:0:0:0:
211,53,165382,6,0,P|145:62|96:173,1,191,14|0,0:0|0:0,0:0:0:0:
194,185,165945,2,0,L|278:179,1,47.75,8|8,0:3|0:3,0:0:0:0:
426,122,166132,2,0,L|430:5,1,95.5,8|0,0:3|0:0,0:0:0:0:
276,97,166507,2,0,L|413:92,1,95.5,2|8,1:0|0:0,0:0:0:0:
209,39,166882,1,8,0:3:0:0:
58,30,167070,5,10,0:0:0:0:
209,39,167257,2,0,L|207:155,1,95.5,10|2,0:0|1:0,0:0:0:0:
380,173,167632,2,0,L|382:73,1,95.5,14|0,0:0|0:0,0:0:0:0:
121,67,168007,2,0,P|53:84|126:136,1,191,14|8,0:0|0:3,0:0:0:0:
268,219,168570,6,0,L|153:212,2,95.5,6|2|10,1:2|1:0|0:0,0:0:0:0:
114,190,169132,2,0,L|113:78,1,95.5,2|0,1:0|0:0,0:0:0:0:
276,72,169507,2,0,L|398:74,1,95.5,2|8,1:0|0:0,0:0:0:0:
205,177,169882,6,0,P|204:117|339:78,1,191,2|2,1:0|1:0,0:0:0:0:
402,65,170445,1,0,0:0:0:0:
236,65,170632,2,0,L|37:68,1,191,2|2,1:0|1:0,0:0:0:0:
202,152,171195,1,10,0:0:0:0:
361,142,171382,1,2,1:0:0:0:
93,213,171570,6,0,P|35:178|104:108,1,191,2|8,1:0|0:0,0:0:0:0:
193,102,172132,1,0,1:0:0:0:
356,155,172320,2,0,L|496:157,2,95.5,2|0|8,0:0|0:0|0:0,0:0:0:0:
197,147,172882,6,0,L|196:32,1,95.5,2|0,1:0|1:0,0:0:0:0:
365,65,173257,2,0,L|369:-44,1,95.5,2|8,1:0|0:0,0:0:0:0:
197,51,173632,1,2,1:0:0:0:
364,65,173820,1,8,0:0:0:0:
197,51,174007,1,10,0:0:0:0:
40,52,174195,1,10,0:0:0:0:
40,52,174382,1,10,0:0:0:0:
343,96,174570,6,0,P|431:101|462:205,1,191,14|0,0:0|0:0,0:0:0:0:
371,196,175132,1,0,1:0:0:0:
201,210,175320,2,1,L|197:15,1,191,8|2,0:0|0:0,0:0:0:0:
292,26,175882,1,0,1:0:0:0:
119,139,176070,6,0,L|118:31,1,95.5,2|8,1:0|0:0,0:0:0:0:
215,34,176445,1,2,0:0:0:0:
389,152,176632,2,0,L|391:52,1,95.5,2|8,1:0|0:0,0:0:0:0:
215,34,177007,1,10,0:0:0:0:
391,56,177195,1,10,0:0:0:0:
336,51,177288,1,10,0:0:0:0:
124,73,177382,6,0,P|64:97|145:168,1,191,6|0,1:2|1:0,0:0:0:0:
266,172,177945,1,10,0:0:0:0:
269,124,178038,1,2,0:0:0:0:
273,76,178132,1,2,1:2:0:0:
182,60,178320,2,0,L|119:61,2,47.75,2|2|2,0:0|0:0|1:2,0:0:0:0:
359,57,178695,2,0,L|433:59,2,47.75,10|2|2,0:0|0:0|1:2,0:0:0:0:
268,77,179070,5,0,1:0:0:0:
267,124,179163,1,0,0:0:0:0:
266,172,179257,1,0,1:0:0:0:
430,180,179445,1,10,0:0:0:0:
261,177,179632,2,0,L|131:181,1,95.5,2|0,1:0|0:0,0:0:0:0:
344,90,180007,2,0,L|469:92,2,95.5,2|8|2,1:0|0:0|1:0,0:0:0:0:
91,213,180570,6,0,L|309:217,1,191,0|10,1:0|0:0,0:0:0:0:
144,150,181132,2,0,P|90:131|155:52,1,191,2|0,1:0|1:0,0:0:0:0:
298,82,181695,2,0,L|412:84,1,95.5,8|2,0:0|1:0,0:0:0:0:
344,17,181976,1,0,0:0:0:0:
234,166,182070,6,0,L|135:169,2,95.5,0|0|10,0:0|1:0|0:0,0:0:0:0:
391,161,182632,2,0,L|396:53,1,95.5,2|0,1:0|0:0,0:0:0:0:
239,49,183007,2,0,L|120:52,1,95.5,2|8,1:0|0:0,0:0:0:0:
315,55,183382,2,0,L|319:137,1,47.75,2|2,1:0|1:0,0:0:0:0:
132,197,183570,6,0,P|78:180|150:103,1,191,2|10,1:0|0:0,0:0:0:0:
183,90,184038,1,2,1:0:0:0:
348,110,184132,2,0,P|401:125|329:213,1,191,2|2,1:0|1:0,0:0:0:0:
201,213,184695,1,8,0:0:0:0:
358,192,184882,6,0,L|359:89,1,95.5,2|0,1:0|1:0,0:0:0:0:
211,93,185257,2,0,L|206:-25,1,95.5,2|8,1:0|0:0,0:0:0:0:
366,27,185632,2,0,P|445:41|480:151,1,191,2|2,1:0|1:0,0:0:0:0:
324,176,186195,2,0,L|433:177,1,95.5,8|2,0:0|1:0,0:0:0:0:
163,254,186570,6,0,P|101:240|185:192,1,191,2|10,1:0|0:0,0:0:0:0:
316,173,187132,2,0,L|325:57,1,95.5,2|0,1:0|0:0,0:0:0:0:
161,73,187507,2,0,L|156:-35,1,95.5,2|8,1:0|0:0,0:0:0:0:
428,30,187882,6,0,P|479:46|417:126,1,191,2|0,1:0|1:0,0:0:0:0:
261,155,188445,2,0,L|205:156,2,47.75,10|2|2,0:0|0:0|1:2,0:0:0:0:
425,163,188820,1,2,0:0:0:0:
459,114,188913,1,2,0:0:0:0:
430,67,189007,1,2,1:2:0:0:
368,81,189101,1,0,0:0:0:0:
306,80,189195,1,10,0:0:0:0:
305,27,189288,1,2,1:2:0:0:
367,26,189382,1,10,0:3:0:0:
100,236,189570,6,0,P|46:214|126:135,1,191,6|8,1:2|0:0,0:0:0:0:
255,144,190132,2,0,L|258:22,1,95.5,2|0,1:0|0:0,0:0:0:0:
101,39,190507,2,0,L|5:39,1,95.5,2|10,1:0|0:0,0:0:0:0:
166,61,190882,6,0,P|241:70|285:196,1,191,2|0,1:0|1:0,0:0:0:0:
147,181,191445,1,8,0:0:0:0:
438,203,191632,2,0,P|437:139|306:104,1,191,2|2,1:0|1:0,0:0:0:0:
182,87,192195,1,10,0:0:0:0:
445,216,192382,6,0,P|502:197|444:112,1,191,2|0,1:0|1:0,0:0:0:0:
288,124,192945,2,0,L|156:122,1,95.5,8|0,0:0|1:0,0:0:0:0:
351,211,193320,1,2,0:0:0:0:
192,122,193507,1,2,1:2:0:0:
351,211,193695,1,10,0:0:0:0:
97,215,193882,6,0,L|93:112,1,95.5,2|0,1:0|0:0,0:0:0:0:
264,89,194257,2,0,L|372:93,1,95.5,2|8,1:0|0:0,0:0:0:0:
196,145,194632,1,2,1:0:0:0:
352,148,194820,2,0,L|365:34,1,95.5,8|8,0:0|0:0,0:0:0:0:
198,42,195195,2,0,L|90:44,1,95.5,10|8,0:0|0:0,0:0:0:0:
398,215,195570,6,0,P|460:183|387:117,1,191,14|0,0:0|0:0,0:0:0:0:
247,115,196132,1,0,1:0:0:0:
409,119,196320,2,0,L|413:10,1,95.5,10|2,0:0|0:0,0:0:0:0:
247,115,196695,1,2,0:0:0:0:
406,119,196882,6,0,L|510:117,1,95.5,2|0,1:0|1:0,0:0:0:0:
336,37,197257,2,0,L|228:38,1,95.5,10|0,0:0|0:0,0:0:0:0:
402,166,197632,2,0,P|406:109|271:62,1,191,2|2,1:0|1:0,0:0:0:0:
154,85,198195,1,10,0:0:0:0:
417,96,198382,5,6,1:2:0:0:
256,192,198570,12,0,201195,0:0:0:0:
250,84,201570,6,0,L|149:96,2,95.5,2|0|0,1:2|0:0|0:0,0:0:0:0:
394,172,202132,2,0,L|395:53,1,95.5
256,179,202507,2,0,L|248:65,1,95.5
410,71,202882,1,0,0:0:0:0:
249,83,203070,6,0,L|124:85,1,95.5,2|0,1:0|0:0,0:0:0:0:
249,83,203445,2,0,L|251:197,1,95.5
101,237,203820,2,0,L|296:241,1,191
291,240,204382,1,0,0:0:0:0:
129,149,204570,6,0,P|76:120|150:42,1,191,2|0,1:0|0:0,0:0:0:0:
229,90,205132,2,0,L|236:-24,1,95.5
143,93,205507,1,0,0:0:0:0:
227,89,205695,2,0,L|231:189,1,95.5,2|0,1:0|0:0,0:0:0:0:
61,233,206070,6,0,L|56:24,1,191,2|0,1:0|0:0,0:0:0:0:
234,97,206820,1,0,0:0:0:0:
138,97,207007,1,0,0:0:0:0:
43,97,207195,1,0,0:0:0:0:
321,153,207570,6,0,L|422:165,2,95.5,2|0|0,1:0|0:0|0:0,0:0:0:0:
162,232,208132,2,0,L|161:113,1,95.5
321,153,208507,2,0,L|323:41,1,95.5
165,101,208882,1,0,0:0:0:0:
325,107,209070,6,0,L|450:109,1,95.5,2|0,1:0|0:0,0:0:0:0:
325,107,209445,2,0,L|323:221,1,95.5
476,272,209820,2,0,L|281:276,1,191
199,261,210382,1,0,0:0:0:0:
348,178,210570,6,0,P|401:149|327:71,1,191,2|0,1:0|0:0,0:0:0:0:
248,119,211132,2,0,L|241:5,1,95.5
334,122,211507,1,0,0:0:0:0:
171,117,211695,1,2,1:0:0:0:
334,122,211882,1,0,0:0:0:0:
171,117,212070,6,0,L|166:-2,1,95.5,2|0,1:0|0:0,0:0:0:0:
339,31,212445,2,0,P|439:59|449:170,1,191
370,157,213007,1,0,0:0:0:0:
461,134,213195,1,0,0:0:0:0:
178,96,213570,6,0,L|67:98,2,95.5,2|0|2,1:0|0:0|1:0,0:0:0:0:
331,151,214132,2,0,L|336:32,1,95.5,0|0,0:0|1:0,0:0:0:0:
178,96,214507,1,0,0:0:0:0:
331,151,214695,1,8,0:0:0:0:
178,96,214882,1,0,0:0:0:0:
331,151,215070,6,0,L|456:149,1,95.5,0|0,1:0|0:0,0:0:0:0:
266,220,215445,2,0,L|259:101,1,95.5,0|2,1:0|0:0,0:0:0:0:
420,91,215820,2,0,L|301:89,1,95.5,2|0,1:2|0:0,0:0:0:0:
155,91,216195,2,0,L|44:94,1,95.5,10|0,0:0|0:0,0:0:0:0:
226,222,216570,6,0,P|284:202|207:133,1,191,2|2,1:0|1:0,0:0:0:0:
71,137,217132,2,0,L|165:126,1,95.5,2|0,0:0|1:0,0:0:0:0:
327,122,217507,2,0,L|230:122,2,95.5,2|8|0,0:0|0:0|0:0,0:0:0:0:
165,219,218070,6,0,P|107:188|177:111,1,191,2|0,1:0|1:0,0:0:0:0:
320,108,218632,2,0,L|323:34,1,47.75,10|10,0:0|0:0,0:0:0:0:
157,44,218820,2,0,L|15:52,1,95.5,2|8,1:2|0:0,0:0:0:0:
331,154,219195,2,0,L|447:155,1,95.5,10|10,0:0|0:0,0:0:0:0:
379,98,219476,1,10,0:0:0:0:
174,254,219570,6,0,P|107:222|175:157,1,191,6|0,1:2|1:0,0:0:0:0:
314,166,220132,2,0,L|317:56,1,95.5,0|0,0:0|1:0,0:0:0:0:
155,59,220507,2,0,L|258:54,2,95.5,0|0|2,0:0|1:0|0:0,0:0:0:0:
434,167,221070,6,0,L|441:57,1,95.5,6|0,1:2|1:0,0:0:0:0:
263,62,221445,2,0,L|156:63,1,95.5,0|0,1:0|1:0,0:0:0:0:
348,89,221820,2,0,L|350:205,1,95.5,0|0,1:0|1:0,0:0:0:0:
180,208,222195,2,0,L|260:203,1,47.75,2|2,1:2|1:2,0:0:0:0:
412,199,222382,2,0,L|428:133,1,47.75,2|2,1:2|1:2,0:0:0:0:
256,79,222570,6,0,P|191:80|147:214,1,191,14|8,0:0|0:0,0:0:0:0:
305,235,223132,2,0,P|356:211|285:126,1,191,0|0,1:0|1:0,0:0:0:0:
141,122,223695,1,8,0:0:0:0:
302,121,223882,1,0,1:0:0:0:
40,154,224070,6,0,L|27:38,1,95.5,14|10,0:0|0:0,0:0:0:0:
191,48,224445,2,0,L|77:46,1,95.5,10|10,0:0|0:0,0:0:0:0:
397,104,224820,2,0,L|465:106,2,47.75,10|10|10,0:0|0:0|0:0,0:0:0:0:
229,146,225195,1,8,0:0:0:0:
397,104,225382,2,0,L|314:99,1,47.75,10|8,0:0|0:0,0:0:0:0:
116,237,225570,6,0,P|63:217|136:131,1,191,6|8,1:2|0:0,0:0:0:0:
271,144,226132,2,0,L|276:38,1,95.5,6|0,1:2|0:0,0:0:0:0:
99,57,226507,2,0,L|92:-43,1,95.5,6|8,1:2|0:0,0:0:0:0:
443,86,226882,5,6,1:2:0:0:
256,192,227070,12,0,228195,0:0:0:0:
181,152,228570,6,0,L|292:148,2,95.5,14|2|10,1:3|1:0|0:0,0:0:0:0:
350,173,229132,2,0,L|358:61,1,95.5,2|0,1:0|0:0,0:0:0:0:
176,49,229507,2,0,L|63:47,1,95.5,2|8,1:0|0:0,0:0:0:0:
364,234,229882,6,0,P|425:213|349:147,1,191,2|2,1:0|1:0,0:0:0:0:
219,110,230445,1,0,0:0:0:0:
376,102,230632,2,0,L|385:217,1,95.5,2|0,1:0|0:0,0:0:0:0:
214,222,231007,2,0,L|326:218,2,95.5,2|10|2,1:0|0:0|1:0,0:0:0:0:
473,250,231570,6,0,L|476:44,1,191,2|8,1:0|0:0,0:0:0:0:
334,36,232132,1,0,1:0:0:0:
74,189,232320,2,0,P|13:148|89:83,1,191,2|8,0:0|0:0,0:0:0:0:
252,173,232882,6,0,L|254:53,1,95.5,2|0,1:0|1:0,0:0:0:0:
81,71,233257,2,0,L|77:-40,1,95.5,2|8,1:0|0:0,0:0:0:0:
250,91,233632,2,0,L|37:94,1,191,2|2,1:0|1:0,0:0:0:0:
204,199,234195,1,10,0:0:0:0:
59,93,234382,1,2,1:0:0:0:
343,124,234570,6,0,L|453:124,2,95.5,2|0|10,1:0|1:0|0:0,0:0:0:0:
177,215,235132,2,1,P|121:197|190:124,1,191,2|0,1:0|1:0,0:0:0:0:
337,127,235695,2,0,L|342:11,1,95.5,10|0,0:0|0:0,0:0:0:0:
185,116,236070,6,0,L|406:111,1,191,2|10,1:0|0:0,0:0:0:0:
221,207,236632,2,0,L|211:91,1,95.5,2|0,1:0|0:0,0:0:0:0:
371,90,237007,1,10,0:0:0:0:
212,111,237195,1,10,0:0:0:0:
483,187,237382,6,0,P|492:126|376:74,1,191,14|0,0:0|0:0,0:0:0:0:
226,75,237945,2,0,L|219:13,1,47.75,4|4,0:3|0:3,0:0:0:0:
398,28,238132,2,0,L|497:28,1,95.5,4|0,0:3|0:0,0:0:0:0:
321,150,238507,2,0,L|189:150,1,95.5,2|8,1:0|0:0,0:0:0:0:
411,95,238882,5,0,0:0:0:0:
270,92,239069,1,10,0:0:0:0:
411,95,239257,1,10,0:0:0:0:
153,177,239632,1,14,0:0:0:0:
424,183,240007,2,0,P|474:158|404:73,1,191,14|8,0:0|0:3,0:0:0:0:
138,88,240570,6,0,L|33:86,2,95.5,6|2|10,1:2|1:0|0:0,0:0:0:0:
305,140,241132,2,0,L|315:19,1,95.5,2|0,1:0|0:0,0:0:0:0:
146,39,241507,2,0,L|17:42,1,95.5,2|8,1:0|0:0,0:0:0:0:
306,38,241882,6,0,P|367:48|404:186,1,191,2|2,1:0|1:0,0:0:0:0:
255,157,242445,1,8,0:0:0:0:
409,143,242632,2,0,L|413:28,1,95.5,2|0,1:0|0:0,0:0:0:0:
163,85,243007,1,2,1:0:0:0:
10,91,243194,1,10,0:0:0:0:
163,85,243382,1,2,1:0:0:0:
428,217,243570,6,0,P|486:192|409:114,1,191,2|8,1:0|0:0,0:0:0:0:
329,104,244132,1,0,0:0:0:0:
50,191,244320,2,0,L|44:76,1,95.5,2|0,0:0|1:0,0:0:0:0:
153,63,244695,1,8,0:0:0:0:
323,128,244882,6,0,L|431:128,1,95.5,2|0,1:0|1:0,0:0:0:0:
244,203,245257,2,0,L|130:201,1,95.5,2|8,1:0|0:0,0:0:0:0:
322,176,245632,2,0,L|326:70,1,95.5,2|8,1:0|0:0,0:0:0:0:
171,68,246007,1,10,0:0:0:0:
325,80,246195,1,10,0:0:0:0:
479,90,246382,1,10,0:0:0:0:
171,68,246570,6,0,P|84:73|46:197,1,191,14|0,0:0|0:0,0:0:0:0:
127,167,247132,1,0,1:0:0:0:
304,188,247320,2,0,L|311:84,1,95.5,10|0,0:0|0:0,0:0:0:0:
148,57,247695,2,0,L|44:54,1,95.5,2|0,0:0|1:0,0:0:0:0:
223,47,248070,6,0,P|299:49|341:176,1,191,2|2,1:0|0:0,0:0:0:0:
183,188,248632,2,0,L|177:63,1,95.5,2|8,1:0|0:0,0:0:0:0:
341,60,249007,1,8,0:0:0:0:
178,92,249195,1,8,0:0:0:0:
465,177,249382,6,0,P|466:116|350:74,1,191,12|8,0:0|0:0,0:0:0:0:
271,140,249945,1,8,0:0:0:0:
360,69,250132,1,8,0:0:0:0:
206,68,250320,1,8,0:0:0:0:
360,69,250507,1,8,0:0:0:0:
206,68,250695,1,8,0:0:0:0:
360,69,250882,1,8,0:0:0:0:
107,157,251070,6,0,L|12:153,1,95.5,8|8,0:0|0:0,0:0:0:0:
320,113,251445,2,0,L|431:110,1,95.5,8|8,0:0|0:0,0:0:0:0:
148,57,251820,1,10,0:3:0:0:
406,53,252007,1,10,0:3:0:0:
206,168,252570,6,0,L|106:167,2,95.5,6|2|10,1:2|1:0|0:0,0:0:0:0:
366,163,253132,2,0,L|371:60,1,95.5,2|0,1:0|0:0,0:0:0:0:
212,47,253507,2,0,L|93:51,1,95.5,2|8,1:0|0:0,0:0:0:0:
276,55,253882,6,0,P|342:60|392:189,1,191,2|0,1:0|1:0,0:0:0:0:
248,184,254445,2,0,L|130:184,1,95.5,8|0,0:0|1:0,0:0:0:0:
317,189,254820,2,0,L|320:-8,1,191,2|10,0:0|0:0,0:0:0:0:
221,7,255382,1,0,0:0:0:0:
387,207,255570,6,0,P|440:187|372:106,1,191,2|10,1:0|0:0,0:0:0:0:
225,116,256132,2,0,L|117:118,1,95.5,2|0,1:0|0:0,0:0:0:0:
287,59,256507,2,0,L|400:56,1,95.5,2|8,1:0|0:0,0:0:0:0:
97,238,256882,6,0,P|36:208|116:139,1,191,2|2,1:0|1:0,0:0:0:0:
253,134,257445,2,0,L|379:137,1,95.5,10|2,0:0|1:0,0:0:0:0:
185,186,257820,2,0,L|181:63,1,95.5,2|0,0:0|1:0,0:0:0:0:
350,66,258195,2,0,L|461:68,1,95.5,8|10,0:0|0:0,0:0:0:0:
399,120,258476,1,10,0:0:0:0:
194,113,258570,6,0,L|87:111,2,95.5,6|2|10,1:2|1:0|0:0,0:0:0:0:
352,113,259132,2,0,L|353:231,1,95.5,2|0,1:0|0:0,0:0:0:0:
194,224,259507,2,0,L|77:222,1,95.5,2|8,1:0|0:0,0:0:0:0:
259,261,259882,6,0,P|316:239|246:158,1,191,2|0,1:0|1:0,0:0:0:0:
102,132,260445,2,0,L|1:132,1,95.5,8|0,0:0|1:0,0:0:0:0:
166,81,260820,2,0,L|378:83,1,191,2|8,0:0|0:0,0:0:0:0:
208,147,261382,1,0,0:0:0:0:
461,160,261570,6,0,P|463:103|353:65,1,191,2|10,1:0|0:0,0:0:0:0:
193,109,262132,2,0,L|91:108,1,95.5,2|0,1:0|0:0,0:0:0:0:
260,182,262507,2,0,L|370:179,1,95.5,2|8,1:0|0:0,0:0:0:0:
87,278,262882,6,0,P|36:257|102:168,1,191,2|2,1:0|1:0,0:0:0:0:
238,148,263445,2,0,L|343:147,1,95.5,10|10,0:0|0:3,0:0:0:0:
169,220,263820,1,12,0:0:0:0:
333,147,264007,1,8,0:0:0:0:
163,240,264195,2,0,L|76:242,2,47.75,12|8|8,0:0|0:0|0:0,0:0:0:0:
416,266,264570,6,0,L|417:162,1,95.5,6|2,1:2|1:0,0:0:0:0:
245,125,264945,1,10,0:0:0:0:
410,158,265132,2,0,L|505:157,1,95.5,2|0,1:0|0:0,0:0:0:0:
335,248,265507,2,0,L|208:245,1,95.5,2|8,1:0|0:0,0:0:0:0:
407,221,265882,6,0,P|411:152|308:115,1,191,2|0,1:0|1:0,0:0:0:0:
153,119,266445,2,0,L|146:4,1,95.5,8|0,0:0|1:0,0:0:0:0:
306,37,266820,2,0,L|498:35,1,191,2|10,0:0|0:0,0:0:0:0:
146,236,267570,6,0,P|96:212|159:123,1,191,2|10,1:0|0:0,0:0:0:0:
316,132,268132,2,0,L|323:25,1,95.5,2|0,1:0|0:0,0:0:0:0:
155,40,268507,2,0,L|17:40,1,95.5,2|8,1:0|0:0,0:0:0:0:
234,56,268882,6,0,L|356:56,2,95.5,2|2|2,1:0|1:0|1:0,0:0:0:0:
397,115,269445,2,0,L|398:227,1,95.5,10|2,0:0|1:0,0:0:0:0:
244,224,269820,1,2,0:0:0:0:
397,210,270007,1,2,1:0:0:0:
143,122,270195,2,0,L|36:120,1,95.5,10|10,0:0|0:0,0:0:0:0:
104,59,270476,1,10,0:0:0:0:
325,91,270570,6,0,L|425:92,1,95.5,14|0,0:0|1:0,0:0:0:0:
259,198,270945,1,10,0:0:0:0:
424,160,271132,2,0,L|432:46,1,95.5,0|10,1:0|0:0,0:0:0:0:
259,198,271507,2,0,L|366:197,1,95.5,0|10,1:0|0:0,0:0:0:0:
98,284,271882,6,0,P|33:263|114:206,1,191,0|0,1:0|1:0,0:0:0:0:
261,172,272445,2,0,L|144:174,1,95.5,10|0,0:0|1:0,0:0:0:0:
419,177,272820,2,0,L|430:72,1,95.5,10|0,0:0|1:0,0:0:0:0:
268,52,273195,1,10,0:0:0:0:
428,82,273382,1,0,1:0:0:0:
129,212,273570,6,0,P|66:187|150:128,1,191,10|10,0:0|0:0,0:0:0:0:
285,144,274132,2,0,L|392:141,1,95.5,2|10,1:0|0:0,0:0:0:0:
218,52,274507,2,0,L|89:51,1,95.5,2|8,1:0|0:0,0:0:0:0:
394,222,274882,6,0,P|453:201|390:125,1,191,2|2,1:0|1:0,0:0:0:0:
241,149,275445,2,0,L|350:150,1,95.5,10|2,0:0|1:0,0:0:0:0:
175,69,275820,2,0,L|58:62,1,95.5,10|2,0:0|1:0,0:0:0:0:
333,81,276195,2,0,L|396:83,2,47.75,10|10|10,0:0|0:0|0:0,0:0:0:0:
171,188,276570,6,0,P|116:123|116:86,2,95.5,14|0|0,0:0|0:0|0:0,0:0:0:0:
257,185,277132,1,0,0:0:0:0:
107,124,277507,1,0,0:0:0:0:
296,107,277882,1,0,0:0:0:0:
296,107,278070,5,2,0:0:0:0:
175,78,278445,1,0,0:0:0:0:
307,43,278820,1,0,0:0:0:0:
445,38,279195,1,0,0:0:0:0:
276,112,279570,5,2,0:0:0:0:
148,79,279945,1,0,0:0:0:0:
233,50,280132,1,0,0:0:0:0:
387,69,280507,1,0,0:0:0:0:
221,126,281070,5,2,0:0:0:0:
207,106,281116,1,0,0:0:0:0:
201,83,281163,1,2,0:0:0:0:
203,59,281210,1,0,0:0:0:0:
212,38,281257,1,2,0:0:0:0:
226,21,281304,1,0,0:0:0:0:
355,73,282570,5,2,0:0:0:0:
375,96,282632,1,0,0:0:0:0:
380,127,282695,1,0,0:0:0:0:
367,156,282757,5,2,0:0:0:0:
256,192,282945,12,0,287070,0:0:0:0:
