osu file format v14

[General]
AudioFilename: audio.mp3
AudioLeadIn: 0
PreviewTime: 47962
Countdown: 0
SampleSet: Soft
StackLeniency: 0.7
Mode: 2
LetterboxInBreaks: 0
WidescreenStoryboard: 1

[Editor]
DistanceSpacing: 1.4
BeatDivisor: 4
GridSize: 8
TimelineZoom: 3.699999

[Metadata]
Title:Aoi Tsuki
TitleUnicode:蒼い月
Artist:Daisy x Daisy
ArtistUnicode:Daisy x Daisy
Creator:-Luminate
Version:Rain
Source:流星ワールドアクター
Tags:Ryuusei World Actor DMM Games Digination Heliodor MiKA SugarLover eroge visual novel opening op Meteor 流星WA WA MiKA vn video game japanese
BeatmapID:3412860
BeatmapSetID:1035051

[Difficulty]
HPDrainRate:6
CircleSize:4
OverallDifficulty:9
ApproachRate:9
SliderMultiplier:1.83
SliderTickRate:2

[Events]
//Background and Video events
0,0,"bg.jpg",0,0
//Break Periods
//Storyboard Layer 0 (Background)
//Storyboard Layer 1 (Fail)
//Storyboard Layer 2 (Pass)
//Storyboard Layer 3 (Foreground)
//Storyboard Layer 4 (Overlay)
//Storyboard Sound Samples

[TimingPoints]
254,306.122448979592,4,2,1,55,1,0
1405,329.67032967033,4,2,1,65,1,0
1569,327.868852459016,4,2,1,60,1,0
11896,-100,4,2,1,40,0,0
13700,-100,4,2,1,33,0,0
23044,-100,4,2,1,45,0,0
23700,-100,4,2,1,60,0,0
34355,-100,4,2,1,50,0,0
42224,-100,4,2,1,65,0,0
48618,-100,4,2,1,80,0,1
72388,-100,4,2,1,55,0,0
74355,-100,4,2,1,80,0,1
81405,-100,4,2,1,65,0,0
92060,-100,4,2,1,30,0,0
94683,-100,4,2,1,25,0,0
95995,-100,4,2,1,20,0,0
97306,-100,4,2,1,10,0,0
98618,-100,4,2,1,5,0,0

[Colours]
Combo1 : 176,43,200
Combo2 : 13,183,225
Combo3 : 159,159,159
Combo4 : 27,115,203

[HitObjects]
128,336,100,5,8,0:0:0:0:
368,336,254,2,0,L|472:336,1,91.5,14|0,0:1|0:0,0:0:0:0:
408,296,483,1,8,0:0:0:0:
256,296,560,2,0,L|136:296,1,91.5,8|8,0:0|0:0,0:0:0:0:
280,112,866,2,0,L|288:56,1,45.75,8|0,0:0|0:0,0:0:0:0:
224,56,1019,2,8,L|216:112,1,45.75,8|8,0:0|0:0,0:0:0:0:
360,224,1172,2,10,L|408:224,2,45.75,10|10|2,0:0|0:0|0:1,0:0:0:0:
176,344,1405,6,0,L|56:344,1,91.5,14|0,0:0|0:0,0:0:0:0:
152,232,1732,1,0,0:0:0:0:
288,224,1896,2,0,L|344:224,1,45.75,8|2,0:1|0:0,0:0:0:0:
272,168,2060,2,0,L|160:168,1,91.5,2|8,0:3|0:0,0:0:0:0:
304,72,2388,2,0,L|400:72,1,91.5,2|8,0:0|0:1,0:0:0:0:
144,48,2716,6,0,L|32:48,1,91.5,2|0,0:0|0:0,0:0:0:0:
168,120,3044,2,0,L|288:120,1,91.5,2|8,0:0|0:1,0:0:0:0:
496,304,3372,2,0,L|384:304,1,91.5,2|0,0:0|0:0,0:0:0:0:
296,232,3700,1,8,0:3:0:0:
408,192,3864,1,8,0:1:0:0:
184,344,4028,6,0,P|136:280|200:200,1,183,2|0,0:0|0:0,0:0:0:0:
296,200,4519,1,8,0:1:0:0:
72,160,4683,2,0,L|72:56,1,91.5,2|0,0:0|0:0,0:0:0:0:
192,64,5011,1,2,0:0:0:0:
72,68,5175,1,8,0:1:0:0:
296,336,5339,6,0,L|392:336,1,91.5,2|0,0:0|0:0,0:0:0:0:
280,256,5667,2,0,L|168:256,1,91.5,2|8,0:0|0:1,0:0:0:0:
432,56,5995,2,0,L|328:56,1,91.5,2|8,0:0|0:0,0:0:0:0:
192,56,6323,1,8,0:3:0:0:
144,88,6405,1,8,0:3:0:0:
144,152,6487,1,8,0:1:0:0:
192,184,6568,1,8,0:0:0:0:
400,352,6650,6,0,P|448:264|392:216,1,183,4|0,0:0|0:0,0:0:0:0:
248,216,7142,2,0,L|160:216,1,45.75,8|2,0:1|0:0,0:0:0:0:
272,144,7306,2,0,L|384:144,1,91.5,2|8,0:0|0:0,0:0:0:0:
136,48,7634,2,0,L|24:48,1,91.5,2|8,0:0|0:1,0:0:0:0:
184,208,7962,6,0,L|192:88,1,91.5,2|0,0:0|0:0,0:0:0:0:
48,296,8290,2,0,L|152:296,1,91.5,2|0,0:0|0:0,0:0:0:0:
416,296,8618,2,0,L|312:296,1,91.5,2|0,0:0|0:0,0:0:0:0:
208,232,8946,1,8,0:0:0:0:
328,192,9109,1,8,0:1:0:0:
104,48,9273,6,0,P|48:104|104:176,1,183,4|0,0:0|0:0,0:0:0:0:
232,160,9765,1,8,0:1:0:0:
248,272,9929,1,8,0:0:0:0:
112,296,10093,1,8,0:1:0:0:
100,175,10257,1,8,0:0:0:0:
344,128,10421,1,8,0:1:0:0:
100,83,10585,6,0,L|100:195,1,91.5,4|0,0:0|0:0,0:0:0:0:
224,216,10913,1,2,0:0:0:0:
96,296,11077,1,8,0:1:0:0:
344,272,11241,1,8,0:3:0:0:
392,232,11323,1,8,0:3:0:0:
344,208,11405,1,4,0:3:0:0:
96,96,11568,2,0,P|48:152|112:240,1,183,2|8,0:0|0:0,0:0:0:0:
288,232,12224,5,2,0:0:0:0:
96,236,12552,1,2,0:0:0:0:
216,200,12716,1,8,0:3:0:0:
168,176,12798,1,8,0:3:0:0:
152,120,12880,1,4,0:3:0:0:
168,56,12962,1,4,0:3:0:0:
216,32,13044,1,4,0:3:0:0:
456,40,13208,1,4,0:0:0:0:
296,320,13700,5,0,0:0:0:0:
296,320,13864,1,0,0:0:0:0:
416,320,14028,2,0,P|456:240|384:168,1,183,2|0,0:0|0:0,0:0:0:0:
152,224,14683,6,0,P|104:152|160:80,1,183,2|0,0:0|0:0,0:0:0:0:
264,136,15175,2,0,L|72:32,1,183,2|0,0:0|0:0,0:0:0:0:
376,312,15995,6,0,P|416:208|360:160,1,183,2|0,0:0|0:0,0:0:0:0:
224,320,16487,2,0,P|120:192|240:72,1,366,2|0,0:0|0:0,0:0:0:0:
320,328,17306,6,0,P|232:296|184:40,1,366,0|0,0:0|0:0,0:0:0:0:
304,56,18290,1,0,0:0:0:0:
48,64,18618,6,0,L|48:288,1,183,2|0,0:0|0:0,0:0:0:0:
160,344,19109,2,0,P|264:296|280:224,1,183,2|0,0:0|0:0,0:0:0:0:
200,240,19601,1,2,0:0:0:0:
432,312,19929,6,0,L|440:32,1,274.5,2|2,0:0|0:0,0:0:0:0:
248,344,20749,2,0,L|240:160,1,183,2|0,0:0|0:0,0:0:0:0:
376,264,21241,6,0,P|424:200|360:120,1,183,2|0,0:0|0:0,0:0:0:0:
224,344,21732,2,0,P|128:264|248:80,1,366,2|0,0:0|0:0,0:0:0:0:
352,352,22552,2,0,L|360:160,1,183,8|4,0:0|0:3,0:0:0:0:
224,168,23044,1,10,0:3:0:0:
472,128,23372,1,6,0:3:0:0:
56,48,23700,6,0,P|8:104|72:192,1,183,4|0,0:0|0:0,0:0:0:0:
184,184,24191,1,8,0:1:0:0:
56,279,24355,2,0,L|56:175,1,91.5,2|0,0:0|0:0,0:0:0:0:
184,184,24683,2,0,L|192:64,1,91.5,8|8,0:0|0:1,0:0:0:0:
352,200,25011,6,0,P|400:136|328:48,1,183,2|8,0:0|0:0,0:0:0:0:
224,56,25503,1,8,0:1:0:0:
352,336,25667,2,0,L|456:336,1,91.5,2|8,0:0|0:0,0:0:0:0:
328,272,25995,1,8,0:0:0:0:
88,256,26159,2,0,L|80:144,1,91.5,8|0,0:1|0:0,0:0:0:0:
328,144,26487,5,6,0:3:0:0:
184,144,26650,2,0,L|72:144,1,91.5,2|8,0:0|0:1,0:0:0:0:
224,240,26978,2,0,L|328:240,1,91.5,2|8,0:0|0:0,0:0:0:0:
176,352,27306,2,0,L|168:224,1,91.5,2|8,0:0|0:1,0:0:0:0:
323,240,27634,2,0,L|408:240,1,45.75,2|2,0:0|0:0,0:0:0:0:
168,184,27798,6,0,P|120:120|184:40,1,183,10|8,0:0|0:1,0:0:0:0:
296,40,28290,1,0,0:0:0:0:
170,43,28454,2,0,L|160:144,1,91.5,8|8,0:0|0:0,0:0:0:0:
296,176,28782,1,8,0:1:0:0:
40,344,28946,6,0,P|56:248|144:208,1,183,4|0,0:0|0:0,0:0:0:0:
248,272,29437,2,0,P|296:176|232:128,1,183,8|8,0:1|0:0,0:0:0:0:
128,128,29929,1,8,0:0:0:0:
112,32,30093,1,8,0:1:0:0:
392,344,30257,6,0,P|440:280|392:200,1,183,4|0,0:0|0:0,0:0:0:0:
272,200,30749,2,0,P|184:168|168:64,1,183,8|8,0:1|0:0,0:0:0:0:
304,128,31241,1,8,0:0:0:0:
312,32,31405,1,8,0:1:0:0:
56,328,31568,6,0,L|48:104,1,183,4|8,0:0|0:0,0:0:0:0:
176,168,32060,2,0,L|320:32,2,183,8|8|8,0:1|0:0|0:1,0:0:0:0:
472,312,32880,6,0,P|440:168|320:112,1,274.5,4|8,0:0|0:1,0:0:0:0:
176,112,33700,1,8,0:3:0:0:
304,112,33864,2,0,L|352:112,2,45.75,8|8|4,0:1|0:3|0:3,0:0:0:0:
64,304,34191,6,0,L|56:176,1,91.5,4|0,0:0|0:0,0:0:0:0:
200,304,34519,1,0,0:0:0:0:
288,256,34683,1,10,0:0:0:0:
288,152,34847,1,0,0:0:0:0:
200,120,35011,1,10,0:0:0:0:
368,280,35175,2,0,P|456:240|464:136,1,183,2|0,0:0|0:0,0:0:0:0:
224,288,35667,6,0,L|216:184,1,91.5,10|0,0:0|0:0,0:0:0:0:
352,200,35995,1,10,0:0:0:0:
216,196,36159,2,0,P|160:128|240:72,1,183,2|0,0:0|0:0,0:0:0:0:
352,56,36650,1,10,0:0:0:0:
214,70,36814,2,0,L|166:70,1,45.75,8|8,0:0|0:0,0:0:0:0:
352,144,36978,6,0,L|464:144,1,91.5,8|0,0:1|0:0,0:0:0:0:
312,216,37306,1,2,0:0:0:0:
176,338,37470,2,0,L|334:195,2,183,2|2|2,0:0|0:0|0:0,0:0:0:0:
424,240,38454,2,0,L|424:352,1,91.5,10|0,0:3|0:0,0:0:0:0:
296,352,38782,2,0,L|296:256,1,91.5,6|0,0:3|0:0,0:0:0:0:
168,240,39109,1,8,0:0:0:0:
296,200,39273,1,4,0:3:0:0:
168,160,39437,2,0,L|168:80,1,45.75,8|8,0:0|0:0,0:0:0:0:
328,96,39601,6,0,L|448:96,1,91.5,4|0,0:0|0:0,0:0:0:0:
288,32,39929,1,10,0:0:0:0:
200,88,40093,1,0,0:0:0:0:
200,176,40257,1,10,0:0:0:0:
352,320,40421,2,0,L|352:184,1,91.5,2|0,0:0|0:0,0:0:0:0:
256,232,40749,1,0,0:0:0:0:
32,304,40913,5,8,0:0:0:0:
32,224,41077,1,10,0:1:0:0:
152,184,41241,1,8,0:0:0:0:
32,160,41405,2,0,L|32:88,1,45.75,8|8,0:0|0:0,0:0:0:0:
208,104,41568,2,0,L|320:104,1,91.5,8|2,0:1|0:0,0:0:0:0:
176,216,41896,1,12,0:3:0:0:
56,216,42060,1,4,0:3:0:0:
304,360,42224,6,0,P|352:280|264:208,1,183,4|0,0:0|0:0,0:0:0:0:
176,216,42716,2,0,L|168:136,1,45.75,8|8,0:0|0:0,0:0:0:0:
400,176,42880,2,0,P|448:112|384:32,1,183,12|8,0:1|0:0,0:0:0:0:
272,40,43372,1,8,0:1:0:0:
400,288,43536,5,12,0:0:0:0:
416,176,43700,1,8,0:1:0:0:
264,152,43864,2,0,L|136:152,1,91.5,8|0,0:0|0:0,0:0:0:0:
308,288,44191,2,0,L|404:288,1,91.5,12|0,0:1|0:0,0:0:0:0:
160,352,44519,2,0,L|56:352,1,91.5,8|8,0:0|0:1,0:0:0:0:
308,288,44847,6,0,L|460:160,2,183,6|8|8,0:0|0:1|0:0,0:0:0:0:
144,288,45831,1,8,0:1:0:0:
408,344,45995,6,0,P|456:288|392:200,1,183,6|0,0:0|0:0,0:0:0:0:
272,168,46487,2,0,L|376:168,1,91.5,8|0,0:1|0:0,0:0:0:0:
480,168,46814,1,8,0:1:0:0:
216,328,46978,2,0,L|208:264,1,45.75,10|8,0:3|0:3,0:0:0:0:
272,272,47142,2,0,L|280:192,1,45.75,4|4,0:3|0:3,0:0:0:0:
104,224,47306,1,6,0:0:0:0:
276,226,47634,5,8,0:1:0:0:
152,200,47798,2,0,L|152:88,1,91.5,12|0,0:3|0:0,0:0:0:0:
304,104,48126,2,0,L|400:104,2,91.5,2|0|8,0:0|0:0|0:0,0:0:0:0:
72,208,48618,6,0,L|64:80,1,91.5,4|0,0:0|0:0,0:0:0:0:
304,232,48946,2,0,L|408:232,1,91.5,2|8,0:1|0:1,0:0:0:0:
248,312,49273,1,2,0:0:0:0:
160,256,49437,1,8,0:0:0:0:
160,168,49601,1,2,0:0:0:0:
304,144,49765,1,8,0:1:0:0:
56,144,49929,6,0,L|48:16,1,91.5,4|0,0:0|0:0,0:0:0:0:
168,72,50257,2,0,L|56:72,1,91.5,2|8,0:0|0:1,0:0:0:0:
208,144,50585,1,0,0:0:0:0:
312,200,50749,1,2,0:0:0:0:
312,296,50913,1,8,0:0:0:0:
176,328,51077,1,8,0:1:0:0:
400,336,51241,6,0,L|504:336,1,91.5,4|0,0:0|0:0,0:0:0:0:
240,64,51568,2,0,L|112:64,1,91.5,2|8,0:0|0:1,0:0:0:0:
280,152,51896,2,0,L|384:152,1,91.5,2|0,0:0|0:0,0:0:0:0:
128,336,52224,2,0,L|24:336,1,91.5,2|8,0:0|0:1,0:0:0:0:
280,152,52552,6,0,P|327:230|271:294,1,183,4|2,0:0|0:0,0:0:0:0:
144,288,53044,2,0,L|40:288,1,91.5,8|2,0:1|0:0,0:0:0:0:
192,224,53372,1,8,0:0:0:0:
200,136,53536,1,8,0:0:0:0:
64,128,53700,2,0,L|56:16,1,91.5,8|0,0:1|0:0,0:0:0:0:
336,256,54028,6,0,P|385:177|304:120,1,183,6|8,0:0|0:1,0:0:0:0:
200,136,54519,2,0,L|192:24,1,91.5,2|8,0:0|0:0,0:0:0:0:
332,121,54847,2,0,L|436:121,1,91.5,2|8,0:0|0:1,0:0:0:0:
184,344,55175,6,0,P|72:288|64:208,1,183,6|0,0:0|0:0,0:0:0:0:
184,216,55667,1,8,0:1:0:0:
59,240,55831,2,0,L|56:128,1,91.5,2|0,0:0|0:0,0:0:0:0:
184,128,56159,1,8,0:0:0:0:
448,128,56323,2,0,L|456:224,1,91.5,8|4,0:1|0:3,0:0:0:0:
232,344,56650,6,0,P|192:280|248:200,1,183,4|8,0:0|0:1,0:0:0:0:
384,184,57142,1,8,0:0:0:0:
248,128,57306,1,8,0:1:0:0:
384,96,57470,1,8,0:0:0:0:
144,72,57634,2,0,L|88:72,1,45.75,8|8,0:1|0:1,0:0:0:0:
312,328,57798,6,0,L|448:328,1,91.5,4|0,0:0|0:0,0:0:0:0:
144,240,58126,2,0,L|40:240,1,91.5,2|8,0:0|0:1,0:0:0:0:
152,128,58454,1,8,0:3:0:0:
376,256,58618,2,0,L|384:176,1,45.75,8|8,0:3|0:3,0:0:0:0:
312,208,58782,2,0,L|304:144,1,45.75,8|8,0:0|0:0,0:0:0:0:
464,136,58946,2,0,L|472:80,1,45.75,4|4,0:3|0:3,0:0:0:0:
280,64,59109,6,0,L|168:64,1,91.5,4|0,0:0|0:0,0:0:0:0:
456,320,59437,2,0,L|360:320,1,91.5,2|8,0:0|0:1,0:0:0:0:
232,320,59765,1,0,0:0:0:0:
456,280,59929,1,2,0:0:0:0:
360,232,60093,1,8,0:0:0:0:
456,192,60257,1,8,0:1:0:0:
224,128,60421,6,0,L|96:128,1,91.5,6|0,0:0|0:0,0:0:0:0:
368,336,60749,2,0,L|488:336,1,91.5,2|8,0:0|0:1,0:0:0:0:
352,248,61077,1,8,0:0:0:0:
128,176,61241,1,2,0:0:0:0:
224,224,61405,1,8,0:0:0:0:
128,280,61568,1,8,0:1:0:0:
368,80,61732,6,0,P|408:184|336:224,1,183,4|8,0:0|0:0,0:0:0:0:
216,256,62224,2,0,P|168:192|240:128,1,183,8|8,0:1|0:0,0:0:0:0:
360,120,62716,1,10,0:0:0:0:
232,80,62880,1,8,0:1:0:0:
464,328,63044,6,0,L|472:200,1,91.5,4|0,0:0|0:0,0:0:0:0:
352,216,63372,1,8,0:3:0:0:
472,176,63536,1,8,0:1:0:0:
224,144,63700,2,0,L|104:144,1,91.5,2|0,0:0|0:0,0:0:0:0:
280,336,64028,2,0,L|352:320,1,45.75,8|8,0:3|0:3,0:0:0:0:
352,296,64191,2,0,L|360:216,1,45.75,4|4,0:3|0:3,0:0:0:0:
328,208,64355,2,0,L|256:216,1,45.75,8|8,0:0|0:0,0:0:0:0:
448,184,64519,6,0,L|456:304,1,91.5,2|0,0:0|0:0,0:0:0:0:
144,328,64847,1,8,0:1:0:0:
280,336,65011,2,0,L|288:224,1,91.5,2|8,0:0|0:0,0:0:0:0:
144,232,65339,2,0,L|136:112,1,91.5,8|8,0:0|0:1,0:0:0:0:
384,128,65667,1,2,0:0:0:0:
256,128,65831,6,0,L|144:128,1,91.5,8|0,0:0|0:0,0:0:0:0:
296,208,66159,2,0,L|400:208,1,91.5,10|0,0:1|0:0,0:0:0:0:
144,344,66487,2,0,L|40:344,1,91.5,10|0,0:0|0:0,0:0:0:0:
184,248,66814,2,0,L|296:248,1,91.5,8|0,0:1|0:0,0:0:0:0:
48,184,67142,6,0,P|16:72|72:48,1,183,14|8,0:0|0:1,0:0:0:0:
328,48,67634,2,0,L|216:48,1,91.5,2|8,0:0|0:0,0:0:0:0:
128,120,67962,2,0,L|232:120,1,91.5,8|8,0:0|0:1,0:0:0:0:
472,240,68290,6,0,P|440:128|360:104,1,183,4|2,0:0|0:0,0:0:0:0:
160,344,68782,2,0,L|152:264,1,45.75,8|8,0:1|0:0,0:0:0:0:
216,296,68946,2,0,L|224:240,1,45.75,8|8,0:0|0:0,0:0:0:0:
72,224,69109,2,0,L|80:160,1,45.75,8|8,0:1|0:1,0:0:0:0:
112,136,69273,2,0,L|176:136,1,45.75,4|4,0:3|0:3,0:0:0:0:
336,136,69437,1,12,0:3:0:0:
448,136,69601,1,12,0:3:0:0:
224,248,69765,5,12,0:0:0:0:
136,200,69929,1,0,0:0:0:0:
224,152,70093,1,8,0:1:0:0:
454,270,70257,2,0,P|502:214|438:134,1,183,4|8,0:0|0:3,0:0:0:0:
336,128,70749,1,8,0:1:0:0:
80,344,70913,6,0,P|32:256|112:208,1,183,4|0,0:0|0:0,0:0:0:0:
216,208,71405,2,0,L|328:208,1,91.5,8|0,0:1|0:0,0:0:0:0:
168,160,71732,1,8,0:1:0:0:
128,112,71814,1,8,0:3:0:0:
168,72,71896,1,8,0:0:0:0:
312,312,72060,1,8,0:1:0:0:
360,288,72142,1,8,0:3:0:0:
360,232,72224,1,8,0:0:0:0:
312,216,72306,1,8,0:3:0:0:
128,280,72388,5,8,0:3:0:0:
48,232,72552,1,2,0:0:0:0:
128,192,72716,1,8,0:0:0:0:
264,48,72880,2,0,P|312:128|240:200,1,183,2|0,0:0|0:0,0:0:0:0:
128,192,73372,1,0,0:0:0:0:
264,352,73536,6,0,P|336:320|368:208,1,183,2|0,0:0|0:0,0:0:0:0:
248,216,74028,1,8,0:0:0:0:
240,112,74191,1,8,0:0:0:0:
480,320,74355,2,0,L|384:320,1,91.5,12|8,0:1|0:0,0:0:0:0:
152,320,74683,2,0,L|160:240,1,45.75,8|8,0:1|0:1,0:0:0:0:
224,272,74847,2,0,L|232:208,1,45.75,8|8,0:3|0:3,0:0:0:0:
88,184,75011,5,12,0:3:0:0:
200,136,75175,1,8,0:0:0:0:
208,80,75257,1,8,0:0:0:0:
144,80,75339,2,0,L|136:0,1,45.75,8|8,0:1|0:1,0:0:0:0:
320,32,75503,2,0,L|440:32,1,91.5,10|0,0:0|0:0,0:0:0:0:
280,128,75831,1,8,0:3:0:0:
336,128,75913,1,8,0:3:0:0:
392,128,75995,1,8,0:0:0:0:
120,224,76159,1,12,0:0:0:0:
392,320,76323,5,8,0:1:0:0:
440,304,76405,1,8,0:1:0:0:
440,224,76487,2,0,L|352:224,1,45.75,8|8,0:0|0:0,0:0:0:0:
224,144,76650,1,8,0:1:0:0:
176,128,76732,1,8,0:1:0:0:
176,48,76814,2,0,L|232:48,1,45.75,8|8,0:0|0:0,0:0:0:0:
440,224,76978,2,0,L|448:88,1,91.5,12|0,0:1|0:0,0:0:0:0:
184,296,77306,2,0,L|176:200,1,91.5,12|0,0:1|0:0,0:0:0:0:
445,132,77634,5,4,0:0:0:0:
352,80,77798,1,2,0:0:0:0:
448,48,77962,1,8,0:1:0:0:
208,32,78126,2,0,L|112:32,1,91.5,2|0,0:0|0:0,0:0:0:0:
353,132,78454,2,0,L|465:132,1,91.5,2|8,0:0|0:3,0:0:0:0:
208,344,78782,6,0,P|160:280|224:200,1,183,4|2,0:0|0:0,0:0:0:0:
312,192,79273,2,0,L|160:80,2,183,8|4|8,0:3|0:3|0:0,0:0:0:0:
64,344,80093,6,0,P|72:216|144:184,1,183,6|8,0:0|0:0,0:0:0:0:
232,184,80585,2,0,L|240:136,1,45.75,8|8,0:3|0:3,0:0:0:0:
176,136,80749,2,0,L|168:80,1,45.75,8|8,0:0|0:0,0:0:0:0:
352,360,80913,2,0,L|400:360,1,45.75,8|8,0:1|0:1,0:0:0:0:
400,288,81077,2,0,L|328:288,1,45.75,8|8,0:3|0:3,0:0:0:0:
192,288,81241,2,0,L|120:288,1,45.75,6|6,0:3|0:3,0:0:0:0:
352,360,81405,6,0,P|400:304|336:216,1,183,6|0,0:0|0:0,0:0:0:0:
208,224,81896,2,0,L|152:224,1,45.75,8|2,0:1|0:0,0:0:0:0:
224,168,82060,2,0,L|336:168,1,91.5,2|8,0:0|0:0,0:0:0:0:
192,72,82388,2,0,L|96:72,1,91.5,2|8,0:0|0:1,0:0:0:0:
352,48,82716,6,0,L|464:48,1,91.5,2|8,0:0|0:0,0:0:0:0:
328,136,83044,2,0,L|432:136,1,91.5,2|8,0:0|0:1,0:0:0:0:
184,312,83372,2,0,L|88:312,1,91.5,2|0,0:0|0:0,0:0:0:0:
200,232,83700,1,8,0:0:0:0:
88,192,83864,1,8,0:1:0:0:
312,344,84028,6,0,P|360:280|296:200,1,183,2|0,0:0|0:0,0:0:0:0:
200,200,84519,1,8,0:1:0:0:
424,160,84683,2,0,L|424:56,1,91.5,2|0,0:0|0:0,0:0:0:0:
304,64,85011,1,2,0:0:0:0:
424,68,85175,1,8,0:1:0:0:
200,336,85339,6,0,L|104:336,1,91.5,2|8,0:0|0:0,0:0:0:0:
216,256,85667,2,0,L|328:256,1,91.5,2|8,0:0|0:1,0:0:0:0:
64,56,85995,6,0,L|168:56,1,91.5,2|8,0:0|0:3,0:0:0:0:
304,56,86323,1,8,0:0:0:0:
352,88,86405,1,8,0:0:0:0:
352,152,86487,1,8,0:1:0:0:
304,184,86568,1,8,0:1:0:0:
96,352,86650,6,0,P|48:264|104:216,1,183,4|0,0:0|0:0,0:0:0:0:
248,216,87142,2,0,L|336:216,1,45.75,8|2,0:1|0:0,0:0:0:0:
224,144,87306,2,0,L|112:144,1,91.5,2|8,0:0|0:0,0:0:0:0:
360,48,87634,2,0,L|472:48,1,91.5,2|8,0:0|0:1,0:0:0:0:
312,208,87962,6,0,L|304:88,1,91.5,2|0,0:0|0:0,0:0:0:0:
448,296,88290,2,0,L|344:296,1,91.5,2|8,0:0|0:1,0:0:0:0:
80,296,88618,2,0,L|184:296,1,91.5,2|0,0:0|0:0,0:0:0:0:
288,232,88946,1,8,0:3:0:0:
168,192,89109,1,8,0:1:0:0:
392,48,89273,6,0,P|448:104|392:176,1,183,4|8,0:0|0:0,0:0:0:0:
168,152,89765,1,12,0:1:0:0:
152,272,89929,1,8,0:0:0:0:
384,296,90093,1,12,0:1:0:0:
396,175,90257,1,8,0:0:0:0:
152,128,90421,1,12,0:1:0:0:
396,83,90585,6,0,L|396:195,1,91.5,2|8,0:0|0:0,0:0:0:0:
272,216,90913,1,2,0:0:0:0:
400,296,91077,1,8,0:1:0:0:
152,272,91241,1,8,0:0:0:0:
144,192,91405,1,8,0:1:0:0:
296,208,91568,2,0,L|344:208,1,45.75,4|4,0:3|0:3,0:0:0:0:
200,112,91732,2,0,L|128:112,1,45.75,4|4,0:3|0:3,0:0:0:0:
336,56,91896,1,4,0:0:0:0:
256,192,92060,12,0,98618,0:0:0:0:
