osu file format v14

[General]
AudioFilename: Duisuke Ohnuma - Dual Dragon Flying Flash.mp3
AudioLeadIn: 0
PreviewTime: 89986
Countdown: 0
SampleSet: Soft
StackLeniency: 0.7
Mode: 3
LetterboxInBreaks: 0
SpecialStyle: 0
WidescreenStoryboard: 0

[Editor]
DistanceSpacing: 0.7
BeatDivisor: 4
GridSize: 32
TimelineZoom: 2.5

[Metadata]
Title:Dual Dragon Flying Flash
TitleUnicode:双龍飛閃-Dual Dragoon-
Artist:Daisuke Ohnuma
ArtistUnicode:双龍飛閃
Creator:Amiichii
Version:Lightning Dragon
Source:VOEZ
Tags:rhythm game DoNotMess Critical_Star Hamids-
BeatmapID:1301009
BeatmapSetID:616966

[Difficulty]
HPDrainRate:8.5
CircleSize:4
OverallDifficulty:8.5
ApproachRate:5
SliderMultiplier:1.4
SliderTickRate:1

[Events]
//Background and Video events
0,0,"Dual_Dragoon.jpg",0,0
//Break Periods
//Storyboard Layer 0 (Background)
//Storyboard Layer 1 (Fail)
//Storyboard Layer 2 (Pass)
//Storyboard Layer 3 (Foreground)
//Storyboard Sound Samples

[TimingPoints]
4515,283.018867924528,4,2,1,70,1,0
20364,-100,4,2,1,70,0,1
38477,-100,4,2,1,70,0,0
90552,-100,4,2,1,70,0,1
108665,-100,4,2,1,70,0,0

[HitObjects]
64,192,4515,5,0,0:0:0:0:
192,192,4515,1,0,0:0:0:70:Soft-hitfinish2.wav
448,192,4515,128,0,9043:0:0:0:70:PunK.wav
320,192,7486,128,0,9043:0:0:0:0:
192,192,9043,1,2,0:0:0:0:
64,192,9043,1,4,0:0:0:0:
192,192,9255,1,0,0:0:0:0:
448,192,9255,1,0,0:0:0:0:
320,192,9255,1,2,0:0:0:0:
192,192,9467,1,0,0:0:0:0:
64,192,9467,1,2,0:0:0:0:
448,192,9467,1,0,0:0:0:0:
320,192,9609,1,2,0:0:0:0:
448,192,9609,1,0,0:0:0:0:
192,192,9680,1,2,0:0:0:0:
64,192,9680,1,0,0:0:0:0:
320,192,9750,1,2,0:0:0:0:
448,192,9750,1,0,0:0:0:0:
192,192,9892,1,2,0:0:0:0:
64,192,9892,1,0,0:0:0:0:
320,192,9963,1,2,0:0:0:0:
448,192,9963,1,0,0:0:0:0:
192,192,10033,1,2,0:0:0:0:
64,192,10033,1,0,0:0:0:0:
320,192,10104,1,2,0:0:0:0:
192,192,10175,1,2,0:0:0:0:
64,192,10175,1,4,0:0:0:0:
448,192,10175,1,0,0:0:0:0:
192,192,10316,1,0,0:0:0:0:
448,192,10387,1,4,0:0:0:0:
64,192,10387,1,0,0:0:0:0:
320,192,10387,1,2,0:0:0:0:
320,192,10529,1,0,0:0:0:0:
448,192,10599,1,0,0:0:0:0:
192,192,10599,1,4,0:0:0:0:
64,192,10599,1,2,0:0:0:0:
448,192,10741,1,0,0:0:0:0:
320,192,10741,1,2,0:0:0:0:
192,192,10812,1,0,0:0:0:0:
64,192,10812,1,2,0:0:0:0:
448,192,10953,1,0,0:0:0:0:
320,192,10953,1,2,0:0:0:0:
192,192,11024,1,2,0:0:0:0:
64,192,11024,1,0,0:0:0:0:
320,192,11095,1,2,0:0:0:0:
448,192,11095,1,0,0:0:0:0:
192,192,11165,1,2,0:0:0:0:
64,192,11165,1,0,0:0:0:0:
320,192,11236,1,2,0:0:0:0:
448,192,11307,1,0,0:0:0:0:
192,192,11307,1,4,0:0:0:0:
64,192,11307,1,2,0:0:0:0:
192,192,11519,1,0,0:0:0:0:
320,192,11519,1,2,0:0:0:0:
448,192,11519,1,0,0:0:0:0:
320,192,11731,1,0,0:0:0:0:
192,192,11731,1,2,0:0:0:0:
64,192,11731,1,0,0:0:0:0:
448,192,11873,1,2,0:0:0:0:
64,192,11873,1,0,0:0:0:0:
192,192,11944,1,0,0:0:0:0:
320,192,11944,1,2,0:0:0:0:
64,192,12014,1,0,0:0:0:0:
448,192,12014,1,2,0:0:0:0:
192,192,12156,1,2,0:0:0:0:
64,192,12156,1,0,0:0:0:0:
320,192,12227,1,2,0:0:0:0:
448,192,12227,1,0,0:0:0:0:
192,192,12298,1,2,0:0:0:0:
64,192,12298,1,0,0:0:0:0:
448,192,12368,1,2,0:0:0:0:
320,192,12439,1,4,0:0:0:0:
192,192,12439,1,2,0:0:0:0:
64,192,12439,1,0,0:0:0:0:
64,192,12581,1,0,0:0:0:0:
192,192,12651,1,0,0:0:0:0:
320,192,12651,1,2,0:0:0:0:
448,192,12651,1,4,0:0:0:0:
320,192,12793,1,0,0:0:0:0:
192,192,12864,1,2,0:0:0:0:
64,192,12864,1,4,0:0:0:0:
448,192,12864,1,0,0:0:0:0:
64,192,13005,1,0,0:0:0:0:
192,192,13005,1,2,0:0:0:0:
320,192,13076,1,2,0:0:0:0:
448,192,13076,1,0,0:0:0:0:
320,192,13217,1,2,0:0:0:0:
448,192,13217,1,0,0:0:0:0:
64,192,13288,1,0,0:0:0:0:
192,192,13288,1,2,0:0:0:0:
320,192,13323,1,2,0:0:0:0:
448,192,13359,1,2,0:0:0:0:
64,192,13394,1,2,0:0:0:0:
192,192,13430,1,2,0:0:0:0:
320,192,13465,1,2,0:0:0:0:
448,192,13500,1,2,0:0:0:0:
64,192,13536,1,2,0:0:0:0:
320,192,13571,1,4,0:0:0:0:
448,192,13571,1,0,0:0:0:0:
192,192,13571,1,2,0:0:0:0:
64,192,13783,1,0,0:0:0:0:
448,192,13783,1,0,0:0:0:0:
320,192,13783,1,2,0:0:0:0:
192,192,13996,1,2,0:0:0:0:
64,192,13996,1,0,0:0:0:0:
448,192,13996,1,0,0:0:0:0:
320,192,14137,1,2,0:0:0:0:
448,192,14137,1,0,0:0:0:0:
192,192,14208,1,2,0:0:0:0:
64,192,14208,1,0,0:0:0:0:
320,192,14279,1,2,0:0:0:0:
448,192,14279,1,0,0:0:0:0:
192,192,14420,1,2,0:0:0:0:
64,192,14420,1,0,0:0:0:0:
320,192,14491,1,2,0:0:0:0:
448,192,14491,1,0,0:0:0:0:
192,192,14562,1,2,0:0:0:0:
64,192,14562,1,0,0:0:0:0:
320,192,14632,1,2,0:0:0:0:
448,192,14703,1,0,0:0:0:0:
64,192,14703,1,4,0:0:0:0:
192,192,14703,1,2,0:0:0:0:
192,192,14845,1,0,0:0:0:0:
64,192,14915,1,0,0:0:0:0:
320,192,14915,1,2,0:0:0:0:
448,192,14915,1,4,0:0:0:0:
448,192,15057,1,0,0:0:0:0:
320,192,15128,1,0,0:0:0:0:
192,192,15128,1,4,0:0:0:0:
64,192,15128,1,2,0:0:0:0:
448,192,15269,1,0,0:0:0:0:
320,192,15269,1,2,0:0:0:0:
64,192,15340,1,0,0:0:0:0:
192,192,15340,1,2,0:0:0:0:
64,192,15481,1,0,0:0:0:0:
448,192,15481,1,2,0:0:0:0:
320,192,15552,1,2,0:0:0:0:
192,192,15552,1,0,0:0:0:0:
64,192,15623,1,0,0:0:0:0:
448,192,15623,1,2,0:0:0:0:
320,192,15694,1,2,0:0:0:0:
192,192,15694,1,0,0:0:0:0:
448,192,15764,1,2,0:0:0:0:
320,192,15835,1,2,0:0:0:0:
192,192,15835,1,0,0:0:0:0:
64,192,15835,1,4,0:0:0:0:
192,192,16048,1,0,0:0:0:0:
320,192,16048,1,2,0:0:0:0:
448,192,16048,1,0,0:0:0:0:
64,192,16260,1,0,0:0:0:0:
192,192,16260,1,2,0:0:0:0:
448,192,16260,1,0,0:0:0:0:
320,192,16401,1,2,0:0:0:0:
64,192,16401,1,0,0:0:0:0:
192,192,16472,1,0,0:0:0:0:
448,192,16472,1,2,0:0:0:0:
320,192,16543,1,2,0:0:0:0:
64,192,16543,1,0,0:0:0:0:
448,192,16684,1,2,0:0:0:0:
320,192,16720,1,2,0:0:0:0:
64,192,16755,1,2,0:0:0:0:
192,192,16790,1,2,0:0:0:0:
448,192,16826,1,2,0:0:0:0:
320,192,16861,1,2,0:0:0:0:
64,192,16897,1,2,0:0:0:0:
192,192,16932,1,2,0:0:0:0:
320,192,16967,1,2,0:0:0:0:
64,192,16967,1,0,0:0:0:0:
448,192,16967,1,4,0:0:0:0:
448,192,17109,1,0,0:0:0:0:
320,192,17180,1,4,0:0:0:0:
192,192,17180,1,2,0:0:0:0:
64,192,17180,1,0,0:0:0:0:
64,192,17321,1,0,0:0:0:0:
320,192,17392,1,2,0:0:0:0:
192,192,17392,1,4,0:0:0:0:
448,192,17392,1,0,0:0:0:0:
448,192,17533,1,0,0:0:0:0:
320,192,17533,1,2,0:0:0:0:
64,192,17604,1,0,0:0:0:0:
192,192,17604,1,2,0:0:0:0:
320,192,17675,1,2,0:0:0:0:
448,192,17675,1,0,0:0:0:0:
192,192,17746,1,2,0:0:0:0:
64,192,17746,1,0,0:0:0:0:
448,192,17816,1,2,0:0:0:0:
320,192,17852,1,2,0:0:0:0:
192,192,17887,1,2,0:0:0:0:
64,192,17923,1,2,0:0:0:0:
448,192,17958,1,2,0:0:0:0:
320,192,17993,1,2,0:0:0:0:
192,192,18029,1,2,0:0:0:0:
64,192,18064,1,2,0:0:0:0:
192,192,18099,1,2,0:0:0:0:
320,192,18099,1,0,0:0:0:0:
448,192,18099,1,4,0:0:0:0:
64,192,18194,1,0,0:0:0:0:
320,192,18288,1,0,0:0:0:0:
192,192,18382,1,0,0:0:0:0:
320,192,18477,1,0,0:0:0:0:
64,192,18571,1,0,0:0:0:0:
448,192,18665,1,0,0:0:0:0:
320,192,18760,1,0,0:0:0:0:
192,192,18854,1,0,0:0:0:0:
64,192,18948,1,0,0:0:0:0:
448,192,19043,1,0,0:0:0:0:
320,192,19137,1,0,0:0:0:0:
192,192,19231,1,4,0:0:0:0:
64,192,19231,1,2,0:0:0:0:
448,192,19231,1,0,0:0:0:0:
448,192,19326,1,0,0:0:0:0:
448,192,19420,1,0,0:0:0:0:
448,192,19514,1,0,0:0:0:0:
320,192,19609,1,0,0:0:0:0:
64,192,19703,1,0,0:0:0:0:
320,192,19798,1,2,0:0:0:0:
448,192,19798,1,0,0:0:0:0:
64,192,19892,1,0,0:0:0:0:
192,192,19892,1,2,0:0:0:0:
320,192,19986,1,2,0:0:0:0:
448,192,19986,1,0,0:0:0:0:
192,192,20081,1,2,0:0:0:0:
64,192,20081,1,0,0:0:0:0:
320,192,20128,1,2,0:0:0:0:
448,192,20175,1,2,0:0:0:0:
64,192,20222,1,2,0:0:0:0:
192,192,20269,1,2,0:0:0:0:
320,192,20316,1,2,0:0:0:0:
64,192,20364,1,4,0:0:0:0:
448,192,20364,1,0,0:0:0:0:
192,192,20364,1,2,0:0:0:0:
320,192,20505,1,0,0:0:0:0:
448,192,20576,1,0,0:0:0:0:
64,192,20647,1,0,0:0:0:0:
192,192,20647,1,2,0:0:0:0:
320,192,20788,1,0,0:0:0:0:
192,192,20859,1,0,0:0:0:0:
64,192,20930,1,0,0:0:0:0:
448,192,20930,1,2,0:0:0:0:
320,192,21000,1,0,0:0:0:0:
192,192,21071,1,0,0:0:0:0:
320,192,21142,1,0,0:0:0:0:
448,192,21213,1,0,0:0:0:0:
64,192,21213,1,2,0:0:0:0:
192,192,21354,1,0,0:0:0:0:
320,192,21354,1,2,0:0:0:0:
448,192,21496,1,2,0:0:0:0:
64,192,21496,128,0,21637:0:0:0:0:
192,192,21637,1,0,0:0:0:0:
448,192,21708,128,0,21849:0:0:0:0:
320,192,21779,1,2,0:0:0:0:
64,192,21779,1,0,0:0:0:0:
192,192,21920,128,0,22062:0:0:0:0:
448,192,22062,128,0,22203:0:0:0:0:
320,192,22062,1,2,0:0:0:0:
64,192,22203,128,0,22345:0:0:0:0:
192,192,22274,1,0,0:0:0:0:
448,192,22345,1,2,0:0:0:0:
320,192,22345,128,0,22486:0:0:0:0:
64,192,22486,1,0,0:0:0:0:
192,192,22486,1,2,0:0:0:0:
448,192,22557,1,0,0:0:0:0:
192,192,22628,1,4,0:0:0:0:
64,192,22628,1,2,0:0:0:0:
320,192,22628,1,0,0:0:0:0:
320,192,22840,1,2,0:0:0:0:
448,192,22840,1,0,0:0:0:0:
64,192,22840,1,4,0:0:0:0:
192,192,23052,1,4,0:0:0:0:
448,192,23052,1,0,0:0:0:0:
320,192,23052,1,2,0:0:0:0:
64,192,23194,1,0,0:0:0:0:
192,192,23194,1,2,0:0:0:0:
320,192,23194,1,4,0:0:0:0:
448,192,23406,1,4,0:0:0:0:
192,192,23406,1,2,0:0:0:0:
64,192,23406,1,0,0:0:0:0:
192,192,23618,1,4,0:0:0:0:
448,192,23618,1,0,0:0:0:0:
320,192,23618,1,2,0:0:0:0:
64,192,23760,1,0,0:0:0:0:
192,192,23760,1,4,0:0:0:0:
320,192,23760,1,2,0:0:0:0:
448,192,23972,1,0,0:0:0:0:
320,192,23972,1,4,0:0:0:0:
64,192,23972,1,2,0:0:0:0:
192,192,24184,1,2,0:0:0:0:
320,192,24184,1,4,0:0:0:0:
64,192,24184,1,0,0:0:0:0:
192,192,24326,1,0,0:0:0:0:
320,192,24326,1,4,0:0:0:0:
448,192,24326,1,2,0:0:0:0:
64,192,24538,1,4,0:0:0:0:
192,192,24538,1,2,0:0:0:0:
448,192,24538,1,0,0:0:0:0:
320,192,24750,1,2,0:0:0:0:
448,192,24750,1,0,0:0:0:0:
192,192,24821,1,2,0:0:0:0:
64,192,24821,1,0,0:0:0:0:
320,192,24892,1,2,0:0:0:0:
448,192,24892,1,4,0:0:0:0:
192,192,25033,1,0,0:0:0:0:
320,192,25104,1,0,0:0:0:0:
64,192,25175,1,2,0:0:0:0:
448,192,25175,1,0,0:0:0:0:
192,192,25316,1,0,0:0:0:0:
320,192,25387,1,0,0:0:0:0:
448,192,25458,1,2,0:0:0:0:
192,192,25458,1,0,0:0:0:0:
64,192,25529,1,0,0:0:0:0:
320,192,25599,1,0,0:0:0:0:
192,192,25670,1,0,0:0:0:0:
320,192,25741,1,0,0:0:0:0:
448,192,25741,1,2,0:0:0:0:
192,192,25882,1,2,0:0:0:0:
64,192,25882,1,0,0:0:0:0:
320,192,26024,1,2,0:0:0:0:
448,192,26024,128,0,26165:0:0:0:0:
192,192,26165,1,0,0:0:0:0:
320,192,26236,1,2,0:0:0:0:
64,192,26236,128,0,26378:0:0:0:0:
192,192,26307,1,0,0:0:0:0:
448,192,26307,1,2,0:0:0:0:
320,192,26448,1,2,0:0:0:0:
64,192,26448,128,0,26590:0:0:0:0:
448,192,26590,1,0,0:0:0:0:
320,192,26590,1,2,0:0:0:0:
192,192,26661,1,2,0:0:0:0:
64,192,26661,1,0,0:0:0:0:
320,192,26731,1,2,0:0:0:0:
448,192,26731,1,0,0:0:0:0:
192,192,26802,1,2,0:0:0:0:
64,192,26802,1,0,0:0:0:0:
320,192,26873,1,2,0:0:0:0:
448,192,26873,1,0,0:0:0:0:
64,192,27014,1,0,0:0:0:0:
192,192,27014,1,2,0:0:0:0:
320,192,27085,1,2,0:0:0:0:
64,192,27156,1,0,0:0:0:0:
192,192,27156,1,2,0:0:0:0:
448,192,27156,1,4,0:0:0:0:
320,192,27368,1,4,0:0:0:0:
448,192,27368,1,0,0:0:0:0:
64,192,27368,1,2,0:0:0:0:
64,192,27581,1,2,0:0:0:0:
320,192,27581,1,4,0:0:0:0:
192,192,27581,1,0,0:0:0:0:
192,192,27722,1,2,0:0:0:0:
320,192,27722,1,4,0:0:0:0:
448,192,27722,1,0,0:0:0:0:
64,192,27934,1,0,0:0:0:0:
192,192,27934,1,2,0:0:0:0:
448,192,27934,1,4,0:0:0:0:
320,192,28147,1,0,0:0:0:0:
448,192,28147,1,4,0:0:0:0:
64,192,28147,1,2,0:0:0:0:
192,192,28288,1,2,0:0:0:0:
64,192,28288,1,4,0:0:0:0:
320,192,28382,1,2,0:0:0:0:
448,192,28382,1,0,0:0:0:0:
192,192,28477,1,2,0:0:0:0:
448,192,28477,1,0,0:0:0:0:
192,192,28571,1,2,0:0:0:0:
64,192,28571,1,0,0:0:0:0:
448,192,28665,1,0,0:0:0:0:
320,192,28665,1,2,0:0:0:0:
320,192,28760,1,0,0:0:0:0:
192,192,28760,1,2,0:0:0:0:
64,192,28854,1,0,0:0:0:0:
192,192,28854,1,2,0:0:0:0:
320,192,28948,1,2,0:0:0:0:
448,192,28948,1,0,0:0:0:0:
192,192,29043,1,2,0:0:0:0:
320,192,29043,1,2,0:0:0:0:
192,192,29137,1,2,0:0:0:0:
64,192,29137,1,0,0:0:0:0:
320,192,29184,1,2,0:0:0:0:
448,192,29231,1,2,0:0:0:0:
64,192,29279,1,2,0:0:0:0:
192,192,29326,1,2,0:0:0:0:
320,192,29373,1,2,0:0:0:0:
64,192,29420,1,4,0:0:0:0:
192,192,29420,1,2,0:0:0:0:
448,192,29420,1,0,0:0:0:0:
320,192,29562,1,0,0:0:0:0:
448,192,29632,1,0,0:0:0:0:
64,192,29703,1,0,0:0:0:0:
192,192,29703,1,2,0:0:0:0:
448,192,29845,1,0,0:0:0:0:
192,192,29915,1,0,0:0:0:0:
64,192,29986,1,0,0:0:0:0:
320,192,29986,1,2,0:0:0:0:
448,192,30057,1,0,0:0:0:0:
192,192,30128,1,0,0:0:0:0:
320,192,30198,1,0,0:0:0:0:
64,192,30269,1,0,0:0:0:0:
448,192,30269,1,2,0:0:0:0:
320,192,30411,1,0,0:0:0:0:
192,192,30411,1,2,0:0:0:0:
64,192,30552,1,2,0:0:0:0:
448,192,30552,128,0,30694:0:0:0:0:
192,192,30694,1,0,0:0:0:0:
320,192,30764,128,0,30906:0:0:0:0:
192,192,30835,1,0,0:0:0:0:
64,192,30835,1,2,0:0:0:0:
448,192,30977,128,0,31118:0:0:0:0:
320,192,31118,1,2,0:0:0:0:
64,192,31118,128,0,31260:0:0:0:0:
192,192,31260,1,0,0:0:0:0:
448,192,31260,128,0,31401:0:0:0:0:
320,192,31331,1,0,0:0:0:0:
64,192,31401,1,2,0:0:0:0:
192,192,31401,128,0,31543:0:0:0:0:
64,192,31543,1,0,0:0:0:0:
448,192,31543,1,2,0:0:0:0:
320,192,31614,1,2,0:0:0:0:
64,192,31684,1,0,0:0:0:0:
192,192,31684,1,4,0:0:0:0:
448,192,31684,1,2,0:0:0:0:
320,192,31897,1,2,0:0:0:0:
448,192,31897,1,0,0:0:0:0:
64,192,31897,1,4,0:0:0:0:
192,192,32109,1,4,0:0:0:0:
320,192,32109,1,0,0:0:0:0:
448,192,32109,1,2,0:0:0:0:
64,192,32250,1,4,0:0:0:0:
192,192,32250,1,0,0:0:0:0:
320,192,32250,1,2,0:0:0:0:
448,192,32463,1,0,0:0:0:0:
320,192,32463,1,2,0:0:0:0:
64,192,32463,1,4,0:0:0:0:
64,192,32675,1,0,0:0:0:0:
192,192,32675,1,4,0:0:0:0:
448,192,32675,1,2,0:0:0:0:
320,192,32816,1,2,0:0:0:0:
448,192,32816,1,4,0:0:0:0:
192,192,32816,1,0,0:0:0:0:
64,192,33029,1,4,0:0:0:0:
192,192,33029,1,2,0:0:0:0:
320,192,33029,1,0,0:0:0:0:
192,192,33241,1,0,0:0:0:0:
320,192,33241,1,2,0:0:0:0:
448,192,33241,1,4,0:0:0:0:
64,192,33382,1,4,0:0:0:0:
448,192,33382,1,2,0:0:0:0:
192,192,33382,1,0,0:0:0:0:
320,192,33595,1,0,0:0:0:0:
448,192,33595,1,2,0:0:0:0:
64,192,33595,1,4,0:0:0:0:
64,192,33807,1,2,0:0:0:0:
192,192,33842,1,2,0:0:0:0:
448,192,33878,1,2,0:0:0:0:
320,192,33913,1,2,0:0:0:0:
192,192,33948,1,4,0:0:0:0:
64,192,33948,1,2,0:0:0:0:
448,192,33948,1,0,0:0:0:0:
320,192,34090,1,0,0:0:0:0:
192,192,34161,1,0,0:0:0:0:
448,192,34231,1,2,0:0:0:0:
64,192,34231,1,0,0:0:0:0:
320,192,34373,1,0,0:0:0:0:
192,192,34444,1,0,0:0:0:0:
320,192,34514,1,0,0:0:0:0:
448,192,34514,1,2,0:0:0:0:
64,192,34585,1,0,0:0:0:0:
192,192,34656,1,0,0:0:0:0:
320,192,34727,1,0,0:0:0:0:
64,192,34798,1,2,0:0:0:0:
192,192,34798,1,0,0:0:0:0:
320,192,34939,1,0,0:0:0:0:
448,192,34939,1,2,0:0:0:0:
192,192,35081,1,2,0:0:0:0:
64,192,35081,128,0,35222:0:0:0:0:
320,192,35222,1,0,0:0:0:0:
192,192,35293,1,2,0:0:0:0:
448,192,35293,128,0,35434:0:0:0:0:
320,192,35364,1,2,0:0:0:0:
64,192,35364,1,0,0:0:0:0:
64,192,35505,1,0,0:0:0:0:
192,192,35505,1,2,0:0:0:0:
320,192,35576,1,2,0:0:0:0:
448,192,35576,1,0,0:0:0:0:
192,192,35647,1,2,0:0:0:0:
64,192,35647,1,0,0:0:0:0:
320,192,35717,1,2,0:0:0:0:
448,192,35717,1,0,0:0:0:0:
192,192,35788,1,2,0:0:0:0:
64,192,35788,1,0,0:0:0:0:
320,192,35859,1,2,0:0:0:0:
448,192,35859,1,0,0:0:0:0:
192,192,35930,1,2,0:0:0:0:
64,192,35930,1,0,0:0:0:0:
448,192,35965,1,2,0:0:0:0:
320,192,36000,1,2,0:0:0:0:
192,192,36036,1,2,0:0:0:0:
64,192,36071,1,2,0:0:0:0:
448,192,36106,1,2,0:0:0:0:
320,192,36142,1,2,0:0:0:0:
192,192,36177,1,2,0:0:0:0:
64,192,36213,1,0,0:0:0:0:
320,192,36213,1,4,0:0:0:0:
448,192,36213,1,2,0:0:0:0:
64,192,36425,1,4,0:0:0:0:
192,192,36425,1,2,0:0:0:0:
448,192,36425,1,0,0:0:0:0:
320,192,36637,1,4,0:0:0:0:
192,192,36637,1,2,0:0:0:0:
448,192,36637,1,0,0:0:0:0:
64,192,36779,1,2,0:0:0:0:
192,192,36779,1,0,0:0:0:0:
320,192,36779,1,4,0:0:0:0:
320,192,36991,1,0,0:0:0:0:
448,192,36991,1,4,0:0:0:0:
64,192,36991,1,2,0:0:0:0:
320,192,37203,1,0,0:0:0:0:
192,192,37203,1,2,0:0:0:0:
448,192,37203,1,4,0:0:0:0:
192,192,37345,1,2,0:0:0:0:
64,192,37345,1,4,0:0:0:0:
448,192,37439,1,2,0:0:0:0:
320,192,37439,1,0,0:0:0:0:
448,192,37533,1,2,0:0:0:0:
64,192,37533,1,0,0:0:0:0:
320,192,37628,1,2,0:0:0:0:
192,192,37628,1,0,0:0:0:0:
320,192,37722,1,2,0:0:0:0:
448,192,37722,1,0,0:0:0:0:
64,192,37816,1,0,0:0:0:0:
192,192,37816,1,2,0:0:0:0:
64,192,37911,1,0,0:0:0:0:
320,192,37911,1,2,0:0:0:0:
192,192,38005,1,2,0:0:0:0:
448,192,38005,1,0,0:0:0:0:
320,192,38099,1,0,0:0:0:0:
192,192,38099,1,2,0:0:0:0:
448,192,38194,1,0,0:0:0:0:
64,192,38194,1,2,0:0:0:0:
320,192,38241,1,2,0:0:0:0:
192,192,38288,1,2,0:0:0:0:
64,192,38335,1,2,0:0:0:0:
448,192,38382,1,2,0:0:0:0:
320,192,38430,1,2,0:0:0:0:
192,192,38477,1,2,0:0:0:0:
64,192,38477,1,4,0:0:0:0:
448,192,38477,1,0,0:0:0:0:
320,192,38618,1,0,0:0:0:0:
64,192,38689,1,0,0:0:0:0:
448,192,38760,1,0,0:0:0:0:
192,192,38760,1,2,0:0:0:0:
320,192,38760,1,0,0:0:0:0:
64,192,38831,1,0,0:0:0:0:
448,192,38901,1,0,0:0:0:0:
192,192,38972,1,0,0:0:0:0:
64,192,39043,1,2,0:0:0:0:
448,192,39043,1,0,0:0:0:0:
320,192,39043,1,0,0:0:0:0:
64,192,39184,1,2,0:0:0:0:
320,192,39184,1,0,0:0:0:0:
192,192,39326,1,0,0:0:0:0:
448,192,39326,1,0,0:0:0:0:
64,192,39326,1,2,0:0:0:0:
448,192,39467,1,0,0:0:0:0:
64,192,39467,1,2,0:0:0:0:
192,192,39467,1,0,0:0:0:0:
320,192,39609,1,2,0:0:0:0:
192,192,39609,1,0,0:0:0:0:
448,192,39609,1,0,0:0:0:0:
320,192,39750,1,0,0:0:0:0:
192,192,39821,1,0,0:0:0:0:
448,192,39892,1,2,0:0:0:0:
64,192,39892,1,0,0:0:0:0:
320,192,39963,1,0,0:0:0:0:
192,192,40033,1,0,0:0:0:0:
320,192,40104,1,0,0:0:0:0:
64,192,40175,1,2,0:0:0:0:
448,192,40175,1,0,0:0:0:0:
64,192,40246,1,0,0:0:0:0:
448,192,40316,1,0,0:0:0:0:
320,192,40387,1,2,0:0:0:0:
448,192,40387,1,0,0:0:0:0:
192,192,40458,1,2,0:0:0:0:
64,192,40458,1,0,0:0:0:0:
320,192,40529,1,0,0:0:0:0:
448,192,40599,1,2,0:0:0:0:
64,192,40599,1,0,0:0:0:0:
192,192,40670,1,0,0:0:0:0:
320,192,40670,1,2,0:0:0:0:
64,192,40741,1,0,0:0:0:0:
448,192,40741,1,2,0:0:0:0:
192,192,40812,1,0,0:0:0:0:
448,192,40882,1,0,0:0:0:0:
320,192,40953,1,0,0:0:0:0:
448,192,41024,1,2,0:0:0:0:
64,192,41024,1,0,0:0:0:0:
192,192,41095,1,0,0:0:0:0:
320,192,41165,1,0,0:0:0:0:
192,192,41236,1,0,0:0:0:0:
320,192,41307,1,2,0:0:0:0:
448,192,41307,1,0,0:0:0:0:
64,192,41378,1,0,0:0:0:0:
448,192,41448,1,0,0:0:0:0:
320,192,41519,1,0,0:0:0:0:
192,192,41590,1,2,0:0:0:0:
64,192,41590,1,0,0:0:0:0:
448,192,41661,1,0,0:0:0:0:
320,192,41731,1,0,0:0:0:0:
64,192,41731,1,2,0:0:0:0:
192,192,41802,1,0,0:0:0:0:
448,192,41873,1,2,0:0:0:0:
64,192,41873,1,0,0:0:0:0:
320,192,41944,1,0,0:0:0:0:
192,192,42014,1,0,0:0:0:0:
64,192,42085,1,0,0:0:0:0:
448,192,42156,1,2,0:0:0:0:
320,192,42156,1,0,0:0:0:0:
192,192,42227,1,0,0:0:0:0:
320,192,42298,1,0,0:0:0:0:
192,192,42368,1,0,0:0:0:0:
64,192,42439,1,2,0:0:0:0:
448,192,42439,1,0,0:0:0:0:
320,192,42510,1,0,0:0:0:0:
192,192,42581,1,0,0:0:0:0:
320,192,42651,1,2,0:0:0:0:
448,192,42651,1,0,0:0:0:0:
192,192,42722,1,2,0:0:0:0:
64,192,42722,1,0,0:0:0:0:
448,192,42793,1,0,0:0:0:0:
192,192,42864,1,0,0:0:0:0:
320,192,42864,1,2,0:0:0:0:
448,192,42934,1,2,0:0:0:0:
64,192,42934,1,0,0:0:0:0:
192,192,43005,1,0,0:0:0:0:
320,192,43005,1,2,0:0:0:0:
448,192,43076,1,0,0:0:0:0:
64,192,43147,1,0,0:0:0:0:
192,192,43217,1,0,0:0:0:0:
320,192,43288,1,2,0:0:0:0:
448,192,43288,1,0,0:0:0:0:
192,192,43359,1,0,0:0:0:0:
64,192,43430,1,0,0:0:0:0:
320,192,43500,1,0,0:0:0:0:
192,192,43571,1,2,0:0:0:0:
448,192,43571,1,0,0:0:0:0:
64,192,43642,1,0,0:0:0:0:
320,192,43713,1,0,0:0:0:0:
192,192,43783,1,0,0:0:0:0:
64,192,43854,1,0,0:0:0:0:
448,192,43854,1,2,0:0:0:0:
320,192,43925,1,0,0:0:0:0:
192,192,43996,1,0,0:0:0:0:
64,192,43996,1,2,0:0:0:0:
320,192,44066,1,0,0:0:0:0:
448,192,44137,1,0,0:0:0:0:
64,192,44137,1,2,0:0:0:0:
192,192,44208,1,0,0:0:0:0:
320,192,44279,1,0,0:0:0:0:
192,192,44349,1,0,0:0:0:0:
448,192,44420,1,2,0:0:0:0:
64,192,44420,1,0,0:0:0:0:
320,192,44491,1,0,0:0:0:0:
192,192,44562,1,0,0:0:0:0:
320,192,44632,1,0,0:0:0:0:
448,192,44703,1,2,0:0:0:0:
64,192,44703,1,0,0:0:0:0:
192,192,44774,1,0,0:0:0:0:
320,192,44845,1,0,0:0:0:0:
192,192,44915,1,2,0:0:0:0:
448,192,44915,1,0,0:0:0:0:
320,192,44986,1,0,0:0:0:0:
64,192,44986,1,2,0:0:0:0:
192,192,45057,1,0,0:0:0:0:
448,192,45128,1,0,0:0:0:0:
320,192,45128,1,2,0:0:0:0:
192,192,45198,1,2,0:0:0:0:
64,192,45198,1,0,0:0:0:0:
448,192,45269,1,0,0:0:0:0:
320,192,45269,1,2,0:0:0:0:
192,192,45340,1,0,0:0:0:0:
448,192,45411,1,2,0:0:0:0:
64,192,45411,1,0,0:0:0:0:
320,192,45481,1,0,0:0:0:0:
192,192,45552,1,2,0:0:0:0:
64,192,45552,1,0,0:0:0:0:
320,192,45623,1,0,0:0:0:0:
448,192,45694,1,2,0:0:0:0:
64,192,45694,1,0,0:0:0:0:
192,192,45764,1,0,0:0:0:0:
448,192,45835,1,0,0:0:0:0:
320,192,45835,1,2,0:0:0:0:
192,192,45906,1,0,0:0:0:0:
448,192,45977,1,0,0:0:0:0:
64,192,45977,1,2,0:0:0:0:
320,192,46048,1,0,0:0:0:0:
192,192,46118,1,2,0:0:0:0:
64,192,46118,1,0,0:0:0:0:
320,192,46189,1,0,0:0:0:0:
64,192,46260,1,2,0:0:0:0:
448,192,46260,1,0,0:0:0:0:
192,192,46331,1,0,0:0:0:0:
448,192,46401,1,0,0:0:0:0:
320,192,46401,1,2,0:0:0:0:
64,192,46472,1,0,0:0:0:0:
192,192,46472,1,2,0:0:0:0:
448,192,46543,1,0,0:0:0:0:
320,192,46543,1,2,0:0:0:0:
192,192,46614,1,2,0:0:0:0:
64,192,46614,1,0,0:0:0:0:
448,192,46684,1,0,0:0:0:0:
320,192,46684,1,2,0:0:0:0:
192,192,46755,1,2,0:0:0:0:
64,192,46755,1,0,0:0:0:0:
448,192,46826,1,0,0:0:0:0:
320,192,46826,1,2,0:0:0:0:
192,192,46897,1,2,0:0:0:0:
64,192,46897,1,0,0:0:0:0:
448,192,46967,1,0,0:0:0:0:
320,192,46967,1,2,0:0:0:0:
192,192,47038,1,2,0:0:0:0:
64,192,47038,1,0,0:0:0:0:
448,192,47109,1,0,0:0:0:0:
320,192,47109,1,2,0:0:0:0:
192,192,47180,1,2,0:0:0:0:
64,192,47180,1,0,0:0:0:0:
448,192,47250,1,2,0:0:0:0:
320,192,47286,1,2,0:0:0:0:
64,192,47321,1,2,0:0:0:0:
192,192,47356,1,2,0:0:0:0:
448,192,47392,1,2,0:0:0:0:
320,192,47427,1,2,0:0:0:0:
64,192,47463,1,2,0:0:0:0:
192,192,47498,1,2,0:0:0:0:
64,192,47533,1,4,0:0:0:0:
448,192,47533,128,0,47816:0:0:0:0:
320,192,47533,128,2,47816:0:0:0:0:
64,192,47816,128,0,48099:0:0:0:0:
192,192,47816,128,2,48382:0:0:0:0:
448,192,48099,128,0,48665:0:0:0:0:
320,192,48099,128,2,48524:0:0:0:0:
64,192,48382,128,2,48948:0:0:0:0:
192,192,48524,128,2,48948:0:0:0:0:
320,192,48665,128,2,49231:0:0:0:0:
448,192,48948,128,2,49514:0:0:0:0:
192,192,49231,128,2,49798:0:0:0:0:
64,192,49231,128,0,49514:0:0:0:0:
320,192,49514,128,2,50081:0:0:0:0:
64,192,49798,128,0,50364:0:0:0:0:
448,192,49798,128,2,50081:0:0:0:0:
192,192,50081,128,2,50647:0:0:0:0:
448,192,50364,128,2,50930:0:0:0:0:
320,192,50647,128,2,51213:0:0:0:0:
192,192,50788,128,2,51496:0:0:0:0:
64,192,50930,128,2,51496:0:0:0:0:
448,192,51213,128,2,52062:0:0:0:0:
320,192,51496,128,2,52062:0:0:0:0:
64,192,51708,128,0,51849:0:0:0:0:
192,192,51708,128,0,51849:0:0:0:70:BeLL.wav
64,192,52062,128,0,52628:0:0:0:0:
192,192,52062,128,2,52911:0:0:0:0:
320,192,52345,128,2,53052:0:0:0:0:
448,192,52628,128,2,53194:0:0:0:0:
64,192,52911,128,2,53760:0:0:0:0:
192,192,53052,128,2,53618:0:0:0:0:
320,192,53194,128,2,53477:0:0:0:0:
448,192,53477,128,2,53760:0:0:0:0:
320,192,53618,128,2,54043:0:0:0:0:
192,192,53760,128,2,54326:0:0:0:0:
64,192,54043,128,2,54326:0:0:0:0:
320,192,54326,1,2,0:0:0:0:
448,192,54326,1,0,0:0:0:0:
64,192,54467,1,0,0:0:0:0:
192,192,54467,1,2,0:0:0:0:
192,192,54609,1,2,0:0:0:0:
320,192,54609,1,2,0:0:0:0:
448,192,54750,1,0,0:0:0:0:
320,192,54750,1,2,0:0:0:0:
64,192,54892,1,0,0:0:0:0:
192,192,54892,1,2,0:0:0:0:
320,192,55033,1,2,0:0:0:0:
192,192,55033,1,2,0:0:0:0:
320,192,55175,1,2,0:0:0:0:
448,192,55175,1,0,0:0:0:0:
192,192,55316,1,2,0:0:0:0:
64,192,55316,1,0,0:0:0:0:
320,192,55458,1,2,0:0:0:0:
448,192,55458,1,0,0:0:0:0:
192,192,55529,1,2,0:0:0:0:
64,192,55529,1,0,0:0:0:0:
320,192,55599,1,2,0:0:0:0:
448,192,55599,1,0,0:0:0:0:
192,192,55670,1,2,0:0:0:0:
64,192,55670,1,0,0:0:0:0:
448,192,55741,1,0,0:0:0:0:
320,192,55741,1,2,0:0:0:0:
192,192,55812,1,2,0:0:0:0:
64,192,55812,1,0,0:0:0:0:
448,192,55882,1,0,0:0:0:0:
320,192,55882,1,2,0:0:0:0:
192,192,55953,1,2,0:0:0:0:
64,192,55953,1,0,0:0:0:0:
448,192,56024,1,2,0:0:0:0:
320,192,56059,1,2,0:0:0:0:
192,192,56095,1,2,0:0:0:0:
64,192,56130,1,2,0:0:0:0:
448,192,56165,1,2,0:0:0:0:
320,192,56201,1,2,0:0:0:0:
192,192,56236,1,2,0:0:0:0:
64,192,56272,1,2,0:0:0:0:
448,192,56307,1,2,0:0:0:0:
320,192,56342,1,2,0:0:0:0:
192,192,56378,1,2,0:0:0:0:
64,192,56413,1,2,0:0:0:0:
448,192,56448,1,2,0:0:0:0:
320,192,56484,1,2,0:0:0:0:
192,192,56519,1,2,0:0:0:0:
64,192,56555,1,2,0:0:0:0:
192,192,56590,1,0,0:0:0:70:Soft-hitfinish2.wav
448,192,56590,128,0,57722:0:0:0:70:PunK.wav
320,192,56590,128,0,57722:0:0:0:0:
64,192,56731,1,0,0:0:0:0:
192,192,56873,1,0,0:0:0:0:
64,192,57014,1,0,0:0:0:0:
192,192,57156,1,0,0:0:0:0:
64,192,57298,1,0,0:0:0:0:
192,192,57439,1,0,0:0:0:0:
64,192,57581,1,0,0:0:0:0:
192,192,57722,1,0,0:0:0:0:
64,192,57864,1,0,0:0:0:0:
448,192,58005,1,0,0:0:0:0:
192,192,58147,1,0,0:0:0:0:
448,192,58288,1,0,0:0:0:0:
320,192,58430,1,0,0:0:0:0:
64,192,58571,128,0,58854:0:0:0:0:
192,192,58713,128,0,58854:0:0:0:0:
448,192,58854,1,0,0:0:0:0:
192,192,58996,1,0,0:0:0:0:
64,192,59066,1,0,0:0:0:0:
192,192,59208,1,0,0:0:0:0:
64,192,59279,1,0,0:0:0:0:
192,192,59420,1,0,0:0:0:0:
64,192,59491,1,0,0:0:0:0:
192,192,59632,1,0,0:0:0:0:
64,192,59703,128,0,59986:0:0:0:0:
192,192,59845,128,0,59986:0:0:0:0:
448,192,59986,1,0,0:0:0:0:
320,192,60057,1,0,0:0:0:0:
64,192,60269,1,0,0:0:0:0:
192,192,60340,1,0,0:0:0:0:
192,192,60552,1,0,0:0:0:0:
320,192,60623,1,0,0:0:0:0:
448,192,60835,128,0,60977:0:0:0:0:
64,192,60977,1,0,0:0:0:0:
448,192,61118,1,0,0:0:0:0:
192,192,61260,1,0,0:0:0:0:
320,192,61331,1,0,0:0:0:0:
192,192,61472,1,0,0:0:0:0:
320,192,61543,1,0,0:0:0:0:
192,192,61614,1,0,0:0:0:0:
64,192,61684,1,0,0:0:0:0:
320,192,61755,1,0,0:0:0:0:
192,192,61826,1,0,0:0:0:0:
320,192,61897,1,0,0:0:0:0:
448,192,61967,1,0,0:0:0:0:
192,192,62109,1,0,0:0:0:0:
448,192,62250,1,0,0:0:0:0:
320,192,62345,1,0,0:0:0:0:
192,192,62439,1,0,0:0:0:0:
64,192,62533,1,0,0:0:0:0:
448,192,62628,1,0,0:0:0:0:
320,192,62722,1,0,0:0:0:0:
192,192,62816,1,0,0:0:0:0:
64,192,62911,1,0,0:0:0:0:
448,192,63005,1,0,0:0:0:0:
320,192,63099,128,0,63382:0:0:0:0:
448,192,63241,128,0,63382:0:0:0:0:
192,192,63382,1,0,0:0:0:0:
64,192,63453,1,0,0:0:0:0:
448,192,63524,1,0,0:0:0:0:
64,192,63665,1,0,0:0:0:0:
320,192,63807,1,0,0:0:0:0:
192,192,63878,1,0,0:0:0:0:
64,192,63948,1,0,0:0:0:0:
448,192,64090,1,0,0:0:0:0:
64,192,64231,128,0,64514:0:0:0:0:
192,192,64373,128,0,64514:0:0:0:0:
448,192,64514,128,0,64656:0:0:0:0:
64,192,64656,1,0,0:0:0:0:
192,192,64727,1,0,0:0:0:0:
320,192,64798,1,0,0:0:0:0:
448,192,64939,1,0,0:0:0:0:
320,192,65081,1,0,0:0:0:0:
192,192,65151,1,0,0:0:0:0:
64,192,65222,1,0,0:0:0:0:
320,192,65364,1,0,0:0:0:0:
448,192,65434,128,0,65647:0:0:0:0:
64,192,65647,1,0,0:0:0:0:
320,192,65788,1,0,0:0:0:0:
192,192,65930,1,0,0:0:0:0:
448,192,66071,1,0,0:0:0:0:
192,192,66213,1,0,0:0:0:0:
320,192,66354,1,0,0:0:0:0:
64,192,66496,1,0,0:0:0:0:
448,192,66779,1,0,0:0:0:0:
192,192,66920,1,0,0:0:0:0:
64,192,66967,1,0,0:0:0:0:
320,192,67014,1,0,0:0:0:0:
448,192,67062,1,0,0:0:0:0:
320,192,67203,1,0,0:0:0:0:
64,192,67345,1,0,0:0:0:0:
192,192,67392,1,0,0:0:0:0:
448,192,67439,1,0,0:0:0:0:
320,192,67486,1,0,0:0:0:0:
64,192,67628,128,0,67911:0:0:0:0:
192,192,67769,128,0,67911:0:0:0:0:
448,192,67911,128,0,67981:0:0:0:0:
64,192,68052,1,0,0:0:0:0:
192,192,68123,1,0,0:0:0:0:
448,192,68194,1,0,0:0:0:0:
320,192,68264,1,0,0:0:0:0:
64,192,68335,128,0,68406:0:0:0:0:
448,192,68477,128,0,68548:0:0:0:0:
320,192,68548,1,0,0:0:0:0:
64,192,68618,1,0,0:0:0:0:
192,192,68689,1,0,0:0:0:0:
448,192,68760,128,0,68901:0:0:0:0:
320,192,68901,1,0,0:0:0:0:
64,192,69043,128,0,69184:0:0:0:0:
448,192,69184,1,0,0:0:0:0:
320,192,69255,1,0,0:0:0:0:
64,192,69326,1,0,0:0:0:0:
192,192,69397,1,0,0:0:0:0:
448,192,69467,128,0,69573:0:0:0:0:
64,192,69609,1,0,0:0:0:0:
192,192,69680,1,0,0:0:0:0:
448,192,69750,1,0,0:0:0:0:
320,192,69821,1,0,0:0:0:0:
64,192,69892,128,0,70033:0:0:0:0:
192,192,70033,1,0,0:0:0:0:
320,192,70104,1,0,0:0:0:0:
64,192,70175,1,0,0:0:0:0:
448,192,70175,1,4,0:0:0:0:
192,192,70175,1,2,0:0:0:0:
448,192,70316,1,4,0:0:0:0:
64,192,70316,1,0,0:0:0:0:
192,192,70316,1,2,0:0:0:0:
320,192,70458,1,0,0:0:0:0:
192,192,70529,1,0,0:0:0:0:
64,192,70599,1,0,0:0:0:0:
448,192,70670,128,0,70741:0:0:0:0:
192,192,70812,128,0,70882:0:0:0:0:
320,192,70953,1,0,0:0:0:0:
192,192,71024,1,0,0:0:0:0:
448,192,71095,1,0,0:0:0:0:
320,192,71165,1,0,0:0:0:0:
64,192,71236,1,0,0:0:0:0:
192,192,71307,1,0,0:0:0:0:
320,192,71378,1,0,0:0:0:0:
448,192,71448,1,0,0:0:0:0:
320,192,71590,1,0,0:0:0:0:
192,192,71661,1,0,0:0:0:0:
64,192,71731,1,0,0:0:0:0:
448,192,71802,1,0,0:0:0:0:
64,192,71944,1,0,0:0:0:0:
320,192,72014,1,0,0:0:0:0:
192,192,72156,1,0,0:0:0:0:
448,192,72227,1,0,0:0:0:0:
320,192,72368,1,0,0:0:0:0:
192,192,72439,1,2,0:0:0:0:
64,192,72439,1,4,0:0:0:0:
448,192,72439,1,0,0:0:0:0:
64,192,72581,1,4,0:0:0:0:
192,192,72581,1,2,0:0:0:0:
448,192,72581,1,0,0:0:0:0:
320,192,72722,1,0,0:0:0:0:
448,192,72816,1,0,0:0:0:0:
64,192,72911,1,0,0:0:0:0:
192,192,73005,1,0,0:0:0:0:
448,192,73076,128,0,73382:0:0:0:0:
64,192,73099,128,0,73382:0:0:0:0:
320,192,73288,128,0,73382:0:0:0:0:
64,192,73571,128,0,73854:0:0:0:0:
192,192,73713,128,0,73854:0:0:0:0:
448,192,73854,128,0,74137:0:0:0:0:
320,192,73996,128,0,74137:0:0:0:0:
64,192,74137,128,0,74208:0:0:0:0:
192,192,74208,1,0,0:0:0:0:
320,192,74420,1,0,0:0:0:0:
192,192,74491,1,0,0:0:0:0:
448,192,74562,1,0,0:0:0:0:
64,192,74632,1,0,0:0:0:0:
192,192,74703,1,0,0:0:0:0:
320,192,74703,1,4,0:0:0:0:
448,192,74703,1,2,0:0:0:0:
192,192,74845,1,0,0:0:0:0:
320,192,74845,1,4,0:0:0:0:
448,192,74845,1,2,0:0:0:0:
64,192,74915,1,0,0:0:0:0:
192,192,74986,1,0,0:0:0:0:
448,192,75057,1,0,0:0:0:0:
320,192,75128,128,0,75234:0:0:0:0:
64,192,75269,128,0,75375:0:0:0:0:
192,192,75411,1,0,0:0:0:0:
320,192,75481,1,0,0:0:0:0:
448,192,75552,128,0,75694:0:0:0:0:
320,192,75835,1,4,0:0:0:0:
192,192,75835,1,2,0:0:0:0:
64,192,75835,1,0,0:0:0:0:
448,192,75906,1,0,0:0:0:0:
64,192,75977,1,0,0:0:0:0:
192,192,75977,1,2,0:0:0:0:
320,192,75977,1,4,0:0:0:0:
448,192,76048,1,0,0:0:0:0:
64,192,76118,1,0,0:0:0:0:
192,192,76189,1,0,0:0:0:0:
320,192,76260,1,0,0:0:0:0:
192,192,76331,1,0,0:0:0:0:
64,192,76401,1,0,0:0:0:0:
192,192,76472,1,0,0:0:0:0:
320,192,76543,1,0,0:0:0:0:
448,192,76614,1,0,0:0:0:0:
64,192,76684,128,0,76826:0:0:0:0:
192,192,76826,1,0,0:0:0:0:
320,192,76967,1,4,0:0:0:0:
448,192,76967,1,2,0:0:0:0:
64,192,76967,1,0,0:0:0:0:
192,192,77038,1,0,0:0:0:0:
448,192,77109,1,2,0:0:0:0:
320,192,77109,1,4,0:0:0:0:
64,192,77109,1,0,0:0:0:0:
192,192,77180,1,0,0:0:0:0:
320,192,77250,1,0,0:0:0:0:
192,192,77321,1,0,0:0:0:0:
320,192,77392,1,0,0:0:0:0:
448,192,77463,1,0,0:0:0:0:
64,192,77533,1,0,0:0:0:0:
192,192,77604,1,0,0:0:0:0:
320,192,77675,1,0,0:0:0:0:
448,192,77816,128,0,77958:0:0:0:0:
320,192,77958,1,0,0:0:0:0:
192,192,78099,1,4,0:0:0:0:
64,192,78099,1,2,0:0:0:0:
448,192,78099,1,0,0:0:0:0:
448,192,78241,1,0,0:0:0:0:
192,192,78241,1,4,0:0:0:0:
64,192,78241,1,2,0:0:0:0:
320,192,78312,1,0,0:0:0:0:
192,192,78382,1,0,0:0:0:0:
64,192,78477,1,0,0:0:0:0:
448,192,78571,1,0,0:0:0:0:
320,192,78665,1,0,0:0:0:0:
192,192,78760,1,0,0:0:0:0:
64,192,78854,1,0,0:0:0:0:
448,192,78948,128,0,79090:0:0:0:0:
320,192,79090,1,0,0:0:0:0:
192,192,79231,1,2,0:0:0:0:
64,192,79231,1,0,0:0:0:0:
448,192,79231,1,4,0:0:0:0:
64,192,79373,1,0,0:0:0:0:
192,192,79373,1,2,0:0:0:0:
448,192,79373,1,4,0:0:0:0:
320,192,79444,1,0,0:0:0:0:
192,192,79514,1,0,0:0:0:0:
64,192,79585,1,0,0:0:0:0:
192,192,79656,1,0,0:0:0:0:
448,192,79727,1,0,0:0:0:0:
320,192,79798,1,0,0:0:0:0:
192,192,79798,1,2,0:0:0:0:
64,192,79798,1,4,0:0:0:0:
448,192,79868,1,0,0:0:0:0:
320,192,79939,1,0,0:0:0:0:
192,192,79939,1,2,0:0:0:0:
64,192,79939,1,4,0:0:0:0:
448,192,80010,1,0,0:0:0:0:
64,192,80081,1,0,0:0:0:0:
192,192,80151,1,0,0:0:0:0:
448,192,80222,1,0,0:0:0:0:
320,192,80293,1,0,0:0:0:0:
64,192,80364,1,2,0:0:0:0:
448,192,80364,1,4,0:0:0:0:
192,192,80364,1,0,0:0:0:0:
192,192,80505,1,0,0:0:0:0:
64,192,80505,1,2,0:0:0:0:
448,192,80505,1,4,0:0:0:0:
320,192,80576,1,0,0:0:0:0:
192,192,80647,1,0,0:0:0:0:
320,192,80717,1,0,0:0:0:0:
192,192,80788,1,0,0:0:0:0:
64,192,80859,1,0,0:0:0:0:
320,192,80930,1,4,0:0:0:0:
448,192,80930,1,2,0:0:0:0:
192,192,80930,1,0,0:0:0:0:
320,192,81071,1,4,0:0:0:0:
448,192,81071,1,2,0:0:0:0:
192,192,81071,1,0,0:0:0:0:
64,192,81142,1,0,0:0:0:0:
192,192,81213,1,0,0:0:0:0:
448,192,81283,1,0,0:0:0:0:
320,192,81354,1,0,0:0:0:0:
192,192,81425,1,0,0:0:0:0:
320,192,81496,1,0,0:0:0:0:
448,192,81496,1,4,0:0:0:0:
64,192,81496,1,2,0:0:0:0:
192,192,81566,1,0,0:0:0:0:
448,192,81637,1,4,0:0:0:0:
320,192,81637,1,0,0:0:0:0:
64,192,81637,1,2,0:0:0:0:
192,192,81708,1,0,0:0:0:0:
320,192,81779,1,0,0:0:0:0:
192,192,81849,1,0,0:0:0:0:
320,192,81920,1,0,0:0:0:0:
448,192,81991,1,0,0:0:0:0:
64,192,82062,1,4,0:0:0:0:
320,192,82062,1,0,0:0:0:0:
192,192,82062,1,2,0:0:0:0:
448,192,82132,1,0,0:0:0:0:
64,192,82203,1,4,0:0:0:0:
192,192,82203,1,2,0:0:0:0:
320,192,82203,1,0,0:0:0:0:
448,192,82274,1,0,0:0:0:0:
320,192,82345,1,0,0:0:0:0:
64,192,82415,1,0,0:0:0:0:
192,192,82486,1,0,0:0:0:0:
320,192,82557,1,0,0:0:0:0:
192,192,82628,1,0,0:0:0:0:
64,192,82628,1,2,0:0:0:0:
448,192,82628,1,4,0:0:0:0:
320,192,82698,1,0,0:0:0:0:
192,192,82769,1,0,0:0:0:0:
64,192,82769,1,2,0:0:0:0:
448,192,82769,1,4,0:0:0:0:
320,192,82840,1,0,0:0:0:0:
192,192,82911,1,0,0:0:0:0:
320,192,82981,1,0,0:0:0:0:
192,192,83052,1,0,0:0:0:0:
64,192,83123,1,0,0:0:0:0:
192,192,83194,1,0,0:0:0:0:
320,192,83194,1,4,0:0:0:0:
448,192,83194,1,2,0:0:0:0:
64,192,83264,1,0,0:0:0:0:
192,192,83335,1,0,0:0:0:0:
320,192,83335,1,4,0:0:0:0:
448,192,83335,1,2,0:0:0:0:
64,192,83406,1,0,0:0:0:0:
192,192,83477,1,0,0:0:0:0:
320,192,83548,1,0,0:0:0:0:
448,192,83618,1,0,0:0:0:0:
320,192,83689,1,0,0:0:0:0:
192,192,83760,1,0,0:0:0:0:
64,192,83760,1,2,0:0:0:0:
320,192,83831,1,0,0:0:0:0:
448,192,83901,1,0,0:0:0:0:
64,192,83901,1,2,0:0:0:0:
192,192,83972,1,0,0:0:0:0:
320,192,84043,1,0,0:0:0:0:
448,192,84043,1,2,0:0:0:0:
192,192,84114,1,0,0:0:0:0:
64,192,84184,1,0,0:0:0:0:
448,192,84184,1,2,0:0:0:0:
320,192,84255,1,0,0:0:0:0:
192,192,84326,1,0,0:0:0:0:
64,192,84326,1,2,0:0:0:0:
320,192,84397,1,0,0:0:0:0:
448,192,84467,1,2,0:0:0:0:
64,192,84467,1,0,0:0:0:0:
192,192,84538,1,0,0:0:0:0:
320,192,84609,1,0,0:0:0:0:
448,192,84609,1,2,0:0:0:0:
192,192,84680,1,0,0:0:0:0:
64,192,84750,1,0,0:0:0:0:
448,192,84750,1,2,0:0:0:0:
320,192,84821,1,0,0:0:0:0:
192,192,84892,1,0,0:0:0:0:
64,192,84892,1,2,0:0:0:0:
448,192,84963,1,0,0:0:0:0:
320,192,85033,1,2,0:0:0:0:
192,192,85033,1,0,0:0:0:0:
64,192,85104,1,0,0:0:0:0:
320,192,85175,1,2,0:0:0:0:
448,192,85175,1,0,0:0:0:0:
192,192,85246,1,0,0:0:0:0:
448,192,85316,1,0,0:0:0:0:
64,192,85316,1,2,0:0:0:0:
320,192,85387,1,0,0:0:0:0:
192,192,85458,1,2,0:0:0:0:
64,192,85458,1,0,0:0:0:0:
448,192,85529,1,0,0:0:0:0:
320,192,85599,1,2,0:0:0:0:
192,192,85599,1,0,0:0:0:0:
64,192,85670,1,0,0:0:0:0:
320,192,85741,1,0,0:0:0:0:
448,192,85741,1,2,0:0:0:0:
192,192,85812,1,0,0:0:0:0:
448,192,85882,1,0,0:0:0:0:
64,192,85882,1,2,0:0:0:0:
320,192,85953,1,0,0:0:0:0:
192,192,86024,1,2,0:0:0:0:
64,192,86024,1,0,0:0:0:0:
320,192,86095,1,2,0:0:0:0:
448,192,86095,1,0,0:0:0:0:
192,192,86165,1,2,0:0:0:0:
64,192,86165,1,0,0:0:0:0:
448,192,86236,1,0,0:0:0:0:
320,192,86236,1,2,0:0:0:0:
192,192,86307,1,2,0:0:0:0:
64,192,86307,1,0,0:0:0:0:
320,192,86378,1,2,0:0:0:0:
448,192,86378,1,0,0:0:0:0:
192,192,86448,1,2,0:0:0:0:
64,192,86448,1,0,0:0:0:0:
320,192,86519,1,2,0:0:0:0:
448,192,86519,1,0,0:0:0:0:
192,192,86590,1,2,0:0:0:0:
64,192,86590,1,0,0:0:0:0:
320,192,86661,1,2,0:0:0:0:
448,192,86661,1,0,0:0:0:0:
192,192,86731,1,2,0:0:0:0:
64,192,86731,1,0,0:0:0:0:
320,192,86802,1,2,0:0:0:0:
448,192,86802,1,0,0:0:0:0:
192,192,86873,1,2,0:0:0:0:
64,192,86873,1,0,0:0:0:0:
320,192,86944,1,2,0:0:0:0:
448,192,86944,1,0,0:0:0:0:
192,192,87014,1,2,0:0:0:0:
64,192,87014,1,0,0:0:0:0:
320,192,87085,1,2,0:0:0:0:
448,192,87085,1,0,0:0:0:0:
64,192,87156,1,2,0:0:0:0:
192,192,87191,1,2,0:0:0:0:
448,192,87227,1,2,0:0:0:0:
320,192,87262,1,2,0:0:0:0:
64,192,87298,1,2,0:0:0:0:
192,192,87333,1,2,0:0:0:0:
448,192,87368,1,2,0:0:0:0:
320,192,87404,1,2,0:0:0:0:
64,192,87439,1,2,0:0:0:0:
192,192,87474,1,2,0:0:0:0:
448,192,87510,1,2,0:0:0:0:
320,192,87545,1,2,0:0:0:0:
64,192,87581,1,2,0:0:0:0:
192,192,87616,1,2,0:0:0:0:
448,192,87651,1,2,0:0:0:0:
320,192,87687,1,2,0:0:0:0:
64,192,87722,1,2,0:0:0:0:
192,192,87757,1,2,0:0:0:0:
320,192,87793,1,2,0:0:0:0:
448,192,87828,1,2,0:0:0:0:
64,192,87864,1,2,0:0:0:0:
192,192,87899,1,2,0:0:0:0:
320,192,87934,1,2,0:0:0:0:
448,192,87970,1,2,0:0:0:0:
64,192,88005,1,2,0:0:0:0:
192,192,88040,1,2,0:0:0:0:
320,192,88076,1,2,0:0:0:0:
448,192,88111,1,2,0:0:0:0:
64,192,88147,1,2,0:0:0:0:
192,192,88182,1,2,0:0:0:0:
320,192,88217,1,2,0:0:0:0:
448,192,88253,1,2,0:0:0:0:
320,192,88288,1,0,0:0:0:0:
192,192,88288,1,0,0:0:0:70:Soft-hitfinish2.wav
64,192,88288,1,0,0:0:0:70:PunK.wav
64,192,89986,1,0,0:0:0:0:
192,192,90057,1,0,0:0:0:0:
320,192,90128,1,0,0:0:0:0:
448,192,90198,1,0,0:0:0:0:
64,192,90269,1,0,0:0:0:0:
192,192,90340,1,0,0:0:0:0:
320,192,90411,1,0,0:0:0:0:
448,192,90481,1,0,0:0:0:0:
320,192,90552,1,2,0:0:0:0:
192,192,90552,1,4,0:0:0:0:
64,192,90552,128,0,91260:0:0:0:0:
448,192,90694,1,0,0:0:0:0:
192,192,90835,1,0,0:0:0:0:
320,192,90835,1,2,0:0:0:0:
448,192,90977,1,0,0:0:0:0:
192,192,91118,1,0,0:0:0:0:
320,192,91118,1,2,0:0:0:0:
448,192,91260,128,0,91401:0:0:0:0:
192,192,91401,128,0,91543:0:0:0:0:
320,192,91401,1,2,0:0:0:0:
64,192,91543,128,0,91684:0:0:0:0:
448,192,91543,1,2,0:0:0:0:
320,192,91684,128,0,91967:0:0:0:0:
192,192,91684,1,2,0:0:0:0:
448,192,91826,1,0,0:0:0:0:
64,192,91967,1,2,0:0:0:0:
192,192,91967,128,0,92109:0:0:0:0:
448,192,92109,1,0,0:0:0:0:
320,192,92180,1,0,0:0:0:0:
192,192,92250,1,2,0:0:0:0:
64,192,92250,128,0,92392:0:0:0:0:
320,192,92392,1,0,0:0:0:0:
192,192,92463,1,2,0:0:0:0:
64,192,92463,1,0,0:0:0:0:
320,192,92533,1,2,0:0:0:0:
448,192,92533,128,0,92675:0:0:0:0:
64,192,92675,1,0,0:0:0:0:
192,192,92675,1,2,0:0:0:0:
448,192,92746,1,0,0:0:0:0:
320,192,92746,1,2,0:0:0:0:
64,192,92816,1,2,0:0:0:0:
192,192,92816,128,0,92958:0:0:0:0:
320,192,92958,1,0,0:0:0:0:
64,192,93099,1,2,0:0:0:0:
448,192,93099,128,0,93241:0:0:0:0:
192,192,93241,128,0,93382:0:0:0:0:
64,192,93382,1,0,0:0:0:0:
320,192,93382,1,2,0:0:0:0:
448,192,93524,128,0,93665:0:0:0:0:
64,192,93665,128,0,93807:0:0:0:0:
192,192,93665,1,2,0:0:0:0:
320,192,93807,1,2,0:0:0:0:
448,192,93807,1,0,0:0:0:0:
192,192,93948,1,4,0:0:0:0:
64,192,93948,1,0,0:0:0:0:
320,192,93948,1,2,0:0:0:0:
448,192,94090,1,0,0:0:0:0:
64,192,94090,1,2,0:0:0:0:
192,192,94161,1,2,0:0:0:0:
320,192,94161,1,0,0:0:0:0:
448,192,94231,1,4,0:0:0:0:
64,192,94231,1,2,0:0:0:0:
192,192,94373,1,0,0:0:0:0:
448,192,94373,1,2,0:0:0:0:
320,192,94444,1,2,0:0:0:0:
64,192,94444,1,0,0:0:0:0:
192,192,94514,1,4,0:0:0:0:
448,192,94514,1,2,0:0:0:0:
192,192,94656,1,2,0:0:0:0:
320,192,94656,1,0,0:0:0:0:
64,192,94727,1,2,0:0:0:0:
448,192,94727,1,0,0:0:0:0:
320,192,94798,1,4,0:0:0:0:
192,192,94798,1,2,0:0:0:0:
64,192,94939,1,0,0:0:0:0:
192,192,94939,1,2,0:0:0:0:
448,192,95010,1,0,0:0:0:0:
320,192,95010,1,2,0:0:0:0:
192,192,95081,1,2,0:0:0:0:
64,192,95081,128,4,95788:0:0:0:0:
320,192,95222,1,0,0:0:0:0:
448,192,95364,1,2,0:0:0:0:
192,192,95364,1,0,0:0:0:0:
320,192,95505,1,0,0:0:0:0:
448,192,95647,1,2,0:0:0:0:
192,192,95647,1,0,0:0:0:0:
320,192,95788,1,0,0:0:0:0:
192,192,95930,1,2,0:0:0:0:
64,192,95930,1,0,0:0:0:0:
192,192,96071,1,2,0:0:0:0:
320,192,96071,1,0,0:0:0:0:
64,192,96213,1,2,0:0:0:0:
448,192,96213,128,0,96920:0:0:0:0:
320,192,96354,1,0,0:0:0:0:
192,192,96496,1,2,0:0:0:0:
64,192,96496,1,0,0:0:0:0:
320,192,96637,1,0,0:0:0:0:
192,192,96779,1,2,0:0:0:0:
64,192,96779,1,0,0:0:0:0:
320,192,96920,1,0,0:0:0:0:
192,192,96920,1,2,0:0:0:0:
64,192,96991,1,2,0:0:0:0:
448,192,96991,1,0,0:0:0:0:
192,192,97062,1,2,0:0:0:0:
320,192,97062,1,0,0:0:0:0:
64,192,97203,1,0,0:0:0:0:
448,192,97203,1,2,0:0:0:0:
320,192,97274,1,2,0:0:0:0:
192,192,97274,1,0,0:0:0:0:
448,192,97345,1,2,0:0:0:0:
64,192,97345,128,0,97769:0:0:0:0:
192,192,97486,1,0,0:0:0:0:
320,192,97628,1,0,0:0:0:0:
448,192,97628,1,2,0:0:0:0:
448,192,97769,128,0,98335:0:0:0:0:
320,192,97911,1,2,0:0:0:0:
192,192,97911,1,0,0:0:0:0:
64,192,98052,1,0,0:0:0:0:
192,192,98194,1,2,0:0:0:0:
320,192,98194,1,0,0:0:0:0:
192,192,98335,1,2,0:0:0:0:
64,192,98335,1,0,0:0:0:0:
448,192,98477,128,2,98760:0:0:0:0:
320,192,98477,128,4,98760:0:0:0:0:
64,192,98477,128,0,98760:0:0:0:0:
64,192,98901,128,0,99184:0:0:0:0:
192,192,98901,128,2,99184:0:0:0:0:
448,192,98901,128,4,99184:0:0:0:0:
320,192,99326,1,2,0:0:0:0:
448,192,99361,1,2,0:0:0:0:
192,192,99397,1,2,0:0:0:0:
64,192,99432,1,2,0:0:0:0:
320,192,99467,1,2,0:0:0:0:
448,192,99503,1,2,0:0:0:0:
192,192,99538,1,2,0:0:0:0:
64,192,99573,1,2,0:0:0:0:
320,192,99609,1,2,0:0:0:0:
448,192,99609,1,4,0:0:0:0:
192,192,99680,1,0,0:0:0:0:
64,192,99750,1,0,0:0:0:0:
320,192,99821,1,0,0:0:0:0:
192,192,99892,1,0,0:0:0:0:
448,192,99892,1,2,0:0:0:0:
64,192,99963,1,0,0:0:0:0:
320,192,100033,1,0,0:0:0:0:
192,192,100104,1,0,0:0:0:0:
320,192,100175,1,2,0:0:0:0:
448,192,100175,1,0,0:0:0:0:
64,192,100246,1,0,0:0:0:0:
192,192,100316,1,0,0:0:0:0:
320,192,100387,1,0,0:0:0:0:
192,192,100458,1,0,0:0:0:0:
64,192,100458,1,2,0:0:0:0:
448,192,100529,1,0,0:0:0:0:
320,192,100599,1,0,0:0:0:0:
64,192,100599,1,0,0:0:0:0:
192,192,100670,1,0,0:0:0:0:
64,192,100741,1,0,0:0:0:0:
448,192,100741,1,2,0:0:0:0:
320,192,100812,1,0,0:0:0:0:
192,192,100882,1,0,0:0:0:0:
320,192,100953,1,0,0:0:0:0:
448,192,101024,1,0,0:0:0:0:
64,192,101024,1,2,0:0:0:0:
192,192,101095,1,0,0:0:0:0:
320,192,101165,1,0,0:0:0:0:
192,192,101236,1,0,0:0:0:0:
320,192,101307,1,2,0:0:0:0:
448,192,101307,1,0,0:0:0:0:
64,192,101378,1,0,0:0:0:0:
192,192,101448,1,0,0:0:0:0:
448,192,101519,1,0,0:0:0:0:
320,192,101519,1,2,0:0:0:0:
64,192,101590,1,0,0:0:0:0:
192,192,101590,1,2,0:0:0:0:
320,192,101661,1,0,0:0:0:0:
448,192,101731,1,0,0:0:0:0:
64,192,101731,1,2,0:0:0:0:
192,192,101802,1,2,0:0:0:0:
320,192,101802,1,0,0:0:0:0:
64,192,101873,1,2,0:0:0:0:
448,192,101873,1,0,0:0:0:0:
192,192,101944,1,0,0:0:0:0:
320,192,102014,1,0,0:0:0:0:
192,192,102085,1,0,0:0:0:0:
320,192,102156,1,0,0:0:0:0:
448,192,102156,1,2,0:0:0:0:
64,192,102227,1,0,0:0:0:0:
192,192,102298,1,0,0:0:0:0:
320,192,102368,1,0,0:0:0:0:
448,192,102439,1,0,0:0:0:0:
64,192,102439,1,2,0:0:0:0:
192,192,102510,1,0,0:0:0:0:
320,192,102581,1,0,0:0:0:0:
192,192,102651,1,0,0:0:0:0:
448,192,102722,1,2,0:0:0:0:
320,192,102722,1,0,0:0:0:0:
192,192,102793,1,0,0:0:0:0:
448,192,102864,1,2,0:0:0:0:
64,192,102864,1,0,0:0:0:0:
320,192,102934,1,0,0:0:0:0:
192,192,103005,1,4,0:0:0:0:
64,192,103005,1,2,0:0:0:0:
448,192,103005,1,0,0:0:0:0:
320,192,103076,1,0,0:0:0:0:
448,192,103147,1,2,0:0:0:0:
64,192,103147,1,0,0:0:0:0:
192,192,103217,1,0,0:0:0:0:
320,192,103217,1,2,0:0:0:0:
64,192,103288,1,2,0:0:0:0:
448,192,103288,1,4,0:0:0:0:
192,192,103359,1,0,0:0:0:0:
320,192,103430,1,2,0:0:0:0:
448,192,103430,1,0,0:0:0:0:
192,192,103500,1,2,0:0:0:0:
64,192,103500,1,0,0:0:0:0:
320,192,103571,1,2,0:0:0:0:
448,192,103571,1,4,0:0:0:0:
192,192,103642,1,0,0:0:0:0:
64,192,103713,1,0,0:0:0:0:
320,192,103713,1,2,0:0:0:0:
448,192,103783,1,0,0:0:0:0:
192,192,103783,1,2,0:0:0:0:
64,192,103854,1,2,0:0:0:0:
320,192,103854,1,4,0:0:0:0:
448,192,103925,1,0,0:0:0:0:
192,192,103996,1,2,0:0:0:0:
64,192,103996,1,0,0:0:0:0:
320,192,104066,1,2,0:0:0:0:
448,192,104066,1,0,0:0:0:0:
192,192,104137,1,2,0:0:0:0:
64,192,104137,1,4,0:0:0:0:
320,192,104208,1,0,0:0:0:0:
448,192,104279,1,2,0:0:0:0:
64,192,104279,1,0,0:0:0:0:
192,192,104349,1,0,0:0:0:0:
448,192,104420,1,2,0:0:0:0:
320,192,104420,1,0,0:0:0:0:
192,192,104491,1,0,0:0:0:0:
64,192,104562,1,0,0:0:0:0:
320,192,104562,1,2,0:0:0:0:
448,192,104632,1,0,0:0:0:0:
192,192,104703,1,2,0:0:0:0:
64,192,104703,1,0,0:0:0:0:
320,192,104774,1,0,0:0:0:0:
448,192,104845,1,2,0:0:0:0:
192,192,104845,1,0,0:0:0:0:
64,192,104915,1,0,0:0:0:0:
320,192,104986,1,0,0:0:0:0:
448,192,104986,1,2,0:0:0:0:
192,192,105057,1,0,0:0:0:0:
64,192,105128,1,2,0:0:0:0:
448,192,105128,1,0,0:0:0:0:
320,192,105198,1,0,0:0:0:0:
192,192,105269,1,2,0:0:0:0:
64,192,105269,1,4,0:0:0:0:
448,192,105269,1,0,0:0:0:0:
320,192,105340,1,0,0:0:0:0:
64,192,105411,1,0,0:0:0:0:
448,192,105411,1,2,0:0:0:0:
192,192,105481,1,0,0:0:0:0:
320,192,105552,1,2,0:0:0:0:
448,192,105552,1,0,0:0:0:0:
192,192,105623,1,0,0:0:0:0:
320,192,105694,1,2,0:0:0:0:
64,192,105694,1,0,0:0:0:0:
448,192,105764,1,0,0:0:0:0:
192,192,105835,1,0,0:0:0:0:
64,192,105835,1,2,0:0:0:0:
320,192,105906,1,0,0:0:0:0:
448,192,105977,1,2,0:0:0:0:
64,192,105977,1,0,0:0:0:0:
192,192,106048,1,0,0:0:0:0:
320,192,106118,1,2,0:0:0:0:
448,192,106118,1,0,0:0:0:0:
64,192,106189,1,0,0:0:0:0:
192,192,106260,1,2,0:0:0:0:
448,192,106260,1,0,0:0:0:0:
320,192,106331,1,0,0:0:0:0:
192,192,106401,1,2,0:0:0:0:
64,192,106401,1,0,0:0:0:0:
320,192,106472,1,2,0:0:0:0:
448,192,106472,1,0,0:0:0:0:
192,192,106543,1,2,0:0:0:0:
64,192,106543,1,0,0:0:0:0:
320,192,106614,1,2,0:0:0:0:
448,192,106614,1,0,0:0:0:0:
64,192,106684,1,0,0:0:0:0:
192,192,106684,1,2,0:0:0:0:
320,192,106755,1,2,0:0:0:0:
448,192,106755,1,0,0:0:0:0:
64,192,106826,1,0,0:0:0:0:
192,192,106826,1,2,0:0:0:0:
320,192,106897,1,2,0:0:0:0:
448,192,106967,1,2,0:0:0:0:
64,192,106967,1,0,0:0:0:0:
192,192,107038,1,0,0:0:0:0:
320,192,107038,1,2,0:0:0:0:
448,192,107109,1,2,0:0:0:0:
64,192,107109,1,0,0:0:0:0:
320,192,107180,1,2,0:0:0:0:
192,192,107180,1,0,0:0:0:0:
64,192,107250,1,0,0:0:0:0:
448,192,107250,1,2,0:0:0:0:
320,192,107321,1,2,0:0:0:0:
192,192,107321,1,0,0:0:0:0:
448,192,107392,1,2,0:0:0:0:
64,192,107392,1,0,0:0:0:0:
320,192,107463,1,2,0:0:0:0:
192,192,107463,1,0,0:0:0:0:
64,192,107533,1,2,0:0:0:0:
192,192,107569,1,2,0:0:0:0:
448,192,107604,1,2,0:0:0:0:
320,192,107639,1,2,0:0:0:0:
64,192,107675,1,2,0:0:0:0:
192,192,107710,1,2,0:0:0:0:
448,192,107746,1,2,0:0:0:0:
320,192,107781,1,2,0:0:0:0:
64,192,107816,1,2,0:0:0:0:
192,192,107852,1,2,0:0:0:0:
448,192,107887,1,2,0:0:0:0:
320,192,107923,1,2,0:0:0:0:
64,192,107958,1,2,0:0:0:0:
192,192,107993,1,2,0:0:0:0:
448,192,108029,1,2,0:0:0:0:
320,192,108064,1,2,0:0:0:0:
64,192,108099,1,2,0:0:0:0:
192,192,108135,1,2,0:0:0:0:
320,192,108170,1,2,0:0:0:0:
448,192,108206,1,2,0:0:0:0:
64,192,108241,1,2,0:0:0:0:
192,192,108276,1,2,0:0:0:0:
320,192,108312,1,2,0:0:0:0:
448,192,108347,1,2,0:0:0:0:
64,192,108382,1,2,0:0:0:0:
192,192,108418,1,2,0:0:0:0:
320,192,108453,1,2,0:0:0:0:
448,192,108489,1,2,0:0:0:0:
64,192,108524,1,2,0:0:0:0:
192,192,108559,1,2,0:0:0:0:
320,192,108595,1,2,0:0:0:0:
448,192,108630,1,2,0:0:0:0:
64,192,108665,1,2,0:0:0:0:
192,192,108665,1,4,0:0:0:0:
320,192,108760,1,0,0:0:0:0:
320,192,108854,1,0,0:0:0:0:
448,192,108948,1,0,0:0:0:0:
64,192,109043,1,0,0:0:0:0:
192,192,109137,1,0,0:0:0:0:
448,192,109231,1,0,0:0:0:0:
320,192,109326,1,0,0:0:0:0:
192,192,109420,1,0,0:0:0:0:
448,192,109514,1,4,0:0:0:0:
64,192,109514,1,0,0:0:0:0:
320,192,109514,1,2,0:0:0:0:
64,192,109798,1,4,0:0:0:0:
448,192,109798,1,0,0:0:0:0:
320,192,109798,1,2,0:0:0:0:
192,192,109892,1,0,0:0:0:0:
192,192,109986,1,0,0:0:0:0:
448,192,110081,1,0,0:0:0:0:
64,192,110175,1,0,0:0:0:0:
192,192,110269,1,0,0:0:0:0:
320,192,110364,1,0,0:0:0:0:
448,192,110458,1,0,0:0:0:0:
192,192,110552,1,0,0:0:0:0:
64,192,110647,1,4,0:0:0:0:
320,192,110647,1,2,0:0:0:0:
448,192,110717,1,0,0:0:0:0:
320,192,110788,1,0,0:0:0:0:
64,192,110859,1,0,0:0:0:0:
448,192,110930,1,2,0:0:0:0:
320,192,110930,1,4,0:0:0:0:
64,192,111024,1,0,0:0:0:0:
192,192,111024,1,2,0:0:0:0:
448,192,111118,1,2,0:0:0:0:
320,192,111118,1,0,0:0:0:0:
320,192,111213,1,2,0:0:0:0:
64,192,111213,1,0,0:0:0:0:
448,192,111307,1,2,0:0:0:0:
192,192,111307,1,0,0:0:0:0:
64,192,111401,1,0,0:0:0:0:
448,192,111401,1,2,0:0:0:0:
64,192,111496,1,4,0:0:0:0:
448,192,111496,1,2,0:0:0:0:
192,192,111590,1,0,0:0:0:0:
320,192,111590,1,2,0:0:0:0:
448,192,111684,1,0,0:0:0:0:
320,192,111684,1,2,0:0:0:0:
64,192,111779,1,0,0:0:0:0:
192,192,111779,1,2,0:0:0:0:
448,192,111873,1,0,0:0:0:0:
320,192,111873,1,2,0:0:0:0:
64,192,111967,1,0,0:0:0:0:
192,192,111967,1,2,0:0:0:0:
64,192,112062,1,4,0:0:0:0:
192,192,112062,1,2,0:0:0:0:
320,192,112156,1,2,0:0:0:0:
448,192,112156,1,0,0:0:0:0:
320,192,112250,1,2,0:0:0:0:
64,192,112250,1,0,0:0:0:0:
448,192,112345,1,0,0:0:0:0:
64,192,112345,1,2,0:0:0:0:
448,192,112439,1,0,0:0:0:0:
320,192,112439,1,2,0:0:0:0:
64,192,112533,1,0,0:0:0:0:
192,192,112533,1,2,0:0:0:0:
448,192,112628,1,6,0:0:0:0:
320,192,112675,1,2,0:0:0:0:
192,192,112722,1,2,0:0:0:0:
448,192,112769,1,2,0:0:0:0:
64,192,112816,1,2,0:0:0:0:
192,192,112864,1,2,0:0:0:0:
448,192,112911,1,2,0:0:0:0:
320,192,112958,1,2,0:0:0:0:
192,192,113005,1,2,0:0:0:0:
64,192,113052,1,2,0:0:0:0:
448,192,113099,1,2,0:0:0:0:
320,192,113147,1,2,0:0:0:0:
192,192,113194,1,2,0:0:0:0:
448,192,113194,1,0,0:0:0:0:
64,192,113194,1,0,0:0:0:0:
64,192,113618,1,0,0:0:0:0:
192,192,113618,1,2,0:0:0:0:
320,192,113689,1,2,0:0:0:0:
448,192,113689,1,0,0:0:0:0:
192,192,113760,1,2,0:0:0:0:
64,192,113760,1,0,0:0:0:0:
192,192,114043,1,0,0:0:0:0:
320,192,114043,1,2,0:0:0:0:
448,192,114184,128,0,115458:0:0:0:70:PunK.wav
320,192,114184,128,2,115458:0:0:0:0:
192,192,114184,128,0,115458:0:0:0:0:
64,192,114184,128,0,115458:0:0:0:70:Soft-hitfinish2.wav
