osu file format v14

[General]
AudioFilename: Duisuke Ohnuma - Dual Dragon Flying Flash.mp3
AudioLeadIn: 0
PreviewTime: 89986
Countdown: 0
SampleSet: Soft
StackLeniency: 0.7
Mode: 3
LetterboxInBreaks: 0
SpecialStyle: 0
WidescreenStoryboard: 0

[Editor]
DistanceSpacing: 0.7
BeatDivisor: 4
GridSize: 32
TimelineZoom: 2.1

[Metadata]
Title:Dual Dragon Flying Flash
TitleUnicode:双龍飛閃-Dual Dragoon-
Artist:Daisuke Ohnuma
ArtistUnicode:双龍飛閃
Creator:Amiichii
Version:Easy
Source:VOEZ
Tags:rhythm game DoNotMess Critical_Star Hamids-
BeatmapID:1318119
BeatmapSetID:616966

[Difficulty]
HPDrainRate:6.5
CircleSize:4
OverallDifficulty:6.5
ApproachRate:5
SliderMultiplier:1.4
SliderTickRate:1

[Events]
//Background and Video events
0,0,"Dual_Dragoon.jpg",0,0
//Break Periods
//Storyboard Layer 0 (Background)
//Storyboard Layer 1 (Fail)
//Storyboard Layer 2 (Pass)
//Storyboard Layer 3 (Foreground)
//Storyboard Sound Samples
Sample,88288,0,"PunK.wav",70
Sample,114184,0,"Soft-hitfinish2.wav",70

[TimingPoints]
4515,283.018867924528,4,2,1,70,1,0
20364,-100,4,2,1,70,0,1
38477,-100,4,2,1,70,0,0
90552,-100,4,2,1,70,0,1
108665,-100,4,2,1,70,0,0

[HitObjects]
448,192,4515,5,0,0:0:0:70:Soft-hitfinish2.wav
64,192,4515,128,0,9043:0:0:0:70:PunK.wav
448,192,7486,128,0,9043:0:0:0:0:
192,192,9043,1,6,0:0:0:0:
320,192,9255,1,2,0:0:0:0:
192,192,9467,1,2,0:0:0:0:
448,192,9609,1,2,0:0:0:0:
64,192,9892,128,2,10175:0:0:0:0:
192,192,10175,1,6,0:0:0:0:
448,192,10387,1,6,0:0:0:0:
64,192,10599,1,6,0:0:0:0:
320,192,10741,1,6,0:0:0:0:
192,192,11024,128,2,11307:0:0:0:0:
448,192,11307,1,6,0:0:0:0:
64,192,11519,1,2,0:0:0:0:
320,192,11731,1,2,0:0:0:0:
64,192,11873,1,2,0:0:0:0:
448,192,12156,128,2,12439:0:0:0:0:
320,192,12439,1,6,0:0:0:0:
64,192,12651,1,6,0:0:0:0:
448,192,12864,1,6,0:0:0:0:
192,192,13005,1,6,0:0:0:0:
320,192,13288,128,2,13571:0:0:0:0:
64,192,13571,1,6,0:0:0:0:
192,192,13783,1,2,0:0:0:0:
448,192,13996,1,2,0:0:0:0:
64,192,14137,1,2,0:0:0:0:
192,192,14420,128,2,14703:0:0:0:0:
448,192,14703,1,6,0:0:0:0:
320,192,14915,1,6,0:0:0:0:
64,192,15128,1,6,0:0:0:0:
448,192,15269,1,6,0:0:0:0:
192,192,15552,128,2,15835:0:0:0:0:
64,192,15835,1,6,0:0:0:0:
448,192,16048,1,2,0:0:0:0:
320,192,16260,1,2,0:0:0:0:
64,192,16401,1,2,0:0:0:0:
192,192,16684,128,2,16967:0:0:0:0:
320,192,16967,1,6,0:0:0:0:
64,192,17180,1,6,0:0:0:0:
448,192,17392,1,6,0:0:0:0:
192,192,17533,1,6,0:0:0:0:
320,192,17816,128,2,18099:0:0:0:0:
64,192,18099,128,2,19231:0:0:0:0:
448,192,19231,128,4,19798:0:0:0:0:
64,192,19798,1,2,0:0:0:0:
192,192,19892,1,2,0:0:0:0:
320,192,19986,1,2,0:0:0:0:
448,192,20081,128,2,20364:0:0:0:0:
64,192,20364,1,4,0:0:0:0:
192,192,20364,1,2,0:0:0:0:
448,192,20647,1,2,0:0:0:0:
192,192,20930,1,2,0:0:0:0:
64,192,21213,1,2,0:0:0:0:
320,192,21354,1,2,0:0:0:0:
192,192,21496,1,2,0:0:0:0:
448,192,21779,1,2,0:0:0:0:
192,192,22062,1,2,0:0:0:0:
320,192,22345,1,2,0:0:0:0:
64,192,22486,1,2,0:0:0:0:
448,192,22628,1,6,0:0:0:0:
192,192,22840,1,6,0:0:0:0:
448,192,23052,1,6,0:0:0:0:
64,192,23194,1,6,0:0:0:0:
320,192,23406,1,6,0:0:0:0:
192,192,23618,1,6,0:0:0:0:
448,192,23760,1,6,0:0:0:0:
64,192,23972,1,6,0:0:0:0:
320,192,24184,1,6,0:0:0:0:
192,192,24326,1,6,0:0:0:0:
448,192,24538,1,6,0:0:0:0:
64,192,24750,1,2,0:0:0:0:
448,192,24892,1,6,0:0:0:0:
192,192,25175,1,2,0:0:0:0:
320,192,25458,1,2,0:0:0:0:
64,192,25741,1,2,0:0:0:0:
448,192,25882,1,2,0:0:0:0:
192,192,26024,1,2,0:0:0:0:
64,192,26236,1,2,0:0:0:0:
320,192,26448,1,2,0:0:0:0:
448,192,26590,128,2,26873:0:0:0:0:
192,192,26873,1,2,0:0:0:0:
320,192,27014,1,2,0:0:0:0:
64,192,27156,1,6,0:0:0:0:
448,192,27368,1,6,0:0:0:0:
192,192,27581,1,6,0:0:0:0:
320,192,27722,1,6,0:0:0:0:
64,192,27934,1,6,0:0:0:0:
320,192,28147,1,6,0:0:0:0:
192,192,28288,128,6,28571:0:0:0:0:
448,192,28571,128,2,28854:0:0:0:0:
64,192,28854,128,2,29137:0:0:0:0:
320,192,29137,128,2,29420:0:0:0:0:
192,192,29420,1,6,0:0:0:0:
448,192,29703,1,2,0:0:0:0:
64,192,29986,1,2,0:0:0:0:
320,192,30269,1,2,0:0:0:0:
192,192,30411,1,2,0:0:0:0:
448,192,30552,1,2,0:0:0:0:
64,192,30835,1,2,0:0:0:0:
320,192,31118,1,2,0:0:0:0:
192,192,31401,1,2,0:0:0:0:
448,192,31543,1,2,0:0:0:0:
64,192,31684,1,6,0:0:0:0:
320,192,31897,1,6,0:0:0:0:
448,192,32109,1,6,0:0:0:0:
192,192,32250,1,6,0:0:0:0:
64,192,32463,1,6,0:0:0:0:
192,192,32675,1,6,0:0:0:0:
448,192,32816,1,6,0:0:0:0:
320,192,33029,1,6,0:0:0:0:
64,192,33241,1,6,0:0:0:0:
448,192,33382,1,6,0:0:0:0:
192,192,33595,1,6,0:0:0:0:
320,192,33807,1,2,0:0:0:0:
64,192,33948,1,6,0:0:0:0:
192,192,34231,1,2,0:0:0:0:
320,192,34514,1,2,0:0:0:0:
64,192,34798,1,2,0:0:0:0:
448,192,34939,1,2,0:0:0:0:
192,192,35081,1,2,0:0:0:0:
320,192,35293,1,2,0:0:0:0:
64,192,35505,1,2,0:0:0:0:
448,192,35647,128,2,35930:0:0:0:0:
192,192,35930,128,2,36213:0:0:0:0:
320,192,36213,1,6,0:0:0:0:
64,192,36425,1,6,0:0:0:0:
448,192,36637,1,6,0:0:0:0:
192,192,36779,1,6,0:0:0:0:
320,192,36991,1,6,0:0:0:0:
64,192,37203,1,6,0:0:0:0:
448,192,37345,128,6,37628:0:0:0:0:
64,192,37628,128,2,37911:0:0:0:0:
192,192,37911,128,2,38194:0:0:0:0:
320,192,38194,128,2,38477:0:0:0:0:
448,192,38477,1,6,0:0:0:0:
192,192,38760,1,2,0:0:0:0:
448,192,39043,1,2,0:0:0:0:
192,192,39184,1,2,0:0:0:0:
64,192,39326,1,2,0:0:0:0:
320,192,39467,1,2,0:0:0:0:
448,192,39609,1,2,0:0:0:0:
64,192,39892,1,2,0:0:0:0:
320,192,40175,128,2,40458:0:0:0:0:
192,192,40458,128,2,40741:0:0:0:0:
448,192,40741,1,2,0:0:0:0:
64,192,41024,1,2,0:0:0:0:
320,192,41307,1,2,0:0:0:0:
192,192,41590,1,2,0:0:0:0:
320,192,41731,1,2,0:0:0:0:
448,192,41873,128,2,42156:0:0:0:0:
64,192,42156,128,2,42439:0:0:0:0:
320,192,42439,128,2,42722:0:0:0:0:
192,192,42722,128,2,43005:0:0:0:0:
448,192,43005,1,2,0:0:0:0:
64,192,43288,1,2,0:0:0:0:
320,192,43571,1,2,0:0:0:0:
448,192,43854,1,2,0:0:0:0:
192,192,43996,1,2,0:0:0:0:
320,192,44137,128,2,44420:0:0:0:0:
64,192,44420,128,2,44703:0:0:0:0:
448,192,44703,128,2,44986:0:0:0:0:
192,192,44986,1,2,0:0:0:0:
320,192,45128,1,2,0:0:0:0:
64,192,45269,1,2,0:0:0:0:
320,192,45552,1,2,0:0:0:0:
192,192,45835,1,2,0:0:0:0:
448,192,46118,1,2,0:0:0:0:
64,192,46401,128,2,47250:0:0:0:0:
448,192,47250,128,2,47533:0:0:0:0:
192,192,47533,128,4,47816:0:0:0:0:
64,192,47533,1,2,0:0:0:0:
320,192,47816,128,2,48099:0:0:0:0:
448,192,48099,128,2,48382:0:0:0:0:
64,192,48382,1,2,0:0:0:0:
192,192,48524,1,2,0:0:0:0:
320,192,48665,128,2,48948:0:0:0:0:
448,192,48948,128,2,49231:0:0:0:0:
192,192,49231,128,2,49514:0:0:0:0:
320,192,49514,128,2,49798:0:0:0:0:
64,192,49798,128,2,50081:0:0:0:0:
448,192,50081,128,2,50364:0:0:0:0:
192,192,50364,128,2,50647:0:0:0:0:
448,192,50647,1,2,0:0:0:0:
320,192,50788,1,2,0:0:0:0:
64,192,50930,128,2,51213:0:0:0:0:
192,192,51213,128,2,51496:0:0:0:0:
448,192,51496,128,2,52062:0:0:0:0:
64,192,51708,1,0,0:0:0:70:BeLL.wav
192,192,52062,128,2,52345:0:0:0:0:
320,192,52345,128,2,52628:0:0:0:0:
448,192,52628,128,2,52911:0:0:0:0:
64,192,52911,1,2,0:0:0:0:
192,192,53052,1,2,0:0:0:0:
448,192,53194,128,2,53477:0:0:0:0:
64,192,53477,1,2,0:0:0:0:
320,192,53618,1,2,0:0:0:0:
192,192,53760,128,2,54043:0:0:0:0:
64,192,54043,128,2,54326:0:0:0:0:
192,192,54326,128,2,54609:0:0:0:0:
448,192,54609,128,2,54892:0:0:0:0:
64,192,54892,128,2,55175:0:0:0:0:
320,192,55175,128,2,55458:0:0:0:0:
192,192,55458,128,2,55741:0:0:0:0:
448,192,55741,128,2,56024:0:0:0:0:
64,192,56024,128,2,56307:0:0:0:0:
320,192,56307,128,2,56590:0:0:0:0:
448,192,56590,128,0,58854:0:0:0:70:Soft-hitfinish2.wav
192,192,56590,1,0,0:0:0:70:PunK.wav
64,192,56873,1,0,0:0:0:0:
320,192,57156,1,0,0:0:0:0:
192,192,57439,1,0,0:0:0:0:
64,192,57722,1,0,0:0:0:0:
320,192,58005,1,0,0:0:0:0:
192,192,58288,1,0,0:0:0:0:
64,192,58571,1,0,0:0:0:0:
192,192,58854,1,0,0:0:0:0:
320,192,59137,1,0,0:0:0:0:
64,192,59420,1,0,0:0:0:0:
448,192,59703,1,0,0:0:0:0:
192,192,59986,1,0,0:0:0:0:
320,192,60269,1,0,0:0:0:0:
64,192,60552,1,0,0:0:0:0:
192,192,60835,1,0,0:0:0:0:
448,192,61118,1,0,0:0:0:0:
320,192,61401,1,0,0:0:0:0:
64,192,61684,1,0,0:0:0:0:
192,192,61967,1,0,0:0:0:0:
448,192,62250,1,0,0:0:0:0:
320,192,62533,1,0,0:0:0:0:
64,192,62816,1,0,0:0:0:0:
192,192,63099,1,0,0:0:0:0:
448,192,63382,1,0,0:0:0:0:
64,192,63665,1,0,0:0:0:0:
320,192,63948,1,0,0:0:0:0:
192,192,64231,1,0,0:0:0:0:
448,192,64514,1,0,0:0:0:0:
64,192,64798,1,0,0:0:0:0:
320,192,65081,1,0,0:0:0:0:
192,192,65364,1,0,0:0:0:0:
448,192,65647,1,0,0:0:0:0:
320,192,65930,1,0,0:0:0:0:
64,192,66213,1,0,0:0:0:0:
192,192,66496,1,0,0:0:0:0:
320,192,66779,1,0,0:0:0:0:
448,192,67062,1,0,0:0:0:0:
192,192,67345,1,0,0:0:0:0:
64,192,67628,1,0,0:0:0:0:
320,192,67911,1,0,0:0:0:0:
192,192,68194,1,0,0:0:0:0:
448,192,68477,1,0,0:0:0:0:
64,192,68760,1,0,0:0:0:0:
320,192,69043,1,0,0:0:0:0:
64,192,69326,1,0,0:0:0:0:
448,192,69609,1,0,0:0:0:0:
192,192,69892,1,0,0:0:0:0:
64,192,70175,1,6,0:0:0:0:
448,192,70316,1,6,0:0:0:0:
192,192,70599,1,0,0:0:0:0:
320,192,70882,1,0,0:0:0:0:
192,192,71165,1,0,0:0:0:0:
64,192,71448,1,0,0:0:0:0:
448,192,71731,1,0,0:0:0:0:
192,192,72014,1,0,0:0:0:0:
320,192,72298,1,0,0:0:0:0:
64,192,72439,1,6,0:0:0:0:
448,192,72581,1,6,0:0:0:0:
192,192,72864,1,0,0:0:0:0:
320,192,73147,1,0,0:0:0:0:
64,192,73430,1,0,0:0:0:0:
448,192,73713,1,0,0:0:0:0:
192,192,73996,1,0,0:0:0:0:
320,192,74279,1,0,0:0:0:0:
192,192,74562,1,0,0:0:0:0:
448,192,74703,1,6,0:0:0:0:
64,192,74845,1,6,0:0:0:0:
320,192,75128,1,0,0:0:0:0:
192,192,75411,1,0,0:0:0:0:
448,192,75694,1,0,0:0:0:0:
64,192,75835,1,6,0:0:0:0:
320,192,75977,1,6,0:0:0:0:
192,192,76260,1,0,0:0:0:0:
448,192,76543,1,0,0:0:0:0:
64,192,76826,1,0,0:0:0:0:
320,192,76967,1,6,0:0:0:0:
192,192,77109,1,6,0:0:0:0:
448,192,77392,1,0,0:0:0:0:
64,192,77675,1,0,0:0:0:0:
448,192,77958,1,0,0:0:0:0:
192,192,78099,1,6,0:0:0:0:
320,192,78241,1,6,0:0:0:0:
64,192,78524,1,0,0:0:0:0:
448,192,78807,1,0,0:0:0:0:
192,192,79090,1,0,0:0:0:0:
448,192,79231,1,6,0:0:0:0:
64,192,79373,1,6,0:0:0:0:
192,192,79798,1,6,0:0:0:0:
320,192,79939,1,6,0:0:0:0:
448,192,80364,1,6,0:0:0:0:
64,192,80505,1,6,0:0:0:0:
192,192,80930,1,6,0:0:0:0:
320,192,81071,1,6,0:0:0:0:
64,192,81496,1,6,0:0:0:0:
448,192,81637,1,6,0:0:0:0:
320,192,82062,1,6,0:0:0:0:
64,192,82203,1,6,0:0:0:0:
192,192,82628,1,6,0:0:0:0:
448,192,82769,1,6,0:0:0:0:
320,192,83194,1,6,0:0:0:0:
64,192,83335,1,6,0:0:0:0:
448,192,83760,1,2,0:0:0:0:
192,192,83901,1,2,0:0:0:0:
320,192,84184,1,2,0:0:0:0:
64,192,84467,1,2,0:0:0:0:
448,192,84750,1,2,0:0:0:0:
192,192,85033,1,2,0:0:0:0:
320,192,85316,1,2,0:0:0:0:
64,192,85599,1,2,0:0:0:0:
448,192,85882,1,2,0:0:0:0:
192,192,86024,128,2,87156:0:0:0:0:
64,192,87156,128,2,88288:0:0:0:0:
448,192,87722,128,2,88288:0:0:0:0:
320,192,88288,1,0,0:0:0:70:Soft-hitfinish2.wav
64,192,89986,128,0,90269:0:0:0:0:
320,192,90269,128,0,90552:0:0:0:0:
192,192,90552,1,2,0:0:0:0:
448,192,90552,1,4,0:0:0:0:
64,192,90835,1,2,0:0:0:0:
448,192,91118,1,2,0:0:0:0:
192,192,91401,1,2,0:0:0:0:
320,192,91543,1,2,0:0:0:0:
64,192,91684,1,2,0:0:0:0:
448,192,91967,1,2,0:0:0:0:
192,192,92250,1,2,0:0:0:0:
448,192,92533,1,2,0:0:0:0:
64,192,92675,1,2,0:0:0:0:
320,192,92816,128,2,92958:0:0:0:0:
192,192,93099,128,2,93241:0:0:0:0:
448,192,93241,128,0,93382:0:0:0:0:
320,192,93524,128,0,93665:0:0:0:0:
64,192,93665,128,2,93807:0:0:0:0:
192,192,93948,128,6,94231:0:0:0:0:
320,192,94231,128,6,94514:0:0:0:0:
448,192,94514,128,6,94798:0:0:0:0:
64,192,94798,128,6,95081:0:0:0:0:
320,192,95081,1,6,0:0:0:0:
192,192,95364,1,2,0:0:0:0:
448,192,95647,1,2,0:0:0:0:
64,192,95930,1,2,0:0:0:0:
192,192,96071,1,2,0:0:0:0:
448,192,96213,1,2,0:0:0:0:
320,192,96496,1,2,0:0:0:0:
64,192,96779,1,2,0:0:0:0:
448,192,97062,1,2,0:0:0:0:
192,192,97203,1,2,0:0:0:0:
320,192,97345,1,2,0:0:0:0:
64,192,97628,1,2,0:0:0:0:
448,192,97911,1,2,0:0:0:0:
320,192,98194,1,2,0:0:0:0:
64,192,98335,1,2,0:0:0:0:
448,192,98477,128,6,98760:0:0:0:0:
192,192,98901,128,6,99184:0:0:0:0:
448,192,99326,128,6,99609:0:0:0:0:
64,192,99609,1,6,0:0:0:0:
320,192,99892,1,2,0:0:0:0:
192,192,100175,1,2,0:0:0:0:
448,192,100458,1,2,0:0:0:0:
64,192,100599,1,0,0:0:0:0:
320,192,100741,1,2,0:0:0:0:
192,192,101024,1,2,0:0:0:0:
448,192,101307,1,2,0:0:0:0:
64,192,101590,1,2,0:0:0:0:
320,192,101731,1,2,0:0:0:0:
192,192,101873,128,2,102014:0:0:0:0:
448,192,102156,128,2,102298:0:0:0:0:
64,192,102298,128,0,102439:0:0:0:0:
192,192,102581,128,0,102722:0:0:0:0:
320,192,102722,128,2,102864:0:0:0:0:
64,192,103005,128,6,103288:0:0:0:0:
192,192,103288,128,6,103571:0:0:0:0:
320,192,103571,128,6,103854:0:0:0:0:
448,192,103854,128,6,104137:0:0:0:0:
64,192,104137,128,6,104986:0:0:0:0:
192,192,104986,1,2,0:0:0:0:
320,192,105128,1,2,0:0:0:0:
448,192,105269,128,6,105977:0:0:0:0:
320,192,105977,1,2,0:0:0:0:
64,192,106118,1,2,0:0:0:0:
192,192,106260,1,2,0:0:0:0:
320,192,106401,128,6,106826:0:0:0:0:
64,192,106826,128,2,107533:0:0:0:0:
448,192,107533,128,2,107958:0:0:0:0:
320,192,107958,128,2,108382:0:0:0:0:
64,192,108382,128,2,108665:0:0:0:0:
448,192,108665,128,2,108948:0:0:0:0:
192,192,108665,1,4,0:0:0:0:
320,192,108948,128,0,109231:0:0:0:0:
64,192,109231,128,0,109514:0:0:0:0:
448,192,109514,1,6,0:0:0:0:
320,192,109798,128,6,110081:0:0:0:0:
64,192,110081,128,0,110364:0:0:0:0:
192,192,110364,128,0,110647:0:0:0:0:
448,192,110647,128,6,110930:0:0:0:0:
64,192,110930,128,6,111213:0:0:0:0:
320,192,111213,128,2,111496:0:0:0:0:
448,192,111496,128,6,111779:0:0:0:0:
192,192,111779,128,2,112062:0:0:0:0:
64,192,112062,128,6,112345:0:0:0:0:
320,192,112345,128,2,112628:0:0:0:0:
448,192,112628,128,6,112911:0:0:0:0:
64,192,112911,128,2,113194:0:0:0:0:
320,192,113194,1,2,0:0:0:0:
192,192,113618,1,2,0:0:0:0:
448,192,113760,1,2,0:0:0:0:
64,192,114043,1,2,0:0:0:0:
448,192,114184,128,0,115458:0:0:0:70:PunK.wav
320,192,114184,128,2,115458:0:0:0:70:Soft-hitfinish2.wav
