osu file format v14

[General]
AudioFilename: audio.mp3
AudioLeadIn: 0
PreviewTime: 71218
Countdown: 0
SampleSet: Soft
StackLeniency: 0.5
Mode: 0
LetterboxInBreaks: 0
WidescreenStoryboard: 0

[Editor]
Bookmarks: 121734,156089,205347,254895
DistanceSpacing: 1.9
BeatDivisor: 4
GridSize: 4
TimelineZoom: 2

[Metadata]
Title:Childish killer
TitleUnicode:Childish killer
Artist:Daisuke Ishiwatari feat. Mary Dale Sanchez
ArtistUnicode:石渡太輔 feat. Mary Dale Sanchez
Creator:Luscent
Version:Jounzan's Extra
Source:BlazBlue: Continuum Shift Extend
Tags:Natteke desu Jounzan EvilElvis yaspo Paris Sachi Kitazawa 北澤幸 Lily Ish Jin Kisaragi ジン=キサラギ Tsubaki Yayoi ツバキ=ヤヨイ owc 2020 semifinals semis sf DT2 BlazBlue Song Interlude English Rock Video Game
BeatmapID:4233871
BeatmapSetID:2031329

[Difficulty]
HPDrainRate:6
CircleSize:4
OverallDifficulty:8.5
ApproachRate:9.3
SliderMultiplier:3
SliderTickRate:1

[Events]
//Background and Video events
0,0,"dad.PNG",0,0
//Break Periods
2,69289,71411
2,125218,136179
2,202450,204572
//Storyboard Layer 0 (Background)
//Storyboard Layer 1 (Fail)
//Storyboard Layer 2 (Pass)
//Storyboard Layer 3 (Foreground)
//Storyboard Layer 4 (Overlay)
//Storyboard Sound Samples

[TimingPoints]
960,387.096774193548,4,2,1,50,1,0
6379,-333.333333333333,4,2,1,50,0,0
16443,-100,4,2,1,50,0,1
28830,-133.333333333333,4,2,1,50,0,0
30185,-333.333333333333,4,2,1,50,0,0
31927,-500,4,2,1,35,0,0
56701,-200,4,2,1,50,0,0
62895,-133.333333333333,4,2,1,60,0,0
64443,-200,4,2,1,50,0,0
72185,387.096774193548,4,2,1,60,1,1
95410,-100,4,2,1,60,0,0
96959,-100,4,2,1,60,0,1
121733,-500,4,2,1,70,0,0
121830,-500,4,2,1,40,0,0
137217,387.096774193548,4,2,1,60,1,1
148055,-100,4,2,1,60,0,0
149604,-100,4,2,1,60,0,1
165087,387.096774193548,4,2,1,40,1,0
165087,-200,4,2,1,40,0,0
189861,-166.666666666667,4,2,1,50,0,0
196054,-117.647058823529,4,2,1,60,0,0
197603,-166.666666666667,4,2,1,50,0,0
205345,387.096774193548,4,2,1,60,1,1
205345,-83.3333333333333,4,2,1,60,0,1
228570,-83.3333333333333,4,2,1,60,0,0
230119,-83.3333333333333,4,2,1,65,0,1
254893,-333.333333333333,4,2,1,70,0,0
254992,-333.333333333333,4,2,1,50,0,0
264183,-100,4,2,1,60,0,1
267280,-100,4,2,1,60,0,0
270570,-100,4,2,1,30,0,0

[Colours]
Combo1 : 17,254,176
Combo2 : 173,255,95
Combo3 : 255,88,100
Combo4 : 255,94,55

[HitObjects]
76,180,5605,5,4,2:0:0:0:
76,180,6185,1,2,2:0:0:0:
76,180,6379,2,0,L|133:173,1,45.0000000000001,2|0,2:0|2:0,2:0:0:0:
258,32,6959,1,2,2:0:0:0:
258,32,7153,6,0,P|266:76|259:167,1,135,4|2,1:0|2:0,2:0:0:0:
333,182,7927,2,0,P|330:218|334:254,1,67.5000000000001,2|0,2:0|2:0,2:0:0:0:
307,248,8314,2,0,P|310:281|307:315,1,67.5000000000001,2|0,2:0|2:0,2:0:0:0:
330,344,8701,6,0,P|396:339|474:342,1,135,4|4,1:0|2:3,2:0:0:0:
464,318,9379,1,0,1:0:0:0:
466,295,9476,1,0,1:0:0:0:
494,178,9766,1,0,1:0:0:0:
463,69,10056,1,4,3:0:0:0:
382,31,10250,6,0,B|366:123|410:101|396:193,1,157.5,4|0,1:0|2:0,2:0:0:0:
420,209,11024,1,0,1:0:0:0:
386,206,11121,1,0,1:0:0:0:
352,209,11218,1,0,1:0:0:0:
327,231,11314,1,0,1:0:0:0:
313,262,11411,1,0,1:0:0:0:
316,295,11508,1,0,1:0:0:0:
328,326,11605,1,0,1:0:0:0:
197,362,11798,5,4,1:0:0:0:
197,362,12185,1,4,1:2:0:0:
197,362,12572,1,12,1:2:0:0:
123,353,12863,1,0,1:0:0:0:
123,353,12959,1,4,3:0:0:0:
48,343,13153,1,4,3:0:0:0:
188,278,13347,5,6,1:0:0:0:
204,280,13443,1,0,1:0:0:0:
219,273,13540,1,0,1:0:0:0:
235,274,13637,1,0,1:0:0:0:
251,268,13734,1,0,1:0:0:0:
266,271,13830,1,0,1:0:0:0:
282,266,13927,1,0,1:0:0:0:
297,269,14024,1,0,1:0:0:0:
350,187,14121,5,6,1:0:0:0:
323,156,14218,1,0,1:0:0:0:
282,150,14314,1,0,1:0:0:0:
245,169,14411,1,0,1:0:0:0:
207,184,14508,1,0,1:0:0:0:
166,184,14605,1,0,1:0:0:0:
131,164,14701,1,0,1:0:0:0:
114,126,14798,1,0,1:0:0:0:
190,105,14895,5,6,1:0:0:0:
377,267,15089,1,2,1:0:0:0:
377,267,15185,1,0,1:0:0:0:
377,267,15282,1,2,1:0:0:0:
432,48,15476,1,2,1:0:0:0:
432,48,15572,1,0,1:0:0:0:
432,48,15669,2,2,B|344:64|345:28|261:42,1,157.5,6|0,1:0|2:0,1:0:0:0:
254,126,16443,6,0,P|256:167|252:215,1,75,0|0,1:0|2:0,2:0:0:0:
205,277,16637,2,0,B|264:234|264:234|357:255,1,150,2|0,2:3|1:0,2:0:0:0:
417,203,16927,1,0,2:0:0:0:
470,255,17024,2,0,P|468:302|475:353,1,75,2|0,2:3|2:0,2:0:0:0:
300,364,17218,2,0,P|225:355|125:357,1,150,0|2,1:0|2:3,2:0:0:0:
80,308,17508,2,0,P|81:239|76:137,1,150,0|0,1:0|2:0,2:0:0:0:
135,91,17798,2,0,L|137:7,1,75,2|0,1:3|2:0,2:0:0:0:
363,42,17992,6,0,B|325:47|325:47|274:36,1,75,4|0,1:0|2:0,2:0:0:0:
336,143,18185,2,0,P|245:135|191:208,1,150,2|0,2:3|1:0,2:0:0:0:
193,206,18476,1,0,2:0:0:0:
188,242,18572,1,2,2:3:0:0:
197,278,18669,1,0,2:0:0:0:
355,362,18766,5,0,1:0:0:0:
370,327,18863,1,0,2:0:0:0:
372,289,18959,1,2,1:3:0:0:
362,252,19056,1,0,1:0:0:0:
122,297,19153,5,0,1:0:0:0:
168,362,19250,5,0,1:0:0:0:
241,358,19347,5,0,1:3:0:0:
276,287,19443,5,0,1:0:0:0:
261,205,19540,6,0,B|193:228|193:228|91:212,1,150,6|0,1:0|2:3,2:0:0:0:
115,45,19830,1,0,2:0:0:0:
179,6,19927,2,0,B|205:83|161:90|185:163,1,150,2|0,1:0|2:3,2:0:0:0:
346,205,20218,1,0,2:0:0:0:
379,132,20314,2,0,P|347:126|305:135,1,75,2|0,1:0|2:0,2:0:0:0:
310,279,20508,2,2,P|351:286|403:273,1,75,2|0,2:1|2:1,1:0:0:0:
508,206,20701,2,0,L|434:209,1,75,2|0,1:0|2:0,2:0:0:0:
259,352,20895,6,0,L|98:344,1,150,2|0,0:1|1:0,2:0:0:0:
19,244,21185,1,0,2:0:0:0:
19,244,21282,2,0,L|177:254,1,150,2|0,2:1|1:0,2:0:0:0:
225,175,21572,1,0,2:0:0:0:
225,175,21669,2,0,P|228:139|222:91,1,75,2|0,2:1|2:0,2:0:0:0:
301,102,21863,2,0,P|298:66|304:18,1,75,2|0,1:0|2:0,2:0:0:0:
122,170,22056,6,0,P|138:140|148:94,1,75,2|0,2:1|2:0,2:0:0:0:
354,250,22250,2,0,P|337:222|328:174,1,75,2|0,1:0|2:0,2:0:0:0:
99,219,22443,2,0,P|131:188|153:153,1,75,2|0,1:0|1:0,2:0:0:0:
389,327,22637,6,0,P|333:288|307:192,1,150,4|0,1:0|2:0,2:0:0:0:
178,326,22927,1,0,1:0:0:0:
249,361,23024,2,0,P|254:323|243:267,1,75,0|0,1:0|2:0,2:0:0:0:
106,290,23218,2,0,P|101:328|112:384,1,75,0|0,1:0|2:0,2:0:0:0:
26,219,23411,2,0,P|110:258|176:244,1,150,0|0,1:0|2:0,2:0:0:0:
252,168,23701,1,0,1:0:0:0:
179,85,23798,2,0,L|97:88,1,75,0|0,1:0|2:0,2:0:0:0:
250,36,23992,2,0,L|332:39,1,75,0|0,1:0|2:0,2:0:0:0:
497,113,24185,6,0,P|413:152|347:138,1,150,0|0,1:0|2:0,2:0:0:0:
432,231,24476,1,0,1:0:0:0:
501,267,24572,2,0,B|508:306|508:306|502:359,1,75,0|0,1:0|2:0,2:0:0:0:
352,335,24766,2,0,L|446:326,1,75,0|0,1:0|2:0,2:0:0:0:
282,277,24959,2,0,B|275:316|275:316|281:369,1,75,2|0,1:0|2:0,2:0:0:0:
126,321,25153,2,0,L|229:314,1,75,2|0,2:1|2:0,2:0:0:0:
96,109,25347,2,2,P|32:170|43:243,1,150,6|0,1:2|1:0,1:0:0:0:
151,198,25637,1,0,1:0:0:0:
350,144,25734,6,0,L|194:137,1,150,6|0,1:0|2:0,2:0:0:0:
390,61,26024,1,0,2:0:0:0:
455,103,26121,2,0,P|446:173|461:268,1,150,2|0,1:0|2:0,2:0:0:0:
324,234,26411,1,0,2:0:0:0:
251,211,26508,2,0,P|255:250|254:311,1,75,2|0,1:0|2:0,2:0:0:0:
76,299,26701,2,0,P|72:261|71:224,1,75,2|0,2:1|2:0,2:0:0:0:
167,292,26895,2,0,L|172:377,1,75,2|0,1:0|2:0,2:0:0:0:
154,173,27089,6,0,P|181:99|282:87,1,150,2|0,2:1|1:0,2:0:0:0:
414,124,27379,1,0,2:0:0:0:
414,124,27476,2,0,P|387:50|286:38,1,150,2|0,2:1|1:0,2:0:0:0:
278,148,27766,1,0,2:0:0:0:
304,215,27863,2,0,P|336:214|394:218,1,75,2|0,2:1|2:0,2:0:0:0:
512,283,28056,2,0,P|480:282|422:286,1,75,2|0,1:0|2:0,2:0:0:0:
297,331,28250,2,0,P|329:330|387:334,1,75,2|0,2:1|2:0,2:0:0:0:
222,276,28443,1,2,1:0:0:0:
220,200,28540,1,0,1:0:0:0:
211,125,28637,2,0,L|202:33,1,75,0|0,1:0|2:0,2:0:0:0:
21,66,28830,6,0,P|1:173|111:232,1,225.000000000001,8|0,1:3|1:0,2:0:0:0:
85,233,29411,1,4,1:0:0:0:
68,310,29798,1,0,1:0:0:0:
127,357,30185,6,0,L|116:27,1,315,4|8,1:0|2:1,2:0:0:0:
116,42,31927,6,0,L|189:36,1,60,4|0,1:0|2:0,2:0:0:0:
270,66,32701,2,0,L|333:61,1,60,8|0,2:1|2:0,2:0:0:0:
439,89,33476,5,8,2:3:0:0:
439,89,33863,1,8,2:3:0:0:
493,175,34250,1,8,2:1:0:0:
493,175,35024,5,0,1:0:0:0:
403,293,35605,1,0,1:0:0:0:
403,293,35798,2,0,P|361:294|334:297,1,60,8|0,2:1|2:0,2:0:0:0:
233,266,36572,5,8,2:3:0:0:
233,266,36959,1,8,2:3:0:0:
119,282,37347,2,0,P|118:240|114:214,1,60,8|0,2:1|2:0,2:0:0:0:
37,140,38121,5,8,2:3:0:0:
37,140,38895,1,8,2:1:0:0:
256,36,39669,5,8,2:3:0:0:
256,36,40250,1,0,1:0:0:0:
256,36,40443,2,0,P|254:71|257:103,1,60,8|0,2:1|2:0,2:0:0:0:
343,201,41218,6,0,L|437:206,1,90,0|0,1:0|1:0,2:0:0:0:
432,205,41992,1,8,2:1:0:0:
499,330,42379,5,4,2:3:0:0:
257,296,42572,5,8,2:1:0:0:
25,348,42766,5,12,2:3:0:0:
25,348,43153,1,8,2:3:0:0:
25,348,43540,5,8,2:1:0:0:
257,296,43734,5,4,2:3:0:0:
499,330,43927,5,8,2:1:0:0:
499,330,44314,6,0,P|497:273|504:208,1,120,4|8,1:0|2:1,2:0:0:0:
370,102,45669,1,0,1:0:0:0:
370,102,45863,6,0,P|332:102|301:99,1,60,8|8,2:3|2:3,2:0:0:0:
211,157,46637,2,0,L|145:163,1,60,8|0,2:1|2:0,2:0:0:0:
48,210,47411,5,8,2:3:0:0:
48,210,47992,1,0,1:0:0:0:
48,210,48185,2,0,P|50:239|48:311,1,90,8|0,2:1|1:0,2:0:0:0:
48,299,48959,6,0,L|116:293,1,60,8|8,2:3|2:3,2:0:0:0:
204,354,49734,1,8,2:1:0:0:
204,354,50121,1,0,2:0:0:0:
273,264,50508,6,0,P|270:215|270:199,1,60,8|8,2:3|2:3,2:0:0:0:
308,96,51282,1,8,2:1:0:0:
308,96,51863,1,0,1:0:0:0:
308,96,52056,6,0,P|343:97|434:93,1,120,8|8,2:3|2:1,2:0:0:0:
427,93,53605,2,0,P|427:120|431:162,1,60,8|8,2:3|2:3,2:0:0:0:
351,236,54379,1,8,2:1:0:0:
265,346,54766,5,4,2:3:0:0:
238,199,54959,5,8,2:1:0:0:
264,49,55153,5,4,1:0:0:0:
264,49,55347,1,2,2:0:0:0:
238,199,55540,1,4,1:2:0:0:
238,199,55734,1,2,2:0:0:0:
183,51,55927,1,8,1:0:0:0:
183,51,56121,1,2,2:0:0:0:
297,144,56314,1,8,1:0:0:0:
297,144,56411,1,0,1:0:0:0:
297,144,56508,1,0,1:0:0:0:
80,76,56701,6,0,P|77:131|83:190,1,112.5,4|0,1:0|2:0,2:0:0:0:
82,188,57089,2,0,L|159:181,1,75,8|2,1:0|2:0,2:0:0:0:
287,212,57476,1,0,1:0:0:0:
160,198,57669,1,0,1:0:0:0:
398,229,57863,6,0,P|390:153|397:91,1,112.5,12|0,1:0|2:0,2:0:0:0:
392,117,58250,2,0,L|316:119,1,75,4|2,1:0|2:0,2:0:0:0:
106,74,58637,1,8,1:0:0:0:
106,74,58830,2,0,B|184:57|173:96|258:77,1,150,2|0,1:2|1:0,2:0:0:0:
476,157,59411,1,8,1:0:0:0:
394,13,59605,1,8,1:0:0:0:
240,194,59798,6,0,P|241:244|247:272,1,75,4|0,1:0|2:0,2:0:0:0:
117,338,60185,2,0,L|194:327,1,75,8|2,1:0|2:0,2:0:0:0:
354,214,60572,6,0,P|353:164|347:136,1,75,0|0,1:0|1:0,2:0:0:0:
477,70,60959,2,0,L|400:81,1,75,8|0,1:0|2:0,2:0:0:0:
325,318,61347,6,0,P|395:330|472:190,1,225,4|0,1:0|2:0,2:0:0:0:
295,138,62121,2,0,L|211:144,1,75,4|0,1:0|2:0,2:0:0:0:
6,345,62508,1,0,1:0:0:0:
47,340,62605,1,8,1:0:0:0:
87,334,62701,1,8,1:0:0:0:
127,327,62798,1,0,1:0:0:0:
154,364,62895,6,0,B|172:254|105:277|133:137,1,225.000000000001,6|8,1:0|1:0,2:0:0:0:
272,34,63476,1,0,1:0:0:0:
468,134,63669,2,0,P|430:177|252:171,1,225.000000000001,6|8,1:0|1:0,2:0:0:0:
263,285,64250,5,0,1:0:0:0:
184,268,64443,2,0,P|180:310|186:356,1,75,4|0,1:0|2:0,2:0:0:0:
494,266,64830,1,8,1:0:0:0:
393,217,65024,1,2,1:0:0:0:
335,310,65218,1,0,1:0:0:0:
431,351,65411,1,2,1:0:0:0:
477,155,65605,1,10,1:0:0:0:
288,226,65798,1,10,1:0:0:0:
407,266,65992,6,0,P|444:266|493:274,1,75,4|0,1:0|2:0,2:0:0:0:
367,162,66379,1,10,1:0:0:0:
367,162,66572,2,0,P|305:144|195:145,1,150,6|10,1:0|1:0,2:0:0:0:
57,303,67153,2,0,P|112:298|166:281,1,112.5,6|0,1:0|2:0,2:0:0:0:
166,281,67540,6,0,L|153:204,1,75,4|0,1:0|2:0,2:0:0:0:
57,158,67927,1,8,1:0:0:0:
125,75,68121,1,4,2:3:0:0:
125,75,68218,1,0,1:0:0:0:
125,75,68314,2,0,P|171:71|212:53,1,75,4|0,1:3|2:0,2:0:0:0:
403,157,68701,2,0,P|327:152|286:134,1,112.5,8|0,1:0|2:0,2:0:0:0:
245,194,69089,5,8,1:3:0:0:
245,194,72185,6,0,P|230:262|252:351,1,150,4|8,1:0|1:0,1:0:0:0:
344,368,72475,1,0,1:0:0:0:
432,333,72572,2,0,P|438:294|431:251,1,75,0|0,1:0|1:0,1:0:0:0:
512,217,72765,2,0,B|429:235|443:196|351:208,1,150,8|0,1:0|1:0,1:0:0:0:
282,108,73055,1,0,1:0:0:0:
360,55,73152,2,0,B|367:93|367:93|362:142,1,75,8|0,1:0|1:0,1:0:0:0:
199,128,73346,2,0,B|195:91|195:91|202:53,1,75,8|0,1:3|1:0,1:0:0:0:
47,106,73539,2,0,L|135:100,1,75,8|0,1:0|1:0,1:0:0:0:
30,195,73733,6,0,P|100:197|153:254,1,150,4|8,1:0|1:0,1:0:0:0:
355,259,74023,1,0,1:0:0:0:
239,318,74120,2,0,P|220:336|197:378,1,75,0|0,1:0|1:0,1:0:0:0:
277,178,74314,2,0,P|337:140|434:126,1,150,8|0,1:0|1:0,1:0:0:0:
512,217,74604,1,0,1:0:0:0:
430,278,74701,2,0,B|425:240|425:240|434:187,1,75,8|0,1:0|1:0,1:0:0:0:
495,27,74894,2,0,B|503:67|503:67|494:120,1,75,8|0,1:3|1:0,1:0:0:0:
395,30,75088,2,0,L|304:25,1,75,8|0,1:0|1:0,1:0:0:0:
108,196,75281,6,0,P|86:101|106:50,1,150,4|8,1:0|1:0,1:0:0:0:
269,118,75572,1,0,1:0:0:0:
193,159,75668,2,0,P|185:123|195:69,1,75,0|0,1:0|1:0,1:0:0:0:
488,98,75862,2,0,B|410:92|417:136|340:124,1,150,8|0,1:0|1:0,1:0:0:0:
248,261,76152,1,0,1:0:0:0:
329,306,76249,2,0,B|338:265|338:265|321:197,1,75,8|0,1:0|1:0,1:0:0:0:
152,272,76443,2,0,B|187:339|187:339|288:355,1,150,8|8,1:3|1:0,1:0:0:0:
274,163,76733,1,0,1:0:0:0:
183,171,76830,6,0,B|130:181|130:181|100:205|100:205|20:213,1,150,4|8,1:0|1:0,1:0:0:0:
136,99,77120,1,0,1:0:0:0:
214,82,77217,2,0,P|216:57|210:-1,1,75,0|0,1:0|1:0,1:0:0:0:
278,200,77410,2,0,P|306:124|392:103,1,150,8|0,1:0|1:0,1:0:0:0:
474,193,77701,1,0,1:0:0:0:
370,260,77797,2,0,P|360:212|367:168,1,75,8|0,1:0|1:0,1:0:0:0:
450,330,77991,2,0,B|380:306|380:306|309:330,1,150,8|8,1:3|1:0,1:0:0:0:
207,348,78281,1,0,1:0:0:0:
124,235,78378,6,0,P|114:182|128:67,1,150,4|8,1:0|1:0,1:0:0:0:
232,37,78668,1,0,1:0:0:0:
337,112,78765,2,0,P|286:109|247:114,1,75,0|0,1:0|1:0,1:0:0:0:
408,49,78959,2,0,P|481:98|497:184,1,150,8|0,1:0|1:0,1:0:0:0:
451,264,79249,1,0,1:0:0:0:
336,263,79346,2,0,B|328:224|328:224|340:167,1,75,8|0,1:0|1:0,1:0:0:0:
174,157,79539,2,0,L|264:142,1,75,8|0,1:3|1:0,1:0:0:0:
255,328,79733,2,0,L|165:313,1,75,8|0,1:0|1:0,1:0:0:0:
64,230,79926,6,0,B|143:216|134:255|230:231,1,150,4|8,1:0|1:0,1:0:0:0:
316,188,80217,1,0,1:0:0:0:
383,135,80314,2,0,B|388:99|388:99|376:33,1,75,0|0,1:0|1:0,1:0:0:0:
485,195,80507,2,0,P|448:267|384:279,1,150,8|0,1:0|1:0,1:0:0:0:
287,362,80797,1,0,1:0:0:0:
170,319,80894,2,0,B|163:280|163:280|170:238,1,75,8|0,1:0|1:0,1:0:0:0:
242,34,81088,2,0,L|253:216,1,150,8|8,1:3|1:0,1:0:0:0:
79,298,81378,1,0,1:0:0:0:
18,155,81475,6,0,P|90:130|173:181,1,150,4|8,1:0|1:0,1:0:0:0:
332,280,81765,1,0,1:0:0:0:
250,330,81862,2,0,P|244:293|247:255,1,75,0|0,1:0|1:0,1:0:0:0:
421,253,82055,2,0,P|405:346|326:364,1,150,8|0,1:0|1:0,1:0:0:0:
289,180,82346,1,0,1:0:0:0:
360,122,82443,2,0,P|368:158|365:205,1,75,8|0,1:0|1:0,1:0:0:0:
194,202,82636,2,0,P|212:127|282:103,1,150,0|8,1:0|1:0,1:0:0:0:
474,174,82926,1,0,1:0:0:0:
443,326,83023,6,0,L|445:228,1,75,4|0,1:2|1:0,1:0:0:0:
250,330,83217,2,0,L|252:233,1,75,8|0,1:0|1:0,1:0:0:0:
345,336,83410,6,0,B|353:297|353:297|343:237,1,75,4|0,1:2|1:0,1:0:0:0:
152,340,83604,2,0,B|144:305|144:305|152:254,1,75,8|0,1:0|1:0,1:0:0:0:
250,330,83797,6,0,L|252:232,1,75,4|0,1:2|1:0,1:0:0:0:
57,334,83991,2,0,L|49:237,1,75,8|0,1:0|1:0,1:0:0:0:
152,340,84184,6,0,B|134:259|175:280|153:167,1,150,8|8,1:3|1:0,1:0:0:0:
254,98,84475,1,8,1:0:0:0:
85,33,84572,6,0,P|21:62|3:142,1,150,4|8,1:0|1:0,1:0:0:0:
82,203,84862,1,0,1:0:0:0:
169,114,84959,2,0,B|131:107|131:107|68:115,1,75,0|0,1:0|1:0,1:0:0:0:
237,325,85152,2,0,L|240:151,1,150,8|0,1:0|1:0,1:0:0:0:
393,108,85443,1,0,1:0:0:0:
306,47,85539,2,0,P|304:93|310:135,1,75,8|0,1:0|1:0,1:0:0:0:
512,90,85733,2,0,P|466:32|394:20,1,150,8|8,1:3|1:0,1:0:0:0:
365,207,86023,1,0,1:0:0:0:
454,314,86120,6,0,L|462:143,1,150,4|8,1:0|1:0,1:0:0:0:
372,354,86410,1,0,1:0:0:0:
280,313,86507,2,0,L|276:239,1,75,0|0,1:0|1:0,1:0:0:0:
130,46,86701,2,0,L|132:120,1,75,8|0,1:0|1:0,1:0:0:0:
48,197,86894,2,0,P|42:156|51:116,1,75,0|0,1:0|1:0,1:0:0:0:
209,128,87088,2,0,P|215:164|209:201,1,75,8|0,1:0|1:0,1:0:0:0:
323,181,87281,2,0,L|308:26,1,150,8|8,1:3|1:0,1:0:0:0:
420,202,87572,1,0,1:0:0:0:
496,345,87668,6,0,L|508:182,1,150,8|8,1:3|1:0,1:0:0:0:
326,313,87959,1,0,1:0:0:0:
251,287,88055,2,0,B|245:247|245:247|251:199,1,75,0|0,1:0|1:0,1:0:0:0:
16,253,88249,2,0,B|76:249|76:249|107:264|107:264|173:260,1,150,8|0,1:0|1:0,1:0:0:0:
307,154,88539,1,0,1:0:0:0:
173,93,88636,2,0,P|175:148|181:177,1,75,8|0,1:0|1:0,1:0:0:0:
208,28,88830,2,0,P|136:84|61:76,1,150,8|8,1:3|1:0,1:0:0:0:
256,210,89120,1,0,1:0:0:0:
352,281,89217,6,0,P|415:317|500:311,1,150,4|8,1:0|1:0,1:0:0:0:
283,349,89507,1,0,1:0:0:0:
215,277,89604,2,0,P|179:276|137:280,1,75,0|0,1:0|1:0,1:0:0:0:
325,173,89797,2,0,P|342:98|334:1,1,150,8|0,1:0|1:0,1:0:0:0:
441,72,90088,1,0,1:0:0:0:
252,127,90184,2,0,P|207:131|158:128,1,75,8|0,1:0|1:0,1:0:0:0:
416,251,90378,2,0,P|372:246|316:248,1,75,8|0,1:3|1:0,1:0:0:0:
267,37,90572,2,0,P|226:44|186:44,1,75,8|0,1:0|1:0,1:0:0:0:
503,156,90765,6,0,B|430:144|433:177|353:165,1,150,4|8,1:0|1:0,1:0:0:0:
199,289,91055,1,0,1:0:0:0:
293,333,91152,2,0,B|299:293|299:293|290:252,1,75,0|0,1:0|1:0,1:0:0:0:
115,202,91346,2,0,B|94:258|94:258|121:372,1,150,8|0,1:0|1:0,1:0:0:0:
212,199,91636,1,0,1:0:0:0:
150,86,91733,2,0,L|50:95,1,75,8|0,1:0|1:0,1:0:0:0:
259,22,91926,2,0,P|334:66|340:170,1,150,8|0,1:3|1:0,1:0:0:0:
486,199,92217,1,0,1:0:0:0:
356,355,92314,6,0,L|348:199,1,150,8|8,1:3|1:0,1:0:0:0:
468,287,92604,1,0,1:0:0:0:
268,322,92701,2,0,B|261:282|261:282|266:240,1,75,0|0,1:0|1:0,1:0:0:0:
81,109,92894,2,0,P|154:153|168:238,1,150,8|0,1:0|1:0,1:0:0:0:
119,336,93184,1,0,1:0:0:0:
5,257,93281,2,0,P|60:251|108:264,1,75,8|0,1:0|1:0,1:0:0:0:
386,165,93475,2,0,P|321:180|243:138,1,150,8|8,1:3|1:0,1:0:0:0:
188,80,93765,1,0,1:0:0:0:
260,33,93862,6,0,P|325:18|403:60,1,150,4|8,1:0|1:0,1:0:0:0:
497,168,94152,1,0,1:0:0:0:
379,287,94249,2,0,P|340:292|297:284,1,75,0|0,1:0|1:0,1:0:0:0:
452,247,94443,2,0,P|459:280|450:345,1,75,8|0,1:0|1:0,1:0:0:0:
227,331,94636,2,0,P|220:298|229:233,1,75,0|0,1:0|1:0,1:0:0:0:
373,55,94830,2,0,L|422:126,1,75,8|0,1:0|1:0,1:0:0:0:
266,133,95023,2,0,L|299:30,1,75,8|0,1:3|1:0,1:0:0:0:
387,193,95217,2,0,B|347:191|347:191|296:205,1,75,8|0,1:0|1:0,1:0:0:0:
20,218,95410,5,8,1:3:0:0:
91,195,95507,1,0,1:0:0:0:
166,191,95604,1,8,1:0:0:0:
234,219,95701,1,0,1:0:0:0:
325,281,95797,5,4,1:2:0:0:
367,296,95894,1,0,1:0:0:0:
412,297,95991,1,8,1:0:0:0:
453,278,96088,1,0,1:0:0:0:
503,198,96184,5,8,1:0:0:0:
499,191,96281,1,8,1:0:0:0:
496,183,96378,1,8,1:0:0:0:
492,175,96475,1,8,1:0:0:0:
491,93,96572,5,4,1:2:0:0:
415,90,96668,1,0,1:0:0:0:
366,147,96765,1,8,1:0:0:0:
391,217,96862,1,0,1:0:0:0:
494,347,96959,6,0,L|505:162,1,150,4|8,1:0|1:0,1:0:0:0:
289,334,97249,1,0,1:0:0:0:
372,357,97346,2,0,L|367:273,1,75,0|0,1:0|1:0,1:0:0:0:
180,160,97539,2,0,P|213:238|289:244,1,150,8|0,1:0|1:0,1:0:0:0:
376,147,97830,1,0,1:0:0:0:
266,90,97926,2,0,P|261:131|272:177,1,75,8|0,1:0|1:0,1:0:0:0:
481,35,98120,2,0,L|332:45,1,150,8|8,1:3|1:0,1:0:0:0:
471,116,98410,1,0,1:0:0:0:
490,261,98507,6,0,P|458:196|388:182,1,150,8|8,1:3|1:0,1:0:0:0:
307,292,98797,1,0,1:0:0:0:
405,340,98894,2,0,P|410:301|398:254,1,75,0|0,1:0|1:0,1:0:0:0:
219,239,99088,2,0,P|208:320|268:370,1,150,8|0,1:0|1:0,1:0:0:0:
303,206,99378,1,0,1:0:0:0:
307,129,99475,2,0,B|309:93|309:93|303:46,1,75,8|0,1:0|1:0,1:0:0:0:
59,102,99668,2,0,L|239:98,1,150,8|0,1:3|1:0,1:0:0:0:
121,187,99959,1,0,1:0:0:0:
184,277,100055,6,0,P|112:277|62:360,1,150,8|8,1:3|1:0,1:0:0:0:
225,370,100346,1,0,1:0:0:0:
269,278,100443,2,0,P|266:224|270:186,1,75,0|0,1:0|1:0,1:0:0:0:
306,10,100636,2,0,P|274:93|332:147,1,150,8|0,1:0|1:0,1:0:0:0:
406,225,100926,1,0,1:0:0:0:
507,98,101023,2,0,B|468:105|468:105|406:92,1,75,8|0,1:0|1:0,1:0:0:0:
472,333,101217,2,0,B|460:253|499:266|480:155,1,150,8|8,1:3|1:0,1:0:0:0:
129,154,101507,5,0,1:0:0:0:
110,228,101604,2,0,P|178:293|243:282,1,150,8|8,1:3|1:0,1:0:0:0:
301,166,101894,1,0,1:0:0:0:
216,124,101991,2,0,P|213:166|222:223,1,75,0|0,1:0|1:0,1:0:0:0:
393,352,102184,2,0,P|398:286|328:233,1,150,8|0,1:0|1:0,1:0:0:0:
188,356,102475,1,0,1:0:0:0:
303,381,102572,2,0,P|309:341|302:292,1,75,8|0,1:0|1:0,1:0:0:0:
54,161,102765,2,0,P|23:243|66:313,1,150,8|8,1:3|1:0,1:0:0:0:
174,230,103055,1,0,1:0:0:0:
272,91,103152,6,0,B|196:84|199:118|98:101,1,150,8|8,1:3|1:0,1:0:0:0:
303,189,103443,1,0,1:0:0:0:
352,98,103539,2,0,B|346:63|346:63|350:14,1,75,0|0,1:0|1:0,1:0:0:0:
399,155,103733,2,0,P|481:174|513:235,1,150,8|0,1:0|1:0,1:0:0:0:
351,264,104023,1,0,1:0:0:0:
351,264,104120,2,0,P|395:241|445:240,1,75,8|0,1:0|1:0,1:0:0:0:
288,324,104314,2,0,P|270:245|306:185,1,150,8|8,1:3|1:0,1:0:0:0:
76,136,104604,1,0,1:0:0:0:
141,39,104701,6,0,P|174:119|156:199,1,150,8|8,1:3|1:0,1:0:0:0:
58,296,104991,1,0,1:0:0:0:
1,232,105088,2,0,P|33:218|96:221,1,75,0|0,1:0|1:0,1:0:0:0:
110,362,105281,2,0,P|75:376|38:378,1,75,8|0,1:0|1:0,1:0:0:0:
188,262,105475,6,0,L|279:284,1,75,4|0,1:2|1:0,1:0:0:0:
341,370,105668,2,0,L|362:278,1,75,8|0,1:0|1:0,1:0:0:0:
440,220,105862,2,0,L|349:198,1,75,8|0,1:3|1:0,1:0:0:0:
290,123,106055,2,0,L|269:215,1,75,8|0,1:0|1:0,1:0:0:0:
499,317,106249,6,0,L|534:158,1,150,8|8,1:3|1:0,1:0:0:0:
498,59,106539,1,8,1:0:0:0:
429,34,106636,2,0,B|391:40|391:40|333:31,1,75,0|0,1:0|1:0,1:0:0:0:
197,163,106830,6,0,L|199:268,1,75,8|0,1:0|1:0,1:0:0:0:
394,333,107023,2,0,P|378:269|288:238,1,150,8|8,1:3|1:0,1:0:0:0:
177,317,107314,1,8,1:0:0:0:
267,373,107410,2,0,L|270:285,1,75,4|0,1:2|1:0,1:0:0:0:
13,204,107604,6,0,L|92:199,1,75,8|0,1:0|1:0,1:0:0:0:
193,22,107797,2,0,P|100:53|95:131,1,150,8|8,1:3|1:0,1:0:0:0:
190,206,108088,1,0,1:0:0:0:
294,116,108184,6,0,L|194:110,1,75,4|0,1:2|1:0,1:0:0:0:
288,289,108378,2,0,L|213:293,1,75,8|0,1:0|1:0,1:0:0:0:
356,210,108572,2,0,L|281:205,1,75,4|0,1:2|1:0,1:0:0:0:
439,219,108765,2,0,L|519:227,1,75,8|0,1:0|1:0,1:0:0:0:
496,151,108959,1,8,1:0:0:0:
475,149,109055,1,8,1:0:0:0:
454,146,109152,1,8,1:0:0:0:
433,142,109249,1,8,1:0:0:0:
407,138,109346,6,0,L|387:316,1,150,4|8,1:0|1:0,1:0:0:0:
238,344,109636,1,0,1:0:0:0:
316,347,109733,2,0,P|319:309|307:261,1,75,0|0,1:0|1:0,1:0:0:0:
81,176,109926,2,0,P|56:246|57:321,1,150,8|0,1:0|1:0,1:0:0:0:
204,262,110217,1,0,1:0:0:0:
199,185,110314,2,0,P|198:136|189:88,1,75,8|0,1:0|1:0,1:0:0:0:
356,22,110507,2,0,P|279:80|286:146,1,150,8|8,1:3|1:0,1:0:0:0:
345,224,110797,1,0,1:0:0:0:
503,122,110894,6,0,B|423:139|426:98|347:112,1,150,8|8,1:3|1:0,1:0:0:0:
264,221,111184,1,0,1:0:0:0:
422,275,111281,2,0,B|429:240|429:240|415:172,1,75,0|0,1:0|1:0,1:0:0:0:
316,287,111475,2,0,B|308:325|308:325|315:360,1,75,8|0,1:0|1:0,1:0:0:0:
507,196,111668,2,0,L|502:108,1,75,0|0,1:0|1:0,1:0:0:0:
432,11,111862,2,0,L|427:85,1,75,8|0,1:0|1:0,1:0:0:0:
267,117,112055,2,0,P|346:149|359:205,1,150,8|8,1:3|1:0,1:0:0:0:
211,280,112346,1,0,1:0:0:0:
129,143,112443,6,0,P|154:56|227:39,1,150,8|8,1:3|1:0,1:0:0:0:
272,13,112733,1,0,1:0:0:0:
287,194,112830,2,0,P|291:229|283:278,1,75,0|0,1:0|1:0,1:0:0:0:
492,320,113023,2,0,L|317:334,1,150,8|0,1:0|1:0,1:0:0:0:
132,317,113314,1,0,1:0:0:0:
191,364,113410,2,0,B|228:358|228:358|276:366,1,75,8|0,1:0|1:0,1:0:0:0:
190,238,113604,2,0,P|150:186|48:186,1,150,8|8,1:3|1:0,1:0:0:0:
15,228,113894,1,0,1:0:0:0:
239,156,113991,6,0,P|280:133|383:153,1,150,8|8,1:3|1:0,1:0:0:0:
432,268,114281,1,0,1:0:0:0:
311,285,114378,2,0,P|313:250|308:202,1,75,0|0,1:0|1:0,1:0:0:0:
474,50,114572,2,0,P|470:127|479:202,1,150,8|0,1:0|1:0,1:0:0:0:
375,331,114862,1,0,1:0:0:0:
505,372,114959,2,0,P|507:331|501:280,1,75,8|0,1:0|1:0,1:0:0:0:
385,206,115152,2,0,P|382:168|385:131,1,75,8|0,1:3|1:0,1:0:0:0:
264,57,115346,2,0,L|350:55,1,75,8|0,1:0|1:0,1:0:0:0:
160,18,115539,6,0,P|110:79|126:146,1,150,8|8,1:3|1:0,1:0:0:0:
42,274,115830,1,0,1:0:0:0:
197,341,115926,2,0,P|202:299|196:246,1,75,0|0,1:0|1:0,1:0:0:0:
265,210,116120,2,0,B|182:200|198:239|113:225,1,150,8|0,1:0|1:0,1:0:0:0:
189,84,116410,1,0,1:0:0:0:
264,57,116507,2,0,B|259:94|259:94|268:136,1,75,8|0,1:0|1:0,1:0:0:0:
430,190,116701,2,0,P|414:122|340:91,1,150,8|8,1:3|1:0,1:0:0:0:
349,169,116991,1,0,1:0:0:0:
348,284,117088,6,0,B|421:267|421:267|519:284,1,150,8|8,1:3|1:0,1:0:0:0:
293,234,117378,1,0,1:0:0:0:
224,269,117475,2,0,P|225:307|222:347,1,75,0|0,1:0|1:0,1:0:0:0:
0,308,117668,2,0,L|162:295,1,150,8|0,1:0|1:0,1:0:0:0:
223,182,117959,1,0,1:0:0:0:
128,129,118055,2,0,B|136:170|136:170|128:228,1,75,8|0,1:0|1:0,1:0:0:0:
386,171,118249,2,0,P|336:173|277:95,1,150,8|0,1:3|1:0,1:0:0:0:
288,30,118539,1,0,1:0:0:0:
384,262,118636,6,0,P|459:240|496:161,1,150,4|8,1:2|1:0,1:0:0:0:
260,229,118926,1,0,1:0:0:0:
195,261,119023,2,0,P|193:301|203:348,1,75,0|0,1:0|1:0,1:0:0:0:
375,362,119217,2,0,L|269:352,1,75,8|0,1:0|1:0,1:0:0:0:
21,304,119410,2,0,L|112:293,1,75,4|0,1:2|1:0,1:0:0:0:
365,159,119604,2,0,L|274:148,1,75,8|0,1:0|1:0,1:0:0:0:
202,62,119797,1,8,1:0:0:0:
158,124,119894,1,8,1:0:0:0:
175,197,119991,1,8,1:0:0:0:
242,230,120088,1,0,1:0:0:0:
317,246,120184,5,4,1:2:0:0:
331,272,120281,1,0,1:0:0:0:
330,302,120378,1,8,1:0:0:0:
317,329,120475,1,8,1:0:0:0:
241,369,120572,5,4,1:2:0:0:
176,330,120668,1,0,1:0:0:0:
177,254,120765,1,8,1:0:0:0:
229,200,120862,1,8,1:0:0:0:
284,134,120959,5,4,1:2:0:0:
297,107,121055,1,0,1:0:0:0:
295,76,121152,1,8,1:0:0:0:
281,49,121249,1,8,1:0:0:0:
199,21,121346,5,4,1:2:0:0:
131,52,121443,1,8,1:0:0:0:
130,127,121539,1,8,1:0:0:0:
187,175,121636,1,8,1:0:0:0:
281,218,121733,6,0,B|381:198|355:246|463:226,1,180,8|0,1:3|2:0,2:0:0:0:
458,226,123281,2,0,P|457:262|459:294,1,60,0|0,2:0|2:0,2:0:0:0:
391,335,124055,2,0,P|357:335|326:338,1,60,0|0,2:0|2:0,2:0:0:0:
261,300,124636,1,8,2:1:0:0:
261,300,124733,1,0,2:0:0:0:
261,300,124830,1,4,2:3:0:0:
86,170,136733,6,0,P|115:163|148:166,1,60,0|0,2:0|2:0,2:0:0:0:
86,170,137217,6,0,P|148:166|206:253,1,150,6|8,1:0|1:0,1:0:0:0:
351,311,137507,1,0,1:0:0:0:
273,364,137604,2,0,P|265:310|276:273,1,75,0|0,1:0|1:0,1:0:0:0:
431,288,137797,2,0,P|435:325|426:361,1,75,8|0,1:0|1:0,1:0:0:0:
344,232,137991,2,0,B|326:157|366:166|337:54,1,150,2|8,1:0|1:0,1:0:0:0:
422,30,138281,1,2,1:0:0:0:
276,32,138378,2,0,B|234:40|234:40|178:26,1,75,0|0,1:0|1:0,1:0:0:0:
176,113,138571,6,0,P|82:134|59:321,1,300,14|10,1:0|1:0,1:0:0:0:
187,366,139055,1,8,1:0:0:0:
258,239,139152,2,0,P|254:200|258:155,1,75,0|0,1:0|1:0,1:0:0:0:
186,265,139346,1,10,1:0:0:0:
214,299,139442,1,0,1:0:0:0:
255,315,139539,1,2,1:0:0:0:
300,304,139636,1,0,1:0:0:0:
335,281,139733,1,10,1:0:0:0:
379,281,139829,1,0,1:0:0:0:
419,301,139926,2,0,P|421:340|416:386,1,75,0|2,1:0|1:0,1:0:0:0:
438,213,140120,6,0,P|472:212|534:179,1,75,8|0,1:0|1:0,1:0:0:0:
273,110,140313,2,0,P|301:196|370:210,1,150,2|8,1:0|1:0,1:0:0:0:
394,129,140604,1,0,1:0:0:0:
453,87,140700,2,0,B|456:47|456:47|450:2,1,75,2|0,1:0|1:0,1:0:0:0:
303,22,140894,2,0,P|224:48|234:239,1,300,10|10,1:0|1:0,1:0:0:0:
288,346,141378,1,0,1:0:0:0:
367,344,141475,2,0,P|370:306|363:258,1,75,0|0,1:0|1:0,1:0:0:0:
325,112,141668,2,0,P|322:150|329:198,1,75,10|0,1:0|1:0,1:0:0:0:
492,138,141862,2,0,L|383:142,1,75,0|0,1:0|1:0,1:0:0:0:
234,91,142055,5,10,1:0:0:0:
239,112,142152,1,0,1:0:0:0:
238,134,142249,1,2,1:0:0:0:
235,156,142346,1,0,1:0:0:0:
176,206,142442,1,10,1:0:0:0:
168,242,142539,1,0,1:0:0:0:
167,279,142636,1,2,1:0:0:0:
176,315,142733,1,0,1:0:0:0:
262,359,142829,5,10,1:0:0:0:
311,342,142926,1,0,1:0:0:0:
361,327,143023,1,2,1:0:0:0:
393,260,143120,1,0,1:0:0:0:
377,209,143217,1,10,1:0:0:0:
362,158,143313,1,0,1:0:0:0:
218,117,143410,6,0,L|136:139,1,75,6|0,1:0|1:0,1:0:0:0:
100,73,143604,1,10,1:0:0:0:
70,116,143700,1,0,1:0:0:0:
72,168,143797,1,4,1:2:0:0:
107,207,143894,1,0,1:0:0:0:
270,177,143991,5,10,1:0:0:0:
296,132,144087,1,8,1:0:0:0:
288,80,144184,1,0,1:0:0:0:
251,44,144281,1,8,1:0:0:0:
193,202,144378,5,10,1:0:0:0:
210,235,144475,1,0,1:0:0:0:
200,271,144571,1,4,1:2:0:0:
214,305,144668,1,0,1:0:0:0:
214,305,144765,2,0,P|252:300|312:295,1,75,8|2,1:0|1:0,1:0:0:0:
364,282,144958,5,0,1:0:0:0:
371,295,145055,1,0,1:0:0:0:
374,309,145152,1,10,1:0:0:0:
371,323,145249,1,0,1:0:0:0:
437,364,145346,5,4,1:2:0:0:
449,355,145442,1,0,1:0:0:0:
462,350,145539,1,8,1:0:0:0:
476,352,145636,1,8,1:0:0:0:
492,280,145733,5,2,1:0:0:0:
479,270,145829,1,0,1:0:0:0:
471,259,145926,1,10,1:0:0:0:
468,245,146023,1,0,1:0:0:0:
421,171,146120,6,0,B|391:193|391:193|337:200,1,75,4|0,1:2|1:0,1:0:0:0:
396,29,146313,2,0,B|430:49|430:49|451:96,1,75,10|0,1:0|1:0,1:0:0:0:
304,96,146507,6,0,B|253:89|253:89|218:61|218:61|164:56,1,150,6|8,1:0|1:0,1:0:0:0:
61,135,146797,1,8,1:0:0:0:
105,138,146894,1,0,1:0:0:0:
145,157,146991,1,8,1:0:0:0:
177,187,147087,2,0,P|181:221|178:271,1,75,8|0,1:0|1:0,1:0:0:0:
276,255,147281,5,2,1:0:0:0:
272,277,147378,1,0,1:0:0:0:
279,298,147475,1,10,1:0:0:0:
277,320,147571,1,0,1:0:0:0:
277,320,147668,2,0,L|365:328,1,75,2|0,1:0|1:0,1:0:0:0:
512,319,147862,2,0,L|424:327,1,75,10|0,1:0|1:0,1:0:0:0:
356,223,148055,6,0,B|392:218|392:218|435:225,1,75,4|8,1:2|1:0,1:0:0:0:
391,143,148249,1,8,1:0:0:0:
385,129,148346,1,8,1:0:0:0:
393,117,148442,1,8,1:0:0:0:
387,103,148539,1,8,1:0:0:0:
393,89,148636,1,8,1:0:0:0:
388,74,148733,1,8,1:0:0:0:
307,22,148829,6,0,P|271:18|228:24,1,75,4|8,1:2|1:0,1:0:0:0:
161,52,149023,1,8,1:0:0:0:
119,121,149120,1,8,1:0:0:0:
149,193,149217,1,4,1:3:0:0:
226,216,149313,1,4,1:3:0:0:
248,244,149410,1,4,1:3:0:0:
245,280,149507,1,4,1:3:0:0:
188,339,149604,6,0,B|39:351,1,150,6|8,1:0|1:0,1:0:0:0:
31,119,149894,2,0,L|53:272,1,150,2|0,1:0|1:0,1:0:0:0:
193,110,150184,2,0,L|89:124,1,75,10|0,1:0|1:0,1:0:0:0:
281,316,150378,2,2,L|255:141,1,150,2|8,1:0|1:0,1:0:0:0:
338,134,150668,1,0,1:0:0:0:
428,206,150765,2,0,B|390:202|390:202|324:217,1,75,2|0,1:0|1:0,1:0:0:0:
348,53,150958,2,0,B|386:57|386:57|438:49,1,75,8|0,1:0|1:0,1:0:0:0:
496,168,151152,6,0,P|496:256|430:283,1,150,6|8,1:0|1:0,1:0:0:0:
250,225,151442,2,0,P|250:313|316:340,1,150,2|0,1:0|1:0,1:0:0:0:
361,200,151733,2,0,L|356:100,1,75,10|0,1:0|1:0,1:0:0:0:
263,30,151926,2,0,P|268:111|190:152,1,150,2|10,1:0|1:0,1:0:0:0:
40,60,152217,2,0,B|109:48|108:86|189:70,1,150,8|8,1:0|1:0,1:0:0:0:
126,151,152507,2,0,B|120:189|120:189|132:242,1,75,8|0,1:0|1:0,1:0:0:0:
180,305,152700,6,0,B|111:293|112:331|30:315,1,150,6|8,1:0|1:0,1:0:0:0:
215,227,152991,2,0,P|207:304|227:400,1,150,2|0,1:0|1:0,1:0:0:0:
360,350,153281,2,0,L|270:345,1,75,10|0,1:0|1:0,1:0:0:0:
363,245,153475,2,0,L|257:257,1,75,2|0,1:0|1:0,1:0:0:0:
420,368,153668,2,0,L|323:330,1,75,10|0,1:0|1:0,1:0:0:0:
422,227,153862,2,0,L|352:254,1,75,2|0,1:0|1:0,1:0:0:0:
512,298,154055,2,0,L|428:298,1,75,10|0,1:0|1:0,1:0:0:0:
351,45,154249,6,2,P|480:65|498:212,1,300,6|0,1:0|1:0,1:0:0:0:
245,326,154733,1,0,1:0:0:0:
227,252,154829,2,0,P|223:211|226:170,1,75,10|2,1:0|1:0,1:0:0:0:
149,117,155023,2,0,P|240:97|328:258,1,300,6|10,1:0|1:0,1:0:0:0:
164,349,155507,1,8,1:0:0:0:
95,309,155604,2,0,L|12:318,1,75,8|0,1:0|1:0,1:0:0:0:
58,230,155797,6,0,P|132:224|198:287,1,150,6|8,1:0|1:0,1:0:0:0:
387,297,156087,2,0,P|313:291|247:354,1,150,2|0,1:0|1:0,1:0:0:0:
366,215,156378,2,0,B|365:117,1,75,10|0,1:0|1:0,1:0:0:0:
444,41,156571,2,0,L|469:190,1,150,2|8,1:0|1:0,1:0:0:0:
290,46,156862,2,0,L|268:197,1,150,2|0,1:0|1:0,1:0:0:0:
108,92,157152,6,0,P|147:88|198:99,1,75,10|0,1:0|1:0,1:0:0:0:
93,162,157346,2,0,P|22:206|18:282,1,150,2|8,1:0|1:0,1:0:0:0:
246,282,157636,2,0,P|241:221|166:164,1,150,2|0,1:0|1:0,1:0:0:0:
94,253,157926,2,0,B|131:246|131:246|175:256,1,75,10|0,1:0|1:0,1:0:0:0:
414,213,158120,6,0,L|333:210,1,75,2|0,1:0|1:0,1:0:0:0:
129,352,158313,2,0,L|210:349,1,75,10|0,1:0|1:0,1:0:0:0:
101,162,158507,6,0,L|182:159,1,75,2|0,1:0|1:0,1:0:0:0:
385,297,158700,2,0,L|304:294,1,75,10|0,1:0|1:0,1:0:0:0:
272,19,158894,6,0,B|293:104|253:89|272:184,1,150,6|8,1:0|1:0,1:0:0:0:
340,134,159184,2,0,P|356:196|440:227,1,150,2|0,1:0|1:0,1:0:0:0:
195,165,159475,2,0,P|194:238|-5:274,1,300,10|8,1:0|1:0,1:0:0:0:
87,192,159958,1,8,1:0:0:0:
87,192,160055,2,0,P|89:155|85:106,1,75,0|8,1:0|1:0,1:0:0:0:
279,266,160249,2,0,P|276:303|278:340,1,75,10|0,1:0|1:0,1:0:0:0:
486,220,160442,6,0,P|450:191|342:197,1,150,6|8,1:0|1:0,1:0:0:0:
61,316,160733,2,0,P|97:287|205:293,1,150,2|0,1:0|1:0,1:0:0:0:
215,55,161023,2,0,B|189:233|331:163|275:377,1,300,10|10,1:0|1:0,1:0:0:0:
128,195,161507,1,0,1:0:0:0:
128,195,161604,2,0,B|119:157|119:157|127:107,1,75,8|0,1:0|1:0,1:0:0:0:
332,105,161797,2,0,B|340:142|340:142|335:181,1,75,10|0,1:0|1:0,1:0:0:0:
162,281,161991,6,0,P|95:277|27:347,1,150,6|8,1:0|1:0,1:0:0:0:
354,252,162281,2,0,P|421:248|489:318,1,150,2|0,1:0|1:0,1:0:0:0:
364,145,162571,2,0,P|265:217|346:361,1,300,10|10,1:0|1:0,1:0:0:0:
460,177,163055,1,0,1:0:0:0:
450,100,163152,1,8,1:0:0:0:
392,52,163249,1,8,1:0:0:0:
315,55,163346,1,8,1:0:0:0:
259,104,163442,1,8,1:0:0:0:
409,255,163539,6,0,L|496:257,1,75,4|0,1:2|1:0,1:0:0:0:
287,350,163733,1,8,1:0:0:0:
287,350,163829,2,0,L|145:346,1,75,4|0,1:2|1:0,1:0:0:0:
45,245,164023,1,8,1:0:0:0:
45,245,164120,2,0,L|187:249,1,75,4|0,1:2|1:0,1:0:0:0:
330,196,164313,5,8,1:0:0:0:
312,122,164410,5,8,1:0:0:0:
240,103,164507,5,10,1:0:0:0:
183,154,164604,5,10,1:0:0:0:
199,228,164700,5,0,1:0:0:0:
223,256,164797,5,0,1:0:0:0:
252,264,164894,5,2,1:0:0:0:
278,262,164991,5,0,1:0:0:0:
358,304,165087,6,0,L|441:306,1,75,4|0,1:0|2:0,2:0:0:0:
492,256,165474,1,8,1:0:0:0:
492,256,165667,1,0,2:0:0:0:
475,180,165861,2,0,P|472:139|476:96,1,75,0|0,1:0|2:0,2:0:0:0:
417,53,166248,1,8,1:0:0:0:
417,53,166441,1,0,2:0:0:0:
304,37,166635,6,0,P|314:100|311:172,1,112.5,0|0,1:0|1:0,2:0:0:0:
313,148,167022,2,0,L|231:153,1,75,8|0,1:0|1:0,2:0:0:0:
107,69,167409,1,0,1:0:0:0:
18,187,167603,1,0,1:0:0:0:
121,285,167796,2,0,P|127:248|116:160,1,112.5,8|0,1:0|2:0,2:0:0:0:
120,173,168183,6,0,L|221:168,1,75,6|0,1:0|2:0,2:0:0:0:
237,236,168570,1,8,1:0:0:0:
370,213,168764,2,0,L|444:216,1,75,2|0,1:0|1:0,2:0:0:0:
483,283,169151,1,0,1:0:0:0:
306,364,169345,1,10,1:0:0:0:
306,364,169538,1,0,2:0:0:0:
294,177,169732,6,0,P|292:115|287:44,1,112.5,0|0,1:0|1:0,2:0:0:0:
303,31,170119,1,8,1:0:0:0:
317,245,170312,1,2,1:0:0:0:
372,188,170506,1,0,1:0:0:0:
335,331,170699,1,0,1:0:0:0:
236,225,170893,1,10,1:0:0:0:
471,284,171087,1,0,1:0:0:0:
184,298,171280,6,0,P|184:220|179:168,1,112.5,4|0,1:0|2:0,2:0:0:0:
181,185,171667,2,0,L|92:195,1,75,8|2,1:0|1:0,2:0:0:0:
32,200,172054,1,0,1:0:0:0:
32,200,172248,1,0,1:0:0:0:
256,177,172441,2,0,P|254:104|247:37,1,112.5,10|0,1:0|2:0,2:0:0:0:
250,64,172828,6,0,L|334:56,1,75,4|0,1:0|2:0,2:0:0:0:
386,104,173216,1,8,1:0:0:0:
498,204,173409,2,0,L|414:195,1,75,2|0,1:0|1:0,2:0:0:0:
361,236,173796,1,0,1:0:0:0:
160,319,173990,2,0,L|287:305,1,112.5,10|0,1:0|2:0,2:0:0:0:
271,306,174377,6,0,P|270:266|268:214,1,75,4|0,1:0|2:0,2:0:0:0:
306,168,174764,1,8,1:0:0:0:
157,49,174957,2,0,P|121:123|171:200,1,150,2|2,1:0|1:0,2:0:0:0:
316,78,175538,2,0,L|238:75,1,75,8|8,1:0|1:0,2:0:0:0:
500,150,175925,6,0,L|333:164,1,150,6|8,1:0|1:0,2:0:0:0:
216,237,176506,1,2,1:0:0:0:
346,342,176699,1,8,1:0:0:0:
346,342,176796,1,0,1:0:0:0:
346,342,176893,1,10,1:0:0:0:
461,255,177087,1,4,1:2:0:0:
245,151,177280,5,8,1:0:0:0:
242,128,177377,1,0,1:0:0:0:
240,105,177474,2,0,P|240:47|243:18,1,75,4|2,1:0|2:0,2:0:0:0:
164,162,177861,1,8,1:0:0:0:
164,162,178054,2,0,P|161:100|145:17,1,112.5,2|0,1:0|2:0,2:0:0:0:
143,28,178441,1,2,2:0:0:0:
57,141,178635,1,10,1:0:0:0:
109,20,178828,1,10,1:0:0:0:
225,245,179022,6,0,B|145:231|163:275|76:259,1,150,8|8,1:3|1:0,2:0:0:0:
287,281,179603,2,0,B|281:318|281:318|292:358,1,75,8|0,1:3|1:0,2:0:0:0:
290,354,179893,1,2,1:0:0:0:
290,354,179990,1,0,2:0:0:0:
485,297,180183,2,0,L|361:312,1,112.5,10|0,1:0|2:0,2:0:0:0:
373,310,180570,6,0,B|379:273|379:273|368:233,1,75,4|2,1:0|2:0,2:0:0:0:
408,173,180957,1,8,1:0:0:0:
320,87,181151,2,0,B|285:73|285:73|228:69,1,75,2|0,1:0|1:0,2:0:0:0:
181,39,181538,1,0,1:0:0:0:
50,104,181732,2,0,B|21:131|21:131|6:175,1,75,10|2,1:0|1:0,2:0:0:0:
216,156,182119,6,0,L|155:101,1,75,8|0,1:3|2:0,2:0:0:0:
78,265,182506,2,0,L|162:286,1,75,8|8,1:0|2:3,2:0:0:0:
106,177,182893,1,0,1:0:0:0:
106,177,182990,1,2,1:0:0:0:
106,177,183086,1,0,1:0:0:0:
60,358,183280,1,10,1:0:0:0:
248,316,183474,1,4,2:0:0:0:
196,95,183667,6,0,P|189:150|193:206,1,112.5,4|0,1:0|2:0,2:0:0:0:
219,229,184054,1,8,1:0:0:0:
425,151,184248,2,0,L|322:156,1,75,2|0,1:0|1:0,2:0:0:0:
276,156,184635,1,0,1:0:0:0:
371,352,184828,2,0,P|377:296|373:240,1,112.5,10|0,1:0|2:0,2:0:0:0:
373,240,185216,6,0,L|449:235,1,75,8|2,1:3|2:0,2:0:0:0:
492,299,185603,1,8,1:0:0:0:
294,341,185796,2,0,L|209:337,1,75,8|0,1:3|1:0,2:0:0:0:
219,337,186086,1,2,1:0:0:0:
219,337,186183,1,0,1:0:0:0:
93,365,186377,2,0,P|89:304|98:238,1,112.5,10|0,1:0|2:0,2:0:0:0:
94,253,186764,6,0,L|185:243,1,75,8|2,1:3|2:0,2:0:0:0:
91,162,187151,1,8,1:0:0:0:
147,87,187345,2,0,L|200:163,1,75,8|0,1:3|1:0,2:0:0:0:
189,148,187635,1,0,1:0:0:0:
189,148,187732,1,0,1:0:0:0:
21,231,187925,1,8,1:0:0:0:
41,51,188119,1,8,1:0:0:0:
257,228,188312,5,8,1:3:0:0:
191,269,188699,1,2,2:0:0:0:
127,310,189086,1,2,2:0:0:0:
127,310,189861,6,0,L|311:318,1,180,4|8,1:0|1:0,2:0:0:0:
370,361,190441,1,8,1:0:0:0:
489,275,190635,2,0,P|489:231|492:184,1,89.9999999999998,4|0,1:0|2:0,2:0:0:0:
287,79,191022,1,8,1:0:0:0:
405,213,191216,1,8,1:0:0:0:
372,12,191409,6,0,P|376:58|374:109,1,89.9999999999998,8|0,1:3|2:0,2:0:0:0:
294,235,191796,1,8,1:0:0:0:
493,228,191990,1,8,1:3:0:0:
405,183,192183,2,0,P|401:233|406:285,1,89.9999999999998,0|0,1:0|2:0,2:0:0:0:
368,344,192570,1,8,1:0:0:0:
368,344,192764,1,8,1:0:0:0:
146,322,192957,6,0,L|247:317,1,89.9999999999998,4|0,1:2|2:0,2:0:0:0:
130,162,193345,2,0,L|109:262,1,89.9999999999998,8|8,1:0|1:0,2:0:0:0:
262,234,193732,2,0,L|222:133,1,89.9999999999998,2|0,1:0|2:0,2:0:0:0:
63,304,194119,1,10,1:0:0:0:
312,289,194312,1,8,1:0:0:0:
167,69,194506,6,2,P|106:71|125:248,1,269.999999999999,6|8,1:0|1:0,1:0:0:0:
247,108,195280,2,0,P|243:48|244:12,1,89.9999999999998,2|0,1:0|1:0,2:0:0:0:
190,169,195667,1,8,1:0:0:0:
197,204,195764,1,0,1:0:0:0:
201,239,195861,1,8,1:0:0:0:
200,274,195957,1,0,1:0:0:0:
153,307,196054,6,0,B|290:274|254:363|409:329,1,255.000000000001,6|4,1:0|1:2,1:0:0:0:
462,368,196635,1,4,1:2:0:0:
468,47,196828,2,0,P|368:69|348:225,1,255.000000000001,6|4,1:0|1:2,2:0:0:0:
390,255,197409,1,4,1:2:0:0:
479,207,197603,6,0,P|434:172|385:164,1,89.9999999999998,6|0,1:0|2:0,2:0:0:0:
225,110,197990,1,8,1:0:0:0:
308,266,198183,1,8,1:0:0:0:
326,76,198377,1,4,1:2:0:0:
203,231,198570,5,10,1:0:0:0:
423,111,198764,1,10,1:0:0:0:
231,217,198957,1,8,1:3:0:0:
339,346,199151,6,0,P|334:293|337:240,1,89.9999999999998,6|0,1:0|2:0,2:0:0:0:
386,206,199538,1,10,1:0:0:0:
266,23,199732,2,0,P|271:76|265:207,1,180,10|10,1:0|1:0,2:0:0:0:
217,260,200312,1,10,1:0:0:0:
217,260,200506,1,8,1:3:0:0:
22,174,200699,6,0,L|26:73,1,89.9999999999998,6|0,1:0|2:0,2:0:0:0:
0,17,201086,1,10,1:0:0:0:
192,70,201280,1,8,1:0:0:0:
192,70,201377,1,0,1:0:0:0:
192,70,201474,2,0,P|141:79|96:70,1,89.9999999999998,10|0,1:0|2:0,2:0:0:0:
285,168,201861,2,0,P|360:180|428:153,1,135,4|0,1:2|2:0,2:0:0:0:
466,112,202248,5,8,1:3:0:0:
43,206,205345,6,0,P|130:227|212:173,1,180,6|8,1:0|1:0,1:0:0:0:
328,77,205635,1,0,1:0:0:0:
254,27,205732,2,0,P|247:77|255:130,1,90,0|0,1:0|1:0,1:0:0:0:
493,201,205925,2,0,P|416:157|331:178,1,180,10|0,1:0|1:0,1:0:0:0:
264,288,206215,1,0,1:0:0:0:
405,326,206312,2,0,P|409:278|398:219,1,90,8|0,1:0|1:0,1:0:0:0:
159,308,206506,2,0,B|253:319|242:274|348:280,1,180,2|8,1:0|1:0,1:0:0:0:
322,354,206796,1,0,1:0:0:0:
141,216,206893,6,0,P|72:262|82:361,1,180,6|8,1:0|1:0,1:0:0:0:
232,204,207183,1,0,1:0:0:0:
276,138,207280,2,0,B|281:94|281:94|272:43,1,90,0|0,1:0|1:0,1:0:0:0:
79,10,207474,2,0,P|74:96|144:145,1,180,10|0,1:0|1:0,1:0:0:0:
354,212,207764,1,0,1:0:0:0:
294,336,207861,2,0,P|287:300|294:233,1,90,8|0,1:0|1:0,1:0:0:0:
468,149,208054,2,0,P|490:253|410:286,1,180,2|8,1:0|1:0,1:0:0:0:
245,82,208345,1,0,1:0:0:0:
314,46,208441,6,0,B|407:34|383:92|503:71,1,180,6|8,1:0|1:0,1:0:0:0:
339,129,208732,1,0,1:0:0:0:
266,162,208828,2,0,P|262:214|275:267,1,90,0|0,1:0|1:0,1:0:0:0:
177,255,209022,2,0,P|267:278|285:369,1,180,10|0,1:0|1:0,1:0:0:0:
120,318,209312,1,0,1:0:0:0:
90,248,209409,2,0,B|83:202|83:202|90:151,1,90,8|0,1:0|1:0,1:0:0:0:
18,29,209603,2,0,L|222:41,1,180,2|8,1:0|1:0,1:0:0:0:
337,27,209893,1,0,1:0:0:0:
465,148,209990,6,0,P|405:225|307:215,1,180,2|8,1:0|1:0,1:0:0:0:
200,121,210280,1,0,1:0:0:0:
268,56,210377,2,0,P|286:104|284:159,1,90,0|0,1:0|1:0,1:0:0:0:
99,177,210570,2,0,P|96:84|179:35,1,180,10|0,1:0|1:0,1:0:0:0:
203,231,210861,1,0,1:0:0:0:
152,292,210957,2,0,B|109:286|109:286|46:295,1,90,8|0,1:0|1:0,1:0:0:0:
212,344,211151,2,0,L|407:328,1,180,8|8,1:3|1:0,1:0:0:0:
466,306,211441,1,0,1:0:0:0:
496,173,211538,6,0,P|405:242|336:224,1,180,8|8,1:3|1:0,1:0:0:0:
315,76,211828,1,0,1:0:0:0:
390,56,211925,2,0,P|386:104|397:171,1,90,0|0,1:0|1:0,1:0:0:0:
251,160,212119,2,0,P|256:258|176:298,1,180,8|0,1:0|1:0,1:0:0:0:
71,185,212409,1,0,1:0:0:0:
169,121,212506,2,0,B|179:166|179:166|174:215,1,90,8|0,1:0|1:0,1:0:0:0:
69,267,212699,2,0,B|52:183|100:174|73:82,1,180,8|8,1:3|1:0,1:0:0:0:
21,41,212990,1,0,1:0:0:0:
203,30,213086,6,0,P|258:98|348:99,1,180,8|8,1:3|1:0,1:0:0:0:
486,162,213377,1,0,1:0:0:0:
486,162,213474,2,0,P|488:119|476:55,1,90,0|0,1:0|1:0,1:0:0:0:
346,186,213667,2,0,P|265:195|232:304,1,180,8|0,1:0|1:0,1:0:0:0:
180,338,213957,1,0,1:0:0:0:
159,174,214054,2,0,B|163:131|163:131|153:80,1,90,8|0,1:0|1:0,1:0:0:0:
320,96,214248,2,0,B|403:83|394:126|510:101,1,180,8|8,1:3|1:0,1:0:0:0:
438,17,214538,1,0,1:0:0:0:
258,27,214635,6,0,P|230:111|261:194,1,180,4|8,1:0|1:0,1:0:0:0:
448,259,214925,1,0,1:0:0:0:
509,186,215022,2,0,P|454:177|394:192,1,90,0|0,1:0|1:0,1:0:0:0:
290,366,215215,2,0,P|298:265|363:205,1,180,8|0,1:0|1:0,1:0:0:0:
465,338,215506,1,0,1:0:0:0:
382,382,215603,2,0,P|377:342|382:282,1,90,8|0,1:0|1:0,1:0:0:0:
294,137,215796,2,0,P|297:91|292:48,1,90,8|0,1:3|1:0,1:0:0:0:
111,77,215990,2,0,L|211:86,1,90,10|0,1:0|1:0,1:0:0:0:
117,175,216183,6,0,L|23:177,1,90,4|0,1:2|1:0,1:0:0:0:
162,362,216377,2,0,L|206:264,1,90,8|0,1:0|1:0,1:0:0:0:
3,292,216570,2,0,B|38:317|38:317|70:382,1,90,4|0,1:2|1:0,1:0:0:0:
195,184,216764,6,0,L|273:115,1,90,8|0,1:0|1:0,1:0:0:0:
304,268,216957,6,0,L|332:170,1,90,4|0,1:2|1:0,1:0:0:0:
136,51,217151,6,0,L|237:47,1,90,8|0,1:0|1:0,1:0:0:0:
161,217,217345,6,0,L|300:90,1,180,4|8,1:2|1:0,1:0:0:0:
344,40,217635,1,8,1:0:0:0:
502,75,217732,6,0,P|413:84|381:173,1,180,6|8,1:0|1:0,1:0:0:0:
296,251,218022,1,0,1:0:0:0:
376,337,218119,2,0,P|379:293|371:235,1,90,0|0,1:0|1:0,1:0:0:0:
120,309,218312,2,0,B|216:291|191:344|300:324,1,180,10|0,1:0|1:0,1:0:0:0:
465,243,218603,1,0,1:0:0:0:
297,162,218699,2,0,B|289:209|289:209|298:263,1,90,8|0,1:0|1:0,1:0:0:0:
132,140,218893,2,0,L|243:134,1,90,2|0,1:0|1:0,1:0:0:0:
420,86,219086,2,0,L|312:76,1,90,10|0,1:0|1:0,1:0:0:0:
98,44,219280,6,0,B|119:148|72:138|95:233,1,180,6|8,1:0|1:0,1:0:0:0:
191,342,219570,1,0,1:0:0:0:
276,257,219667,2,0,P|219:261|170:255,1,90,0|0,1:0|1:0,1:0:0:0:
303,340,219861,2,0,P|366:338|420:236,1,180,10|0,1:0|1:0,1:0:0:0:
494,146,220151,1,0,1:0:0:0:
382,60,220248,2,0,L|282:72,1,90,8|0,1:0|1:0,1:0:0:0:
201,188,220441,2,0,L|18:171,1,180,2|8,1:0|1:0,1:0:0:0:
103,94,220732,1,0,1:0:0:0:
288,151,220828,6,0,P|290:248|217:289,1,180,6|8,1:0|1:0,1:0:0:0:
134,372,221119,1,0,1:0:0:0:
14,334,221215,2,0,P|9:288|14:235,1,90,0|0,1:0|1:0,1:0:0:0:
22,118,221409,2,0,P|44:232|100:261,1,180,10|0,1:0|1:0,1:0:0:0:
201,189,221699,1,0,1:0:0:0:
218,116,221796,2,0,P|221:70|216:25,1,90,0|0,1:0|1:0,1:0:0:0:
486,67,221990,2,0,B|416:63|416:63|381:86|381:86|296:81,1,180,2|8,1:0|1:0,1:0:0:0:
281,179,222280,1,0,1:0:0:0:
374,248,222377,6,0,B|287:219|287:219|197:272,1,180,6|8,1:0|1:0,1:0:0:0:
180,361,222667,1,0,1:0:0:0:
298,386,222764,2,0,P|305:338|292:281,1,90,8|0,1:3|1:0,1:0:0:0:
91,129,222957,2,0,P|70:219|110:335,1,180,10|0,1:0|1:0,1:0:0:0:
287,140,223248,1,0,1:0:0:0:
245,79,223344,2,0,B|201:88|201:88|139:75,1,90,8|0,1:0|1:0,1:0:0:0:
362,166,223538,2,0,B|406:175|406:175|468:162,1,90,8|0,1:3|1:0,1:0:0:0:
292,229,223732,2,0,L|286:132,1,90,8|0,1:0|1:0,1:0:0:0:
202,253,223925,6,0,P|319:274|343:337,1,180,8|8,1:3|1:0,1:0:0:0:
222,368,224215,1,0,1:0:0:0:
112,310,224312,2,0,B|106:261|106:261|115:213,1,90,0|0,1:0|1:0,1:0:0:0:
12,159,224506,2,0,B|108:141|83:194|187:174,1,180,8|0,1:0|1:0,1:0:0:0:
340,85,224796,1,0,1:0:0:0:
260,47,224893,2,0,B|251:93|251:93|266:156,1,90,8|0,1:0|1:0,1:0:0:0:
431,181,225086,2,0,L|417:0,1,180,8|8,1:3|1:0,1:0:0:0:
351,172,225377,1,0,1:0:0:0:
248,226,225474,6,0,P|304:240|325:362,1,180,8|8,1:3|1:0,1:0:0:0:
172,243,225764,1,0,1:0:0:0:
176,168,225861,2,0,P|214:153|283:150,1,90,0|0,1:0|1:0,1:0:0:0:
233,339,226054,2,0,P|148:345|78:267,1,180,8|0,1:0|1:0,1:0:0:0:
8,188,226344,1,0,1:0:0:0:
96,108,226441,2,0,P|102:157|99:212,1,90,8|0,1:0|1:0,1:0:0:0:
5,85,226635,2,0,P|67:23|154:29,1,180,8|8,1:3|1:0,1:0:0:0:
258,28,226925,1,0,1:0:0:0:
311,115,227022,6,0,B|286:221|346:200|308:332,1,180,8|8,1:3|1:0,1:0:0:0:
218,293,227312,1,0,1:0:0:0:
218,293,227409,2,0,B|211:246|211:246|219:202,1,90,8|0,1:3|1:0,1:0:0:0:
419,202,227603,2,0,B|428:246|428:246|418:293,1,90,8|0,1:0|1:0,1:0:0:0:
146,156,227796,6,0,L|140:43,1,90,0|0,1:0|1:0,1:0:0:0:
246,104,227990,2,0,L|245:-11,1,90,8|0,1:0|1:0,1:0:0:0:
375,103,228183,2,0,L|378:7,1,90,8|0,1:3|1:0,1:0:0:0:
487,132,228377,2,0,L|495:35,1,90,8|0,1:0|1:0,1:0:0:0:
312,146,228570,5,8,1:3:0:0:
384,183,228667,1,0,1:0:0:0:
401,262,228764,1,8,1:0:0:0:
354,321,228861,1,0,1:0:0:0:
228,206,228957,5,8,1:0:0:0:
264,208,229054,1,8,1:0:0:0:
290,226,229151,1,8,1:0:0:0:
301,260,229248,1,8,1:0:0:0:
212,299,229344,5,4,1:3:0:0:
218,293,229441,1,4,1:3:0:0:
224,286,229538,1,8,1:0:0:0:
230,279,229635,1,4,1:3:0:0:
264,355,229732,5,8,1:3:0:0:
187,372,229828,1,8,1:0:0:0:
131,322,229925,1,8,1:0:0:0:
144,245,230022,1,8,1:0:0:0:
122,156,230119,6,0,P|224:189|233:263,1,180,6|8,1:0|1:0,1:0:0:0:
63,364,230409,1,0,1:0:0:0:
12,306,230506,2,0,P|6:264|14:200,1,90,2|0,1:0|1:0,1:0:0:0:
315,283,230699,2,0,P|233:349|158:317,1,180,10|0,1:0|1:0,1:0:0:0:
316,130,230990,1,0,1:0:0:0:
388,101,231086,2,0,P|428:109|488:112,1,90,10|0,1:0|1:0,1:0:0:0:
399,276,231280,2,0,P|365:230|330:204,1,90,10|0,1:0|1:0,1:0:0:0:
512,179,231474,2,0,B|477:211|477:211|466:271,1,90,8|0,1:0|1:0,1:0:0:0:
238,209,231667,6,0,B|219:127|261:129|232:24,1,180,6|10,1:0|1:0,1:0:0:0:
114,37,231957,1,0,1:0:0:0:
62,94,232054,2,0,P|105:109|174:98,1,90,0|0,1:0|1:0,1:0:0:0:
357,188,232248,2,0,P|304:286|216:291,1,180,10|0,1:0|1:0,1:0:0:0:
128,263,232538,1,0,1:0:0:0:
81,358,232635,2,0,P|111:353|182:361,1,90,10|0,1:0|1:0,1:0:0:0:
138,174,232828,2,0,P|43:229|39:298,1,180,8|8,1:3|1:0,1:0:0:0:
210,235,233119,1,0,1:0:0:0:
277,60,233215,6,0,P|372:115|376:184,1,180,6|8,1:0|1:0,1:0:0:0:
502,295,233506,1,0,1:0:0:0:
409,361,233603,2,0,B|403:316|403:316|413:253,1,90,2|0,1:0|1:0,1:0:0:0:
159,326,233796,2,0,B|241:349|252:293|343:309,1,180,10|0,1:0|1:0,1:0:0:0:
378,176,234086,1,0,1:0:0:0:
264,136,234183,2,0,P|259:175|272:236,1,90,10|0,1:0|1:0,1:0:0:0:
387,41,234377,2,0,P|332:47|291:71,1,90,2|0,1:0|1:0,1:0:0:0:
508,158,234570,2,0,P|495:125|456:76,1,90,10|0,1:0|1:0,1:0:0:0:
316,325,234764,6,0,B|395:286|395:286|506:303,1,180,6|8,1:0|1:0,1:0:0:0:
411,368,235054,1,0,1:0:0:0:
382,213,235151,2,0,L|368:96,1,90,2|0,1:0|1:0,1:0:0:0:
475,11,235344,2,0,P|508:76|446:155,1,180,10|0,1:0|1:0,1:0:0:0:
298,159,235635,1,0,1:0:0:0:
267,92,235732,2,0,P|263:51|265:2,1,90,10|0,1:0|1:0,1:0:0:0:
183,142,235925,2,0,P|284:172|299:243,1,180,8|8,1:3|1:0,1:0:0:0:
339,300,236215,1,0,1:0:0:0:
170,241,236312,6,0,B|146:153|195:161|162:52,1,180,8|8,1:3|1:0,1:0:0:0:
57,23,236603,1,0,1:0:0:0:
10,125,236699,2,0,B|53:131|53:131|109:122,1,90,2|0,1:0|1:0,1:0:0:0:
9,225,236893,2,0,P|101:269|106:356,1,180,10|0,1:0|1:0,1:0:0:0:
279,308,237183,1,0,1:0:0:0:
203,362,237280,2,0,B|196:317|196:317|203:265,1,90,8|0,1:0|1:0,1:0:0:0:
361,269,237474,2,0,B|368:314|368:314|361:366,1,90,2|0,1:0|1:0,1:0:0:0:
268,216,237667,2,0,L|263:115,1,90,10|0,1:0|1:0,1:0:0:0:
468,20,237861,6,0,P|384:35|336:127,1,180,6|12,1:0|1:2,1:0:0:0:
432,220,238151,1,0,1:0:0:0:
512,151,238248,2,0,P|472:132|426:129,1,90,2|0,1:0|1:0,1:0:0:0:
426,305,238441,2,0,P|470:302|511:282,1,90,10|0,1:0|1:0,1:0:0:0:
342,184,238635,2,0,B|352:226|352:226|341:297,1,90,2|0,1:0|1:0,1:0:0:0:
228,351,238828,2,0,B|340:346,1,90,12|0,1:2|1:0,1:0:0:0:
205,113,239022,2,0,B|294:116,1,90,2|0,1:0|1:0,1:0:0:0:
118,246,239215,2,0,L|232:242,1,90,2|0,1:0|1:0,1:0:0:0:
96,22,239409,6,0,P|6:89|26:165,1,180,6|8,1:0|1:0,1:0:0:0:
274,311,239699,1,2,1:0:0:0:
344,291,239796,2,0,P|348:242|344:195,1,90,0|0,1:0|1:0,1:0:0:0:
483,112,239990,2,0,P|417:136|375:137,1,90,12|0,1:2|1:0,1:0:0:0:
203,333,240183,2,0,B|111:322|122:371|10:351,1,180,8|8,1:3|1:0,1:0:0:0:
210,240,240474,5,0,1:0:0:0:
270,196,240570,2,0,B|262:152|262:152|274:93,1,90,2|0,1:0|1:0,1:0:0:0:
387,209,240764,2,0,B|396:255|396:255|388:297,1,90,10|0,1:0|1:0,1:0:0:0:
235,25,240957,6,0,L|123:18,1,90,4|0,1:2|1:0,1:0:0:0:
14,48,241151,2,0,L|126:41,1,90,8|0,1:0|1:0,1:0:0:0:
181,123,241344,2,0,L|69:116,1,90,4|0,1:2|1:0,1:0:0:0:
20,137,241538,2,0,L|132:130,1,90,8|0,1:0|1:0,1:0:0:0:
151,215,241732,2,0,L|39:208,1,90,4|0,1:2|1:0,1:0:0:0:
0,243,241925,2,0,L|112:236,1,90,8|0,1:0|1:0,1:0:0:0:
132,358,242119,1,8,1:0:0:0:
172,366,242215,1,8,1:0:0:0:
198,353,242312,1,8,1:0:0:0:
227,359,242409,1,0,1:0:0:0:
227,359,242506,6,0,P|247:285|216:181,1,180,6|8,1:0|1:0,1:0:0:0:
377,103,242796,1,0,1:0:0:0:
298,56,242893,2,0,P|288:97|300:147,1,90,0|0,1:0|1:0,1:0:0:0:
491,227,243086,2,0,B|394:208|407:265|310:241,1,180,10|0,1:0|1:0,1:0:0:0:
448,299,243377,1,0,1:0:0:0:
454,145,243474,2,0,P|463:101|453:58,1,90,8|0,1:0|1:0,1:0:0:0:
159,210,243667,2,0,L|248:206,1,90,2|0,1:0|1:0,1:0:0:0:
318,333,243861,2,0,L|228:329,1,90,8|0,1:0|1:0,1:0:0:0:
60,166,244054,6,0,P|156:247|138:308,1,180,6|8,1:0|1:0,1:0:0:0:
81,250,244344,1,0,1:0:0:0:
22,104,244441,2,0,B|25:58|25:58|19:4,1,90,0|0,1:0|1:0,1:0:0:0:
291,75,244635,2,0,L|80:81,1,180,10|0,1:0|1:0,1:0:0:0:
269,154,244925,1,0,1:0:0:0:
345,165,245022,2,0,L|454:157,1,90,8|0,1:0|1:0,1:0:0:0:
443,308,245215,2,0,P|331:301|323:222,1,180,2|8,1:0|1:0,1:0:0:0:
392,242,245506,1,0,1:0:0:0:
508,82,245603,6,0,B|527:184|478:176|508:270,1,180,6|8,1:0|1:0,1:0:0:0:
424,101,245893,1,0,1:0:0:0:
424,101,245990,2,0,B|415:56|415:56|424:8,1,90,0|0,1:0|1:0,1:0:0:0:
326,157,246183,2,0,P|327:82|203:40,1,180,10|0,1:0|1:0,1:0:0:0:
143,125,246474,1,0,1:0:0:0:
237,213,246570,2,0,P|239:167|232:103,1,90,8|0,1:0|1:0,1:0:0:0:
321,277,246764,2,0,B|236:252|236:252|116:292,1,180,8|8,1:3|1:0,1:0:0:0:
110,344,247054,1,0,1:0:0:0:
403,362,247151,6,0,P|428:290|390:186,1,180,6|8,1:0|1:0,1:0:0:0:
239,89,247441,1,8,1:0:0:0:
169,101,247538,2,0,P|158:146|164:197,1,90,0|0,1:0|1:0,1:0:0:0:
77,271,247732,2,0,B|177:253|147:311|281:291,1,180,14|0,1:0|1:0,1:0:0:0:
355,278,248022,1,8,1:0:0:0:
351,167,248119,2,0,B|358:123|358:123|345:68,1,90,8|0,1:0|1:0,1:0:0:0:
177,23,248312,2,0,L|66:37,1,90,8|0,1:3|1:0,1:0:0:0:
5,138,248506,2,0,L|112:126,1,90,12|0,1:2|1:0,1:0:0:0:
282,225,248699,6,0,P|203:258|124:213,1,180,6|8,1:0|1:0,1:0:0:0:
206,166,248990,1,0,1:0:0:0:
340,276,249086,2,0,P|336:322|344:371,1,90,0|0,1:0|1:0,1:0:0:0:
476,251,249280,2,0,L|467:41,1,180,10|0,1:0|1:0,1:0:0:0:
283,134,249570,1,0,1:0:0:0:
376,175,249667,2,0,B|382:133|382:133|372:80,1,90,8|0,1:0|1:0,1:0:0:0:
239,35,249861,2,0,P|166:91|194:196,1,180,2|8,1:0|1:0,1:0:0:0:
67,265,250151,1,0,1:0:0:0:
331,336,250248,6,0,P|334:249|264:199,1,180,6|8,1:0|1:0,1:0:0:0:
171,338,250538,1,0,1:0:0:0:
243,375,250635,2,0,P|248:326|241:280,1,90,0|0,1:0|1:0,1:0:0:0:
67,179,250828,2,0,P|-3:229|0:315,1,180,10|0,1:0|1:0,1:0:0:0:
161,205,251119,1,0,1:0:0:0:
203,142,251215,2,0,B|206:100|206:100|196:40,1,90,8|0,1:0|1:0,1:0:0:0:
458,122,251409,2,0,B|356:141|365:84|270:96,1,180,8|8,1:3|1:0,1:0:0:0:
295,169,251699,1,0,1:0:0:0:
475,211,251796,6,0,P|470:257|475:309,1,90,4|0,1:2|1:0,1:0:0:0:
290,268,251990,2,0,P|295:314|290:366,1,90,8|0,1:0|1:0,1:0:0:0:
381,197,252183,6,0,P|376:243|381:295,1,90,4|0,1:2|1:0,1:0:0:0:
196,254,252377,2,0,P|201:300|196:352,1,90,8|0,1:0|1:0,1:0:0:0:
291,178,252570,6,0,P|286:224|291:276,1,90,4|0,1:2|1:0,1:0:0:0:
106,235,252764,2,0,P|111:281|106:333,1,90,8|0,1:0|1:0,1:0:0:0:
197,164,252957,6,0,P|192:210|197:262,1,90,4|8,1:2|1:0,1:0:0:0:
12,221,253151,2,0,P|17:267|12:319,1,90,8|8,1:0|1:0,1:0:0:0:
9,22,253344,6,0,P|56:82|162:87,1,180,6|8,1:0|1:0,1:0:0:0:
397,163,253635,5,0,1:0:0:0:
480,121,253732,2,0,P|413:84|313:120,1,180,6|8,1:0|1:0,1:0:0:0:
169,271,254022,5,0,1:0:0:0:
143,360,254119,2,0,P|216:341|264:246,1,180,6|8,1:0|1:0,1:0:0:0:
160,119,254409,5,8,1:0:0:0:
77,163,254506,2,0,B|68:210|68:210|81:268,1,90,4|0,1:2|1:0,1:0:0:0:
400,338,254699,2,0,B|409:296|409:296|400:249,1,90,10|0,1:0|1:0,1:0:0:0:
245,21,254893,6,0,L|252:158,1,135,4|2,1:0|2:0,2:0:0:0:
313,192,255667,2,0,P|350:191|398:195,1,67.5000000000001,2|0,2:0|2:0,2:0:0:0:
388,178,256054,2,0,P|421:176|443:178,1,45.0000000000001,2|8,2:0|2:1,2:0:0:0:
455,163,256344,1,0,1:0:0:0:
478,155,256441,6,0,P|472:229|483:300,1,135,4|4,1:0|2:3,2:0:0:0:
469,316,257119,1,0,1:0:0:0:
474,344,257215,1,0,1:0:0:0:
317,320,257506,1,0,1:0:0:0:
159,345,257796,1,0,1:0:0:0:
77,310,257990,6,0,P|81:211|75:142,1,157.5,4|0,1:0|2:0,2:0:0:0:
51,127,258764,1,0,1:0:0:0:
77,138,258861,1,0,1:0:0:0:
106,137,258957,1,0,1:0:0:0:
133,125,259054,1,0,1:0:0:0:
161,118,259151,1,0,1:0:0:0:
190,118,259248,1,0,1:0:0:0:
216,130,259344,1,0,1:0:0:0:
377,26,259538,5,4,1:0:0:0:
377,26,259925,1,4,1:2:0:0:
377,26,260312,1,12,1:2:0:0:
339,97,260603,1,4,3:0:0:0:
339,97,260699,1,0,1:0:0:0:
373,165,260893,1,0,1:0:0:0:
468,232,261086,5,6,1:0:0:0:
473,246,261183,1,0,1:0:0:0:
468,261,261280,1,0,1:0:0:0:
474,275,261377,1,0,1:0:0:0:
468,289,261474,1,0,1:0:0:0:
476,301,261570,1,0,1:0:0:0:
468,314,261667,1,0,1:0:0:0:
473,328,261764,1,0,1:0:0:0:
405,370,261861,5,2,1:0:0:0:
360,374,261957,1,0,1:0:0:0:
316,361,262054,1,0,1:0:0:0:
289,324,262151,1,0,1:0:0:0:
265,285,262248,1,0,1:0:0:0:
222,269,262344,1,0,1:0:0:0:
177,266,262441,1,0,1:0:0:0:
139,291,262538,1,0,1:0:0:0:
209,345,262635,5,6,1:0:0:0:
372,226,262828,1,2,1:0:0:0:
372,226,262925,1,0,1:0:0:0:
372,226,263022,1,2,1:0:0:0:
169,176,263215,1,2,1:0:0:0:
169,176,263312,1,0,1:0:0:0:
169,176,263409,2,2,B|333:171,1,157.5,2|0,1:0|2:0,1:0:0:0:
383,123,264183,6,0,P|379:89|387:36,1,75,4|0,1:0|2:0,2:0:0:0:
173,49,264377,2,0,P|254:38|294:84,1,150,2|0,1:3|1:3,2:0:0:0:
134,127,264667,1,0,2:0:0:0:
134,127,264764,2,0,L|26:119,1,75,2|0,1:3|2:0,2:0:0:0:
81,205,264957,2,0,B|63:276|63:276|96:379,1,150,0|2,1:0|1:3,2:0:0:0:
316,281,265248,2,0,L|132:275,1,150,0|0,1:0|2:0,2:0:0:0:
332,209,265538,2,0,B|337:171|337:171|329:129,1,75,2|0,1:3|2:0,2:0:0:0:
493,184,265732,6,0,L|394:179,1,75,6|0,1:0|2:0,2:0:0:0:
195,67,265925,2,0,L|294:72,1,75,2|0,1:3|2:0,2:0:0:0:
180,154,266119,5,0,1:0:0:0:
191,173,266215,1,0,2:0:0:0:
194,195,266312,1,2,1:3:0:0:
187,216,266409,1,0,2:0:0:0:
25,300,266506,5,0,1:0:0:0:
4,260,266603,1,0,2:0:0:0:
1,216,266699,1,2,1:3:0:0:
18,175,266796,1,0,1:0:0:0:
277,262,266893,5,0,1:3:0:0:
231,323,266990,5,0,1:0:0:0:
154,329,267086,5,2,1:3:0:0:
98,275,267183,5,0,1:0:0:0:
100,198,267280,5,4,1:0:0:0:
256,192,267377,12,0,270570,2:0:0:0:
