osu file format v14

[General]
AudioFilename: audio.mp3
AudioLeadIn: 0
PreviewTime:71218
Countdown: 0
SampleSet: Soft
StackLeniency: 0.8
Mode: 0
LetterboxInBreaks: 0
WidescreenStoryboard: 1

[Editor]
Bookmarks: 7153,121734,156089,205347,254895
DistanceSpacing: 0.7
BeatDivisor: 4
GridSize: 8
TimelineZoom: 2

[Metadata]
Title:Childish killer
TitleUnicode:Childish killer
Artist:Daisuke Ishiwatari feat. Mary Dale Sanchez
ArtistUnicode:石渡太輔 feat. Mary Dale Sanchez
Creator:Luscent
Version:Insane
Source:BlazBlue: Continuum Shift Extend
Tags:Natteke desu Jounzan EvilElvis yaspo Paris Sachi Kitazawa 北澤幸 Lily Ish Jin Kisaragi ジン=キサラギ Tsubaki Yayoi ツバキ=ヤヨイ owc 2020 semifinals semis sf DT2 BlazBlue Song Interlude English Rock Video Game
BeatmapID:4233870
BeatmapSetID:2031329

[Difficulty]
HPDrainRate:6
CircleSize:4
OverallDifficulty:8
ApproachRate:8
SliderMultiplier:1.7
SliderTickRate:1

[Events]
//Background and Video events
0,0,"dad.PNG",0,0
//Break Periods
2,125030,136467
2,165289,176724
2,202450,204595
//Storyboard Layer 0 (Background)
//Storyboard Layer 1 (Fail)
//Storyboard Layer 2 (Pass)
//Storyboard Layer 3 (Foreground)
//Storyboard Layer 4 (Overlay)
//Storyboard Sound Samples

[TimingPoints]
960,387.096774193548,4,2,1,50,1,0
7153,-133.333333333333,4,2,1,50,0,0
13347,-125,4,2,1,50,0,0
19540,-100,4,2,1,50,0,0
31927,-133.333333333333,4,2,1,35,0,0
56701,-111.111111111111,4,2,1,50,0,0
62895,-111.111111111111,4,2,1,60,0,0
64443,-111.111111111111,4,2,1,50,0,0
72185,387.096774193548,4,2,1,60,1,0
118636,-90.9090909090909,4,2,1,60,0,0
121733,-90.9090909090909,4,2,1,70,0,0
124830,-90.9090909090909,4,2,1,40,0,0
137217,387.096774193548,4,2,1,60,1,0
165087,387.096774193548,4,2,1,40,1,0
177474,-111.111111111111,4,2,1,40,0,0
188312,-200,4,2,1,40,0,0
189861,-111.111111111111,4,2,1,50,0,0
196054,-111.111111111111,4,2,1,60,0,0
197603,-111.111111111111,4,2,1,50,0,0
205345,387.096774193548,4,2,1,60,1,0
230119,-100,4,2,1,65,0,0
254893,-100,4,2,1,70,0,0
256248,-100,4,2,1,50,0,0
256441,-133.333333333333,4,2,1,50,0,0
262635,-111.111111111111,4,2,1,50,0,0
264183,-111.111111111111,4,2,1,60,0,0

[Colours]
Combo1 : 17,254,176
Combo2 : 173,255,95
Combo3 : 255,88,100
Combo4 : 255,94,55

[HitObjects]
107,134,7153,6,0,B|79:206|116:264,1,127.5,4|0,1:0|2:0,2:0:0:0:
291,233,7734,1,2,2:0:0:0:
291,233,7830,1,0,2:0:0:0:
291,233,7927,2,0,B|252:222|208:234,1,63.7500000000002,2|0,2:0|2:0,2:0:0:0:
425,308,8314,2,0,B|410:248|423:190,1,95.6250000000002,2|0,2:0|2:0,2:0:0:0:
427,186,8701,1,4,1:0:0:0:
200,76,9282,1,4,2:3:0:0:
200,76,9379,1,0,1:0:0:0:
200,76,9476,2,0,B|146:94|90:79,2,95.6250000000002,0|0|4,1:0|1:0|3:0,2:0:0:0:
286,19,10250,6,0,B|363:25|403:111|353:173,1,191.25,4|0,1:0|2:0,2:0:0:0:
170,294,11024,1,0,1:0:0:0:
157,275,11121,1,0,1:0:0:0:
148,254,11218,1,0,1:0:0:0:
142,232,11314,1,0,1:0:0:0:
140,209,11411,1,0,1:0:0:0:
141,186,11508,1,0,1:0:0:0:
143,163,11605,2,0,B|173:160|199:161,2,31.8750000000001,0|0|4,1:0|2:0|1:0,2:0:0:0:
53,307,12185,5,4,1:2:0:0:
268,242,12572,5,12,1:2:0:0:
460,301,12959,5,4,3:0:0:0:
409,185,13153,1,4,3:0:0:0:
461,58,13347,2,0,B|418:70|376:61,1,68,6|0,1:0|1:0,2:0:0:0:
370,58,13637,1,0,1:0:0:0:
346,56,13734,1,0,1:0:0:0:
322,58,13830,1,0,1:0:0:0:
299,66,13927,1,0,1:0:0:0:
280,80,14024,1,0,1:0:0:0:
234,66,14121,5,6,1:0:0:0:
156,155,14314,1,0,1:0:0:0:
149,177,14411,1,0,1:0:0:0:
146,200,14508,1,0,1:0:0:0:
146,223,14605,1,0,1:0:0:0:
150,246,14701,1,0,1:0:0:0:
157,268,14798,1,0,1:0:0:0:
135,304,14895,5,6,1:0:0:0:
306,261,15089,1,2,1:0:0:0:
306,261,15185,1,0,1:0:0:0:
306,261,15282,2,0,B|354:255|388:265,1,68,2|2,1:0|1:0,2:0:0:0:
471,192,15669,2,2,B|448:141|451:83,1,102,6|0,1:0|2:0,1:0:0:0:
451,74,16056,1,0,2:0:0:0:
260,148,16443,6,0,B|226:162|184:157,1,68,0|2,1:0|2:3,2:0:0:0:
74,77,16830,2,0,B|88:111|83:153,1,68,0|2,1:0|2:3,2:0:0:0:
6,265,17218,2,0,B|40:251|82:256,1,68,0|2,1:0|2:3,2:0:0:0:
192,336,17605,2,0,B|178:302|183:260,1,68,0|2,1:0|1:3,2:0:0:0:
296,213,17992,1,4,1:0:0:0:
320,95,18185,1,2,2:3:0:0:
420,160,18379,5,0,1:0:0:0:
410,189,18476,1,0,2:0:0:0:
407,219,18572,1,2,2:3:0:0:
413,249,18669,1,0,2:0:0:0:
443,284,18766,5,0,1:0:0:0:
420,304,18863,1,0,2:0:0:0:
405,330,18959,1,2,1:3:0:0:
395,359,19056,1,0,1:0:0:0:
353,342,19153,6,0,P|325:345|306:343,3,34,0|0|0|0,1:0|1:0|1:3|1:0,2:0:0:0:
222,364,19540,6,0,B|189:302|208:228,1,127.5,6|0,1:0|2:0,2:0:0:0:
217,224,19927,1,2,1:0:0:0:
179,94,20121,1,0,2:3:0:0:
70,158,20314,1,2,1:0:0:0:
103,277,20508,2,2,B|57:289|19:283,2,85,2|2|2,2:1|1:0|2:1,1:0:0:0:
195,215,21089,5,0,1:0:0:0:
321,259,21282,1,2,2:1:0:0:
321,259,21379,1,0,2:0:0:0:
321,259,21476,1,0,1:0:0:0:
434,194,21669,1,2,2:1:0:0:
300,32,21863,5,2,1:0:0:0:
287,58,21959,1,0,2:0:0:0:
282,87,22056,1,2,2:1:0:0:
282,116,22153,1,0,2:0:0:0:
288,145,22250,2,0,B|254:142|220:147,2,42.5,2|0|2,1:0|2:0|1:0,2:0:0:0:
38,115,22637,5,4,1:0:0:0:
122,224,22830,1,0,2:0:0:0:
122,224,22927,1,0,1:0:0:0:
122,224,23024,1,0,1:0:0:0:
56,337,23218,2,0,B|125:330|185:357,1,127.5,0|0,1:0|2:0,2:0:0:0:
208,364,23605,2,0,B|237:314|221:269,1,85,0|0,2:0|1:0,2:0:0:0:
365,100,23992,2,0,B|333:161|359:235,1,127.5,0|0,1:0|2:0,2:0:0:0:
344,241,24379,1,0,2:0:0:0:
458,334,24572,1,0,1:0:0:0:
458,334,24669,1,0,2:0:0:0:
458,334,24766,1,0,1:0:0:0:
455,176,24959,5,2,1:0:0:0:
421,178,25056,1,0,2:0:0:0:
387,180,25153,1,2,2:1:0:0:
353,182,25250,1,0,2:0:0:0:
319,184,25347,1,6,1:2:0:0:
285,187,25443,1,0,2:0:0:0:
251,190,25540,1,0,1:0:0:0:
217,193,25637,1,0,1:0:0:0:
187,209,25734,6,0,B|154:147|176:80,1,127.5,6|0,1:0|2:0,2:0:0:0:
165,69,26121,2,0,B|216:79|264:65,1,85,2|0,1:0|2:0,2:0:0:0:
358,143,26508,1,2,1:0:0:0:
265,293,26701,1,2,2:1:0:0:
71,232,26895,2,0,B|116:212|170:216,1,85,2|2,1:0|2:1,2:0:0:0:
452,44,27282,5,0,1:0:0:0:
470,194,27476,1,2,2:1:0:0:
452,44,27669,2,0,B|411:55|358:46,1,85,0|2,1:0|2:1,2:0:0:0:
200,38,28056,1,2,1:0:0:0:
273,151,28250,1,2,2:1:0:0:
284,178,28347,1,0,2:0:0:0:
291,206,28443,1,2,1:0:0:0:
292,235,28540,1,0,1:0:0:0:
289,264,28637,1,0,1:0:0:0:
281,292,28734,1,0,2:0:0:0:
310,328,28830,5,8,1:3:0:0:
79,257,29024,2,0,B|125:237|181:248,1,85,0|0,2:0|1:0,2:0:0:0:
307,71,29411,2,0,B|262:128|190:113,1,127.5,4|0,1:0|2:0,2:0:0:0:
180,105,29798,1,0,1:0:0:0:
399,270,30185,1,4,1:0:0:0:
256,192,30379,12,8,31540,2:1:0:0:
110,240,31927,6,0,B|79:176|94:102,2,127.5,4|0|8,1:0|2:0|2:1,2:0:0:0:
253,331,33089,1,0,2:0:0:0:
445,205,33476,2,0,B|384:172|296:188,1,127.5,8|8,2:3|2:3,2:0:0:0:
152,162,34250,2,0,B|133:121|141:79,1,63.7500000000002,8|0,2:1|2:0,2:0:0:0:
216,44,34637,1,0,2:0:0:0:
315,67,34830,1,0,2:0:0:0:
157,256,35024,6,0,L|17:276,1,127.5,0|0,1:0|2:0,2:0:0:0:
246,302,35605,1,0,1:0:0:0:
330,251,35798,2,0,B|351:197|334:142,1,95.6250000000002,8|0,2:1|2:0,2:0:0:0:
326,139,36185,2,0,B|315:54,1,63.7500000000002,0|0,2:0|2:0,2:0:0:0:
436,282,36572,5,8,2:3:0:0:
212,175,36959,2,0,B|184:111|212:50,1,127.5,8|8,2:3|2:1,2:0:0:0:
431,112,37734,1,0,2:0:0:0:
103,209,38121,6,0,B|162:253|151:330,1,127.5,8|0,2:3|2:0,2:0:0:0:
70,377,38701,1,0,2:0:0:0:
103,209,38895,2,0,B|44:165|55:88,1,127.5,8|0,2:1|2:0,2:0:0:0:
216,137,39669,6,0,B|278:161|348:142,1,127.5,8|0,2:3|2:0,2:0:0:0:
444,75,40250,1,0,1:0:0:0:
492,245,40443,2,0,B|430:221|360:240,1,127.5,8|0,2:1|2:0,2:0:0:0:
165,287,41218,6,0,B|115:235|140:161,1,127.5,0|0,1:0|2:0,2:0:0:0:
190,73,41798,1,0,1:0:0:0:
283,131,41992,1,8,2:1:0:0:
236,222,42185,1,0,2:0:0:0:
54,175,42379,5,4,2:3:0:0:
208,148,42572,1,8,2:1:0:0:
398,168,42766,2,0,B|384:106|396:30,2,127.5,12|8|8,2:3|2:3|2:1,2:0:0:0:
457,325,43734,1,4,2:3:0:0:
304,279,43927,1,8,2:1:0:0:
304,279,44314,6,0,B|247:311|169:302,1,127.5,4|0,1:0|2:0,2:0:0:0:
37,345,45089,2,0,B|5:281|32:208,1,127.5,8|0,2:1|2:0,2:0:0:0:
103,156,45669,1,0,1:0:0:0:
178,39,45863,2,0,B|187:81|180:124,1,63.7500000000002,8|0,2:3|2:0,2:0:0:0:
291,295,46250,2,0,B|270:241|289:180,1,95.6250000000002,8|0,2:3|2:0,2:0:0:0:
293,186,46637,1,8,2:1:0:0:
500,327,47024,1,0,2:0:0:0:
490,108,47411,6,0,B|433:144|353:129,1,127.5,8|0,2:3|2:0,2:0:0:0:
276,124,47992,1,0,1:0:0:0:
153,33,48185,2,0,B|183:74|176:148,1,95.6250000000002,8|0,2:1|2:0,2:0:0:0:
170,138,48572,1,0,2:0:0:0:
271,324,48766,1,0,1:0:0:0:
320,226,48959,6,0,B|257:248|192:240,1,127.5,8|8,2:3|2:3,2:0:0:0:
387,98,49734,2,0,B|449:90|512:112,1,127.5,8|0,2:1|2:0,2:0:0:0:
129,42,50508,5,8,2:3:0:0:
64,243,50895,1,8,2:3:0:0:
241,179,51282,2,0,B|306:202|373:183,1,127.5,8|0,2:1|2:0,2:0:0:0:
461,188,51863,1,0,1:0:0:0:
432,51,52056,6,0,B|410:85|420:127,2,63.7500000000002,8|0|0,2:3|2:0|2:0,2:0:0:0:
458,333,52830,2,0,B|403:298|328:315,1,127.5,8|0,2:1|2:0,2:0:0:0:
101,226,53605,6,0,B|142:240|185:229,1,63.7500000000002,8|0,2:3|2:0,2:0:0:0:
254,175,53992,2,0,B|229:107|246:47,1,127.5,8|8,2:3|2:1,2:0:0:0:
472,175,54766,1,4,2:3:0:0:
430,263,54959,1,8,2:1:0:0:
334,357,55153,6,0,B|340:319|330:279,1,63.7500000000002,4|2,1:0|2:0,2:0:0:0:
143,138,55540,1,4,1:2:0:0:
236,303,55734,1,2,2:0:0:0:
378,202,55927,2,0,B|342:195|314:200,1,63.7500000000002,8|2,1:0|2:0,2:0:0:0:
159,226,56314,5,8,1:0:0:0:
125,233,56411,1,0,1:0:0:0:
91,240,56508,1,0,1:0:0:0:
57,248,56605,1,0,2:0:0:0:
15,256,56701,6,0,B|-13:177|4:100,1,153,4|8,1:0|1:0,2:0:0:0:
101,134,57282,1,2,2:0:0:0:
258,59,57476,2,0,L|164:69,1,76.5000000000001,0|0,1:0|1:0,2:0:0:0:
232,165,57863,1,12,1:0:0:0:
369,299,58056,5,0,2:0:0:0:
369,299,58153,1,0,2:0:0:0:
369,299,58250,2,0,B|405:215|371:140,1,153,4|8,1:0|1:0,2:0:0:0:
236,205,58830,1,2,1:2:0:0:
71,260,59024,2,0,B|111:273|164:263,1,76.5000000000001,0|0,2:0|1:0,2:0:0:0:
268,355,59411,1,8,1:0:0:0:
384,160,59605,5,8,1:0:0:0:
384,160,59701,1,0,2:0:0:0:
384,160,59798,2,0,B|290:149|260:234,1,153,4|8,1:0|1:0,2:0:0:0:
213,129,60379,1,2,2:0:0:0:
68,47,60572,2,0,B|114:59|157:46,1,76.5000000000001,0|0,1:0|1:0,2:0:0:0:
164,39,60863,1,0,2:0:0:0:
183,27,60959,1,8,1:0:0:0:
298,73,61153,1,0,2:0:0:0:
424,14,61347,5,4,1:0:0:0:
446,130,61540,1,0,2:0:0:0:
348,192,61734,1,8,2:0:0:0:
348,192,61927,1,0,1:0:0:0:
191,203,62121,5,4,1:0:0:0:
291,272,62314,1,0,2:0:0:0:
341,384,62508,1,0,1:0:0:0:
489,216,62701,5,8,1:0:0:0:
489,216,62798,1,0,1:0:0:0:
489,216,62895,2,0,B|433:240|364:226,1,114.75,6|0,1:0|2:0,2:0:0:0:
287,293,63282,2,0,B|243:281|202:291,1,76.5000000000001,8|0,1:0|1:0,2:0:0:0:
46,79,63669,2,0,B|95:115|90:196,1,114.75,6|0,1:0|2:0,2:0:0:0:
190,123,64056,2,0,B|235:129|275:115,1,76.5000000000001,8|0,1:0|1:0,2:0:0:0:
408,43,64443,5,4,1:0:0:0:
408,43,64637,1,0,2:0:0:0:
362,225,64830,2,0,B|342:177|351:126,1,76.5000000000001,8|2,1:0|1:0,2:0:0:0:
458,323,65218,1,0,1:0:0:0:
458,323,65411,1,2,1:0:0:0:
194,279,65605,2,0,B|237:262|276:262,1,76.5000000000001,10|10,1:0|1:0,2:0:0:0:
39,227,65992,6,0,B|105:276|82:365,1,153,4|10,1:0|1:0,2:0:0:0:
196,306,66572,1,6,1:0:0:0:
358,182,66766,2,0,B|316:199|265:184,1,76.5000000000001,0|10,2:0|1:0,2:0:0:0:
448,259,67153,1,6,1:0:0:0:
440,73,67347,5,0,1:0:0:0:
440,73,67443,1,0,1:0:0:0:
440,73,67540,1,4,1:0:0:0:
282,188,67927,1,8,1:0:0:0:
149,155,68121,5,4,2:3:0:0:
149,155,68218,1,0,1:0:0:0:
149,155,68314,1,4,1:3:0:0:
181,307,68508,1,0,2:0:0:0:
307,213,68701,1,8,1:0:0:0:
116,132,68895,5,0,2:0:0:0:
158,329,69089,1,8,1:3:0:0:
256,192,71411,5,2,2:0:0:0:
256,192,71798,1,2,2:0:0:0:
256,192,72185,6,0,B|217:210|168:202,1,85,4|8,1:0|1:0,1:0:0:0:
105,107,72572,1,0,1:0:0:0:
105,107,72668,1,0,1:0:0:0:
105,107,72765,1,8,1:0:0:0:
0,209,72959,1,0,1:0:0:0:
27,235,73055,1,0,1:0:0:0:
47,267,73152,1,8,1:0:0:0:
61,302,73249,1,0,1:0:0:0:
63,340,73346,1,8,1:3:0:0:
203,287,73539,1,8,1:0:0:0:
350,306,73733,6,0,B|335:256|338:208,1,85,4|8,1:0|1:0,1:0:0:0:
433,49,74120,1,0,1:0:0:0:
415,83,74217,1,0,1:0:0:0:
383,104,74314,1,8,1:0:0:0:
345,112,74410,1,0,1:0:0:0:
307,103,74507,1,0,1:0:0:0:
150,57,74701,1,8,1:0:0:0:
228,239,74894,2,0,B|236:194|225:144,1,85,8|8,1:3|1:0,1:0:0:0:
198,357,75281,5,4,1:0:0:0:
351,270,75475,1,8,1:0:0:0:
351,270,75572,1,0,1:0:0:0:
351,270,75668,2,0,L|445:280,1,85,0|8,1:0|1:0,1:0:0:0:
447,134,76055,1,0,1:0:0:0:
410,145,76152,1,0,1:0:0:0:
371,148,76249,1,8,1:0:0:0:
332,145,76346,1,0,1:0:0:0:
297,128,76443,1,8,1:3:0:0:
47,224,76636,5,8,1:0:0:0:
47,224,76733,1,0,1:0:0:0:
47,224,76830,2,0,B|98:207|150:217,1,85,4|8,1:0|1:0,1:0:0:0:
280,264,77217,1,0,1:0:0:0:
280,264,77314,1,0,1:0:0:0:
280,264,77410,1,8,1:0:0:0:
311,168,77604,5,0,1:0:0:0:
138,102,77797,1,8,1:0:0:0:
164,288,77991,1,8,1:3:0:0:
321,186,78185,1,8,1:0:0:0:
120,88,78378,6,0,B|108:135|123:192,1,85,4|8,1:0|1:0,1:0:0:0:
37,299,78765,1,0,1:0:0:0:
37,299,78862,1,0,1:0:0:0:
37,299,78959,1,8,1:0:0:0:
185,249,79152,1,0,1:0:0:0:
220,264,79249,1,0,1:0:0:0:
257,270,79346,1,8,1:0:0:0:
294,269,79443,1,0,1:0:0:0:
331,260,79539,1,8,1:3:0:0:
439,338,79733,1,8,1:0:0:0:
440,150,79926,6,0,B|414:194|421:250,1,85,4|8,1:0|1:0,1:0:0:0:
230,153,80314,2,0,B|269:177|324:164,1,85,0|8,1:0|1:0,1:0:0:0:
403,24,80604,1,0,1:0:0:0:
384,14,80701,2,0,B|352:54|359:101,1,85,0|8,1:0|1:0,1:0:0:0:
245,243,81088,1,8,1:3:0:0:
207,247,81184,1,0,1:0:0:0:
168,251,81281,1,8,1:0:0:0:
129,255,81378,1,0,1:0:0:0:
90,260,81475,6,0,B|59:176|59:176|81:91,1,170,4|0,1:0|1:0,1:0:0:0:
216,140,82055,1,8,1:0:0:0:
216,140,82152,1,0,1:0:0:0:
216,140,82249,2,0,L|310:145,1,85,0|8,1:0|1:0,1:0:0:0:
457,70,82636,2,0,B|411:132|434:201,1,127.5,0|0,1:0|1:0,1:0:0:0:
444,211,83023,1,4,1:2:0:0:
96,311,83410,5,4,1:2:0:0:
219,280,83604,1,8,1:0:0:0:
301,358,83797,1,4,1:2:0:0:
219,280,83991,1,8,1:0:0:0:
268,162,84184,1,8,1:3:0:0:
263,136,84281,1,0,1:0:0:0:
259,110,84378,1,8,1:0:0:0:
255,84,84475,1,8,1:0:0:0:
251,59,84572,6,0,B|182:85|115:65,1,127.5,4|0,1:0|1:0,1:0:0:0:
112,56,84959,1,0,1:0:0:0:
0,210,85152,2,0,B|46:195|92:200,1,85,8|0,1:0|1:0,1:0:0:0:
214,273,85539,1,8,1:0:0:0:
214,273,85636,1,0,1:0:0:0:
214,273,85733,1,8,1:3:0:0:
317,207,85926,1,8,1:0:0:0:
442,229,86120,6,0,B|478:162|448:85,1,127.5,4|0,1:0|1:0,1:0:0:0:
440,84,86507,2,0,B|398:105|347:96,1,85,0|8,1:0|1:0,1:0:0:0:
147,318,86894,2,0,B|224:298|286:317,1,127.5,0|0,1:0|1:0,1:0:0:0:
285,302,87281,1,8,1:3:0:0:
297,290,87378,1,0,1:0:0:0:
309,278,87475,1,8,1:0:0:0:
171,110,87668,6,0,B|157:159|183:207,1,85,8|8,1:3|1:0,1:0:0:0:
185,207,87959,1,0,1:0:0:0:
197,218,88055,1,0,1:0:0:0:
381,144,88249,2,0,B|338:157|289:153,1,85,8|0,1:0|1:0,1:0:0:0:
482,202,88636,1,8,1:0:0:0:
432,49,88830,1,8,1:3:0:0:
270,345,89217,5,4,1:0:0:0:
91,276,89410,1,8,1:0:0:0:
91,276,89507,1,0,1:0:0:0:
91,276,89604,2,0,B|136:261|183:265,1,85,0|8,1:0|1:0,1:0:0:0:
292,217,89991,1,0,1:0:0:0:
313,185,90088,1,0,1:0:0:0:
324,148,90184,1,8,1:0:0:0:
326,109,90281,1,0,1:0:0:0:
317,71,90378,1,8,1:3:0:0:
405,275,90572,1,8,1:0:0:0:
512,170,90765,6,0,B|463:184|412:177,1,85,4|8,1:0|1:0,1:0:0:0:
412,172,91055,1,0,1:0:0:0:
396,165,91152,1,0,1:0:0:0:
311,337,91346,1,8,1:0:0:0:
236,122,91539,1,0,1:0:0:0:
236,122,91636,1,0,1:0:0:0:
236,122,91733,2,0,B|282:152|281:202,1,85,8|8,1:0|1:3,1:0:0:0:
224,291,92120,1,0,1:0:0:0:
4,233,92314,6,0,L|149:216,1,127.5,8|0,1:3|1:0,1:0:0:0:
150,202,92701,1,0,1:0:0:0:
18,27,92894,1,8,1:0:0:0:
18,27,92991,1,0,1:0:0:0:
18,27,93088,2,0,B|6:70|6:70|18:111,1,85,0|8,1:0|1:0,1:0:0:0:
134,69,93475,1,8,1:3:0:0:
167,73,93572,1,0,1:0:0:0:
200,77,93668,1,8,1:0:0:0:
233,81,93765,1,0,1:0:0:0:
266,85,93862,6,0,B|315:100|371:78,1,85,4|8,1:0|1:0,1:0:0:0:
435,241,94249,1,0,1:0:0:0:
435,241,94346,1,0,1:0:0:0:
435,241,94443,1,8,1:0:0:0:
300,179,94636,5,0,1:0:0:0:
437,68,94830,1,8,1:0:0:0:
437,68,94926,1,0,1:0:0:0:
437,68,95023,1,8,1:3:0:0:
415,316,95217,5,8,1:0:0:0:
290,259,95410,2,0,B|248:271|198:263,1,85,8|8,1:3|1:0,1:0:0:0:
81,274,95797,1,4,1:2:0:0:
66,243,95894,1,0,1:0:0:0:
64,208,95991,1,8,1:0:0:0:
80,178,96088,1,0,1:0:0:0:
104,154,96184,1,8,1:0:0:0:
121,124,96281,1,8,1:0:0:0:
125,90,96378,1,8,1:0:0:0:
108,60,96475,1,8,1:0:0:0:
79,42,96572,1,4,1:2:0:0:
45,47,96668,1,0,1:0:0:0:
23,73,96765,1,8,1:0:0:0:
17,106,96862,1,0,1:0:0:0:
32,146,96959,6,0,B|78:158|134:143,1,85,4|8,1:0|1:0,1:0:0:0:
220,207,97346,1,0,1:0:0:0:
339,292,97539,1,8,1:0:0:0:
339,292,97636,1,0,1:0:0:0:
339,292,97733,2,0,B|327:244|337:198,1,85,0|8,1:0|1:0,1:0:0:0:
226,318,98120,5,8,1:3:0:0:
419,222,98314,1,8,1:0:0:0:
285,133,98507,1,8,1:3:0:0:
427,311,98701,1,8,1:0:0:0:
427,311,98797,1,0,1:0:0:0:
427,311,98894,2,0,B|478:304|520:312,1,85,0|8,1:0|1:0,1:0:0:0:
312,225,99281,1,0,1:0:0:0:
283,232,99378,1,0,1:0:0:0:
254,239,99475,1,8,1:0:0:0:
176,147,99668,1,8,1:3:0:0:
138,153,99765,1,0,1:0:0:0:
100,159,99862,1,0,1:0:0:0:
62,165,99959,1,0,1:0:0:0:
24,172,100055,6,0,B|-1:104|18:36,1,127.5,8|0,1:3|1:0,1:0:0:0:
0,24,100443,1,0,1:0:0:0:
129,196,100636,1,8,1:0:0:0:
129,196,100733,1,0,1:0:0:0:
129,196,100830,2,0,B|141:241|127:290,1,85,0|8,1:0|1:0,1:0:0:0:
154,309,101120,1,0,1:0:0:0:
188,324,101217,1,8,1:3:0:0:
225,329,101314,1,0,1:0:0:0:
262,320,101410,1,8,1:0:0:0:
374,356,101604,5,8,1:3:0:0:
476,209,101797,1,8,1:0:0:0:
476,209,101894,1,0,1:0:0:0:
476,209,101991,2,0,L|387:214,1,85,0|8,1:0|1:0,1:0:0:0:
223,227,102378,2,0,B|203:182|214:134,1,85,0|8,1:0|1:0,1:0:0:0:
273,69,102765,1,8,1:3:0:0:
11,228,103152,6,0,B|83:245|96:326,1,127.5,8|0,1:3|1:0,1:0:0:0:
89,338,103539,2,0,B|139:352|184:337,1,85,0|8,1:0|1:0,1:0:0:0:
293,372,103926,1,0,1:0:0:0:
331,238,104120,1,8,1:0:0:0:
213,98,104314,5,8,1:3:0:0:
124,161,104507,1,8,1:0:0:0:
124,161,104604,1,0,1:0:0:0:
124,161,104701,2,0,B|112:209|127:256,1,85,8|8,1:3|1:0,1:0:0:0:
271,298,105088,1,0,1:0:0:0:
459,166,105281,1,8,1:0:0:0:
459,166,105378,1,0,1:0:0:0:
459,166,105475,2,0,L|316:174,1,127.5,4|0,1:2|1:0,1:0:0:0:
310,162,105862,2,0,B|292:121|301:76,1,85,8|8,1:3|1:0,1:0:0:0:
382,348,106249,6,0,B|337:289|248:299,1,127.5,8|8,1:3|1:0,1:0:0:0:
249,310,106636,1,0,1:0:0:0:
154,357,106830,1,8,1:0:0:0:
8,146,107023,6,0,B|92:157|112:229,1,127.5,8|8,1:3|1:0,1:0:0:0:
106,235,107410,1,4,1:2:0:0:
232,185,107604,1,8,1:0:0:0:
362,211,107797,1,8,1:3:0:0:
400,117,107991,5,8,1:0:0:0:
383,92,108088,1,0,1:0:0:0:
374,63,108184,1,4,1:2:0:0:
372,33,108281,1,0,1:0:0:0:
380,4,108378,1,8,1:0:0:0:
145,68,108572,6,0,B|183:84|234:72,1,85,4|8,1:2|1:0,1:0:0:0:
307,136,108959,1,8,1:0:0:0:
241,342,109152,5,8,1:0:0:0:
231,333,109249,1,8,1:0:0:0:
221,324,109346,2,0,B|188:259|215:192,1,127.5,4|0,1:0|1:0,1:0:0:0:
203,181,109733,1,0,1:0:0:0:
333,263,109926,2,0,B|381:277|425:265,1,85,8|0,1:0|1:0,1:0:0:0:
453,86,110314,1,8,1:0:0:0:
453,86,110410,1,0,1:0:0:0:
453,86,110507,2,0,B|414:129|419:182,1,85,8|8,1:3|1:0,1:0:0:0:
329,108,110894,5,8,1:3:0:0:
228,113,111088,1,8,1:0:0:0:
34,44,111281,2,0,B|53:103|44:179,1,127.5,0|0,1:0|1:0,1:0:0:0:
26,190,111668,6,0,B|12:242|26:278,1,85,0|8,1:0|1:0,1:0:0:0:
118,344,112055,1,8,1:3:0:0:
284,248,112249,5,8,1:0:0:0:
284,248,112346,1,0,1:0:0:0:
284,248,112443,2,0,B|358:238|410:295|396:351,1,170,8|0,1:3|1:0,1:0:0:0:
176,274,113023,2,0,B|152:209|178:138,1,127.5,8|0,1:0|1:0,1:0:0:0:
154,123,113410,1,8,1:0:0:0:
307,155,113604,2,0,B|356:168|398:152,1,85,8|8,1:3|1:0,1:0:0:0:
400,145,113894,1,0,1:0:0:0:
409,136,113991,1,8,1:3:0:0:
412,296,114184,5,8,1:0:0:0:
232,220,114378,1,0,1:0:0:0:
412,296,114572,1,8,1:0:0:0:
33,240,114959,5,8,1:0:0:0:
33,240,115055,1,0,1:0:0:0:
33,240,115152,1,8,1:3:0:0:
128,201,115346,1,8,1:0:0:0:
232,220,115539,2,0,B|264:153|239:87,1,127.5,8|0,1:3|1:0,1:0:0:0:
232,76,115926,1,0,1:0:0:0:
353,201,116120,2,0,B|321:268|346:334,1,127.5,8|0,1:0|1:0,1:0:0:0:
353,345,116507,1,8,1:0:0:0:
511,213,116701,5,8,1:3:0:0:
474,126,116894,1,8,1:0:0:0:
474,126,116991,1,0,1:0:0:0:
474,126,117088,2,0,L|371:133,1,85,8|8,1:3|1:0,1:0:0:0:
250,20,117475,2,0,B|285:53|293:102,1,85,0|8,1:0|1:0,1:0:0:0:
228,242,117862,2,0,B|273:227|299:178,1,85,0|8,1:0|1:0,1:0:0:0:
132,125,118249,1,8,1:3:0:0:
57,269,118443,5,0,1:0:0:0:
51,280,118539,1,0,1:0:0:0:
46,291,118636,2,0,B|133:285|174:350,1,140.25,4|0,1:2|1:0,1:0:0:0:
176,363,119023,1,0,1:0:0:0:
243,186,119217,5,8,1:0:0:0:
428,217,119410,2,0,B|341:211|300:276,1,140.25,4|0,1:2|1:0,1:0:0:0:
298,289,119797,1,8,1:0:0:0:
131,191,119991,1,8,1:0:0:0:
263,85,120184,5,4,1:2:0:0:
216,217,120378,1,8,1:0:0:0:
57,250,120572,5,4,1:2:0:0:
208,241,120765,1,8,1:0:0:0:
287,347,120959,5,4,1:2:0:0:
228,235,121152,1,8,1:0:0:0:
345,165,121346,5,4,1:2:0:0:
348,187,121443,1,8,1:0:0:0:
351,210,121539,1,8,1:0:0:0:
354,233,121636,1,8,1:0:0:0:
357,256,121733,1,8,1:3:0:0:
256,192,121926,12,4,124830,2:3:0:0:
41,218,137217,6,0,B|96:249|165:231,1,127.5,6|0,1:0|1:0,1:0:0:0:
178,244,137604,1,0,1:0:0:0:
332,74,137797,2,0,B|272:124|294:198,1,127.5,8|0,1:0|1:0,1:0:0:0:
281,202,138184,1,8,1:0:0:0:
357,275,138378,1,0,1:0:0:0:
512,193,138571,5,14,1:0:0:0:
512,193,138668,1,0,1:0:0:0:
512,193,138765,2,0,B|464:208|414:196,1,85,0|10,1:0|1:0,1:0:0:0:
319,141,139152,1,0,1:0:0:0:
232,214,139346,1,10,1:0:0:0:
204,203,139442,1,0,1:0:0:0:
174,199,139539,1,2,1:0:0:0:
144,204,139636,1,0,1:0:0:0:
115,212,139733,1,10,1:0:0:0:
85,210,139829,1,0,1:0:0:0:
58,196,139926,1,0,1:0:0:0:
124,350,140120,5,8,1:0:0:0:
236,290,140313,2,0,B|220:226|236:156,1,127.5,2|0,1:0|1:0,1:0:0:0:
218,144,140700,1,2,1:0:0:0:
367,222,140894,1,10,1:0:0:0:
367,222,140991,1,0,1:0:0:0:
367,222,141087,2,0,B|418:239|464:222,1,85,0|10,1:0|1:0,1:0:0:0:
379,65,141475,2,0,B|346:52|295:69,1,85,0|10,1:0|1:0,1:0:0:0:
156,31,141862,6,0,B|145:80|160:129,1,85,0|10,1:0|1:0,1:0:0:0:
143,142,142152,1,0,1:0:0:0:
162,164,142249,1,2,1:0:0:0:
178,189,142346,1,0,1:0:0:0:
188,216,142442,1,10,1:0:0:0:
188,245,142539,1,0,1:0:0:0:
217,243,142636,5,2,1:0:0:0:
242,258,142733,1,0,1:0:0:0:
271,261,142829,1,10,1:0:0:0:
300,256,142926,1,0,1:0:0:0:
327,245,143023,2,0,B|359:238|388:245,2,42.5,2|0|10,1:0|1:0|1:0,1:0:0:0:
484,306,143410,5,6,1:0:0:0:
436,180,143604,2,0,B|430:147|435:115,1,42.5,10|0,1:0|1:0,1:0:0:0:
370,96,143797,1,4,1:2:0:0:
340,91,143894,1,0,1:0:0:0:
310,95,143991,1,10,1:0:0:0:
282,105,144087,1,8,1:0:0:0:
253,113,144184,1,0,1:0:0:0:
223,111,144281,1,8,1:0:0:0:
194,101,144378,2,0,B|175:58|186:16,1,85,10|4,1:0|1:2,1:0:0:0:
68,223,144765,5,8,1:0:0:0:
68,223,144862,1,2,1:0:0:0:
68,223,144958,2,0,B|140:211|132:237|203:221,1,127.5,0|0,1:0|1:0,1:0:0:0:
223,204,145346,2,0,B|212:254|226:307,1,85,4|8,1:2|1:0,1:0:0:0:
309,358,145733,1,2,1:0:0:0:
310,179,145926,2,0,B|321:129|307:76,1,85,10|4,1:0|1:2,1:0:0:0:
154,144,146313,1,10,1:0:0:0:
237,239,146507,1,6,1:0:0:0:
436,160,146894,6,0,B|463:165|484:160,3,42.5,0|8|8|0,1:0|1:0|1:0|1:0,1:0:0:0:
403,83,147281,2,0,B|376:78|355:83,3,42.5,2|0|10|0,1:0|1:0|1:0|1:0,1:0:0:0:
290,126,147668,1,2,1:0:0:0:
374,321,147862,1,10,1:0:0:0:
365,199,148055,5,4,1:2:0:0:
351,211,148152,2,0,B|304:195|258:215,1,85,8|8,1:0|1:0,1:0:0:0:
206,256,148442,1,8,1:0:0:0:
192,244,148539,2,0,B|145:260|108:243,1,85,8|8,1:0|1:0,1:0:0:0:
40,190,148829,5,4,1:2:0:0:
26,163,148926,1,8,1:0:0:0:
22,133,149023,1,8,1:0:0:0:
30,104,149120,1,8,1:0:0:0:
47,79,149217,1,4,1:3:0:0:
72,63,149313,1,4,1:3:0:0:
101,56,149410,1,4,1:3:0:0:
130,60,149507,1,4,1:3:0:0:
162,87,149604,6,0,B|230:106|296:87,2,127.5,6|2|10,1:0|1:0|1:0,1:0:0:0:
419,29,150378,2,2,B|362:78|384:146,1,127.5,2|0,1:0|1:0,1:0:0:0:
469,153,150765,1,2,1:0:0:0:
472,173,150862,1,0,1:0:0:0:
470,193,150958,1,8,1:0:0:0:
285,289,151152,6,0,B|253:218|278:147,2,127.5,6|2|10,1:0|1:0|1:0,1:0:0:0:
62,168,151926,2,0,B|131:155|145:83,1,127.5,2|8,1:0|1:0,1:0:0:0:
210,29,152313,1,0,1:0:0:0:
231,28,152410,1,8,1:0:0:0:
252,28,152507,1,8,1:0:0:0:
369,112,152700,5,6,1:0:0:0:
242,117,152894,1,8,1:0:0:0:
229,132,152991,2,0,B|204:196|230:261,1,127.5,2|10,1:0|1:0,1:0:0:0:
293,335,153475,1,2,1:0:0:0:
335,235,153668,1,10,1:0:0:0:
124,254,153862,1,2,1:0:0:0:
174,344,154055,1,10,1:0:0:0:
379,329,154249,6,2,B|393:234|353:253|371:154,1,170,6|0,1:0|1:0,1:0:0:0:
170,31,154829,1,10,1:0:0:0:
170,31,154926,1,2,1:0:0:0:
170,31,155023,2,0,B|149:102|222:144|285:116,1,170,6|10,1:0|1:0,1:0:0:0:
375,62,155604,1,8,1:0:0:0:
476,230,155797,6,0,B|459:167|475:101,2,127.5,6|2|10,1:0|1:0|1:0,1:0:0:0:
322,213,156571,2,0,B|278:238|210:226,1,85,2|8,1:0|1:0,1:0:0:0:
138,171,156958,1,0,1:0:0:0:
93,304,157152,1,10,1:0:0:0:
93,304,157249,1,0,1:0:0:0:
93,304,157346,1,2,1:0:0:0:
254,363,157539,5,8,1:0:0:0:
275,353,157636,2,0,B|294:275|278:198,1,127.5,2|10,1:0|1:0,1:0:0:0:
279,95,158120,1,2,1:0:0:0:
408,83,158313,1,10,1:0:0:0:
422,216,158507,1,2,1:0:0:0:
161,191,158700,5,10,1:0:0:0:
145,182,158797,1,0,1:0:0:0:
129,174,158894,2,0,B|112:104|128:39,2,127.5,6|2|10,1:0|1:0|1:0,1:0:0:0:
51,251,159668,1,0,1:0:0:0:
201,215,159862,1,8,1:0:0:0:
315,276,160055,1,0,1:0:0:0:
402,205,160249,5,10,1:0:0:0:
418,196,160346,1,0,1:0:0:0:
434,188,160442,2,0,B|451:118|435:53,2,127.5,6|2|10,1:0|1:0|1:0,1:0:0:0:
512,265,161216,1,0,1:0:0:0:
362,229,161410,1,10,1:0:0:0:
248,290,161604,1,8,1:0:0:0:
129,244,161797,1,10,1:0:0:0:
239,167,161991,5,6,1:0:0:0:
362,229,162184,1,8,1:0:0:0:
362,229,162281,1,2,1:0:0:0:
362,229,162378,1,0,1:0:0:0:
361,343,162571,1,10,1:0:0:0:
509,166,162765,6,0,B|464:182|414:167,1,85,0|10,1:0|1:0,1:0:0:0:
399,154,163055,1,0,1:0:0:0:
369,148,163152,1,8,1:0:0:0:
339,149,163249,1,8,1:0:0:0:
313,164,163346,1,8,1:0:0:0:
292,185,163442,1,8,1:0:0:0:
284,213,163539,1,4,1:2:0:0:
256,192,163733,12,4,165087,1:0:0:0:
134,87,177474,6,0,B|97:167|140:238,1,153,4|8,1:0|1:0,2:0:0:0:
240,295,178054,1,2,1:0:0:0:
405,202,178248,2,0,B|362:192|323:210,1,76.5000000000001,0|2,2:0|2:0,2:0:0:0:
427,220,178635,2,0,B|470:230|509:212,1,76.5000000000001,10|10,1:0|1:0,2:0:0:0:
271,21,179022,6,0,B|292:77|277:146,1,114.75,8|0,1:3|2:0,2:0:0:0:
267,151,179409,1,8,1:0:0:0:
108,229,179603,1,8,1:3:0:0:
108,229,179699,1,0,2:0:0:0:
108,229,179796,2,0,B|95:182|106:141,1,76.5000000000001,0|0,1:0|2:0,2:0:0:0:
276,240,180183,2,0,B|334:267|405:248,1,114.75,10|0,1:0|2:0,2:0:0:0:
409,239,180570,6,0,L|415:153,1,76.5000000000001,4|2,1:0|2:0,2:0:0:0:
368,377,180957,1,8,1:0:0:0:
158,318,181151,2,0,B|198:305|241:308,1,76.5000000000001,2|0,1:0|1:0,2:0:0:0:
35,201,181538,1,0,1:0:0:0:
35,201,181635,1,0,2:0:0:0:
35,201,181732,2,0,B|66:228|71:277,1,76.5000000000001,10|2,1:0|1:0,2:0:0:0:
111,111,182119,6,0,B|168:136|229:115,1,114.75,8|0,1:3|2:0,2:0:0:0:
240,136,182506,2,0,B|284:115|327:121,1,76.5000000000001,8|8,1:0|2:3,2:0:0:0:
428,24,182893,1,0,1:0:0:0:
439,52,182990,1,2,1:0:0:0:
445,81,183086,1,0,1:0:0:0:
446,111,183183,1,0,2:0:0:0:
438,140,183280,2,0,B|419:195|437:259,1,114.75,10|0,1:0|2:0,2:0:0:0:
418,270,183667,6,0,B|381:282|329:268,1,76.5000000000001,4|0,1:0|2:0,2:0:0:0:
160,240,184054,2,0,B|224:270|218:350,1,114.75,8|0,1:0|2:0,2:0:0:0:
219,352,184441,1,0,1:0:0:0:
291,198,184635,1,0,1:0:0:0:
291,198,184732,1,0,2:0:0:0:
291,198,184828,2,0,B|283:153|293:90,1,76.5000000000001,10|0,1:0|2:0,2:0:0:0:
194,51,185216,6,0,B|129:31|53:56,1,114.75,8|0,1:3|2:0,2:0:0:0:
58,37,185603,1,8,1:0:0:0:
0,175,185796,2,0,B|59:191|114:178,1,114.75,8|2,1:3|1:0,2:0:0:0:
135,162,186183,1,0,1:0:0:0:
198,282,186377,1,10,1:0:0:0:
394,218,186570,5,0,2:0:0:0:
394,218,186667,1,0,2:0:0:0:
394,218,186764,2,0,B|417:273|394:341,1,114.75,8|0,1:3|2:0,2:0:0:0:
407,349,187151,1,8,1:0:0:0:
295,287,187345,1,8,1:3:0:0:
146,161,187538,5,0,1:0:0:0:
146,161,187635,1,0,1:0:0:0:
146,161,187732,1,0,1:0:0:0:
283,152,187925,1,8,1:0:0:0:
146,161,188119,1,8,1:0:0:0:
395,183,188312,6,0,B|407:138|397:90,2,85,8|2|2,1:3|2:0|2:0,2:0:0:0:
487,225,189280,1,0,2:0:0:0:
487,225,189474,1,0,2:0:0:0:
123,359,189861,6,0,B|97:298|120:240,1,114.75,4|0,1:0|2:0,2:0:0:0:
106,225,190248,1,8,1:0:0:0:
246,296,190441,1,8,1:0:0:0:
246,296,190538,1,0,2:0:0:0:
246,296,190635,2,0,B|293:307|334:290,1,76.5000000000001,4|0,1:0|2:0,2:0:0:0:
395,216,191022,1,8,1:0:0:0:
459,341,191216,1,8,1:0:0:0:
482,173,191409,6,0,B|439:184|385:172,1,76.5000000000001,8|0,1:3|2:0,2:0:0:0:
232,95,191796,2,0,B|275:84|329:96,1,76.5000000000001,8|8,1:0|1:3,2:0:0:0:
86,162,192183,2,0,B|15:109|48:21,1,153,0|8,1:0|1:0,2:0:0:0:
155,70,192764,1,8,1:0:0:0:
86,162,192957,6,0,B|157:215|124:303,1,153,4|8,1:2|1:0,2:0:0:0:
254,265,193538,1,8,1:0:0:0:
254,265,193635,1,0,2:0:0:0:
254,265,193732,2,0,B|300:281|345:267,1,76.5000000000001,2|0,1:0|2:0,2:0:0:0:
449,340,194119,1,10,1:0:0:0:
496,146,194312,5,8,1:0:0:0:
496,146,194409,1,0,2:0:0:0:
496,146,194506,2,2,B|429:141|387:189|402:242,1,153,6|0,1:0|2:0,1:0:0:0:
308,143,195086,1,8,1:0:0:0:
151,77,195280,2,0,B|190:88|240:71,2,76.5000000000001,2|0|8,1:0|1:0|1:0,2:0:0:0:
51,138,195861,1,8,1:0:0:0:
144,334,196054,6,0,B|116:256|148:175,1,153,6|4,1:0|1:2,1:0:0:0:
262,376,196635,1,4,1:2:0:0:
382,183,196828,2,0,B|410:254|382:332,1,153,6|4,1:0|1:2,2:0:0:0:
279,223,197409,1,4,1:2:0:0:
120,102,197603,2,0,B|160:111|205:101,1,76.5000000000001,6|0,1:0|2:0,2:0:0:0:
409,29,197990,2,0,B|419:83|352:127|298:104,2,153,8|4|10,1:0|1:2|1:0,2:0:0:0:
198,197,199151,6,0,B|141:222|150:315|199:331,1,153,6|10,1:0|1:0,2:0:0:0:
279,359,199732,1,10,1:0:0:0:
358,284,199925,1,0,2:0:0:0:
303,187,200119,1,10,1:0:0:0:
198,197,200312,2,0,B|190:155|197:107,1,76.5000000000001,10|8,1:0|1:3,2:0:0:0:
313,39,200699,5,6,1:0:0:0:
313,39,200893,1,0,2:0:0:0:
108,130,201086,5,10,1:0:0:0:
108,130,201280,1,8,1:0:0:0:
198,197,201474,5,10,1:0:0:0:
322,246,201667,1,0,2:0:0:0:
443,181,201861,1,4,2:0:0:0:
495,301,202054,1,0,3:0:0:0:
386,112,202248,5,8,1:3:0:0:
128,224,205345,6,0,B|172:239|226:221,1,85,6|8,1:0|1:0,1:0:0:0:
249,233,205635,1,0,1:0:0:0:
279,256,205732,1,0,1:0:0:0:
299,287,205828,1,0,1:0:0:0:
308,324,205925,1,10,1:0:0:0:
460,239,206119,1,0,1:0:0:0:
410,162,206312,1,8,1:0:0:0:
410,162,206409,1,0,1:0:0:0:
410,162,206506,2,0,B|397:112|409:56,1,85,2|8,1:0|1:0,1:0:0:0:
262,108,206893,6,0,B|214:125|165:107,1,85,6|8,1:0|1:0,1:0:0:0:
141,123,207183,1,0,1:0:0:0:
104,110,207280,1,0,1:0:0:0:
81,78,207377,1,0,1:0:0:0:
77,39,207474,1,10,1:0:0:0:
28,243,207667,5,0,1:0:0:0:
188,197,207861,1,8,1:0:0:0:
188,197,207957,1,0,1:0:0:0:
188,197,208054,2,0,B|234:206|279:195,1,85,2|8,1:0|1:0,1:0:0:0:
416,144,208441,6,0,B|385:207|408:274,1,127.5,6|0,1:0|1:0,1:0:0:0:
396,288,208828,1,0,1:0:0:0:
284,313,209022,1,10,1:0:0:0:
261,332,209119,1,0,1:0:0:0:
238,351,209215,1,0,1:0:0:0:
130,293,209409,1,8,1:0:0:0:
22,307,209603,2,0,B|-4:244|13:175,1,127.5,2|0,1:0|1:0,1:0:0:0:
25,161,209990,6,0,B|71:171|120:161,1,85,2|8,1:0|1:0,1:0:0:0:
255,243,210377,1,0,1:0:0:0:
297,52,210570,2,0,B|240:65|205:57,1,85,10|0,1:0|1:0,1:0:0:0:
260,151,210957,1,8,1:0:0:0:
260,151,211054,1,0,1:0:0:0:
260,151,211151,1,8,1:3:0:0:
366,111,211345,1,8,1:0:0:0:
125,72,211538,6,0,B|87:133|122:208,1,127.5,8|0,1:3|1:0,1:0:0:0:
108,210,211925,1,0,1:0:0:0:
0,280,212119,2,0,B|84:289|116:357,1,127.5,8|0,1:0|1:0,1:0:0:0:
115,357,212506,1,8,1:0:0:0:
228,316,212699,1,8,1:3:0:0:
228,316,212796,1,0,1:0:0:0:
228,316,212893,1,8,1:0:0:0:
355,320,213086,6,0,B|345:270|356:220,1,85,8|8,1:3|1:0,1:0:0:0:
478,126,213474,2,0,B|488:176|477:226,1,85,0|8,1:0|1:0,1:0:0:0:
154,260,213861,2,0,B|144:210|155:160,1,85,0|8,1:0|1:0,1:0:0:0:
319,140,214248,2,0,B|329:190|318:240,1,85,8|8,1:3|1:0,1:0:0:0:
239,361,214635,5,4,1:0:0:0:
44,292,214828,1,8,1:0:0:0:
44,292,214925,1,0,1:0:0:0:
44,292,215022,2,0,B|89:276|145:280,1,85,0|8,1:0|1:0,1:0:0:0:
152,175,215409,1,0,1:0:0:0:
189,184,215506,1,0,1:0:0:0:
227,185,215603,1,8,1:0:0:0:
264,178,215699,1,0,1:0:0:0:
299,164,215796,1,8,1:3:0:0:
409,240,215990,1,10,1:0:0:0:
458,80,216183,5,4,1:2:0:0:
458,80,216570,5,4,1:2:0:0:
409,205,216764,1,8,1:0:0:0:
504,304,216957,1,4,1:2:0:0:
409,205,217151,1,8,1:0:0:0:
279,233,217345,1,4,1:2:0:0:
245,237,217441,1,0,1:0:0:0:
211,241,217538,1,8,1:0:0:0:
177,245,217635,1,8,1:0:0:0:
143,249,217732,6,0,B|117:190|133:115,1,127.5,6|0,1:0|1:0,1:0:0:0:
121,108,218119,1,0,1:0:0:0:
315,23,218312,2,0,B|252:65|265:138,1,127.5,10|0,1:0|1:0,1:0:0:0:
258,155,218699,1,8,1:0:0:0:
386,123,218893,1,2,1:0:0:0:
386,123,218990,1,0,1:0:0:0:
386,123,219086,1,10,1:0:0:0:
383,317,219280,5,6,1:0:0:0:
201,259,219474,2,0,B|246:245|301:249,1,85,8|0,1:0|1:0,1:0:0:0:
78,121,219861,1,10,1:0:0:0:
78,121,219957,1,0,1:0:0:0:
78,121,220054,2,0,B|107:161|99:224,1,85,0|8,1:0|1:0,1:0:0:0:
35,359,220441,2,0,B|59:324|105:305,1,85,2|8,1:0|1:0,1:0:0:0:
246,339,220828,5,6,1:0:0:0:
246,339,220925,1,0,1:0:0:0:
246,339,221022,1,8,1:0:0:0:
339,227,221215,1,0,1:0:0:0:
247,127,221409,1,10,1:0:0:0:
247,127,221506,1,0,1:0:0:0:
247,127,221603,1,0,1:0:0:0:
140,230,221796,2,0,B|185:239|245:226,1,85,0|2,1:0|1:0,1:0:0:0:
401,292,222183,1,8,1:0:0:0:
442,93,222377,6,0,B|365:86|329:150,1,127.5,6|0,1:0|1:0,1:0:0:0:
313,134,222764,2,0,B|262:154|204:137,1,85,8|10,1:3|1:0,1:0:0:0:
194,127,223054,1,0,1:0:0:0:
155,128,223151,1,0,1:0:0:0:
122,148,223248,1,0,1:0:0:0:
102,181,223344,1,8,1:0:0:0:
21,108,223538,1,8,1:3:0:0:
0,277,223732,5,8,1:0:0:0:
0,277,223828,1,0,1:0:0:0:
0,277,223925,2,0,B|45:267|102:274,1,85,8|8,1:3|1:0,1:0:0:0:
185,343,224312,1,0,1:0:0:0:
352,270,224506,2,0,B|336:201|352:126,1,127.5,8|0,1:0|1:0,1:0:0:0:
333,123,224893,1,8,1:0:0:0:
239,204,225086,1,8,1:3:0:0:
465,199,225280,5,8,1:0:0:0:
465,199,225377,1,0,1:0:0:0:
465,199,225474,2,0,L|477:106,1,85,8|8,1:3|1:0,1:0:0:0:
224,24,225861,2,0,B|256:87|247:173,1,127.5,0|0,1:0|1:0,1:0:0:0:
244,171,226248,1,0,1:0:0:0:
365,150,226441,1,8,1:0:0:0:
407,263,226635,1,8,1:3:0:0:
407,263,226732,1,0,1:0:0:0:
407,263,226828,1,8,1:0:0:0:
305,340,227022,6,0,B|261:351|212:339,1,85,8|8,1:3|1:0,1:0:0:0:
14,221,227409,2,0,B|58:210|107:222,1,85,8|8,1:3|1:0,1:0:0:0:
305,161,227796,1,0,1:0:0:0:
248,257,227990,1,8,1:0:0:0:
183,167,228183,2,0,B|152:96|174:29,1,127.5,8|0,1:3|1:0,1:0:0:0:
157,25,228570,1,8,1:3:0:0:
298,55,228764,1,8,1:0:0:0:
423,69,228957,1,8,1:0:0:0:
434,87,229054,1,8,1:0:0:0:
402,242,229248,5,8,1:0:0:0:
384,258,229344,2,0,B|353:265|327:260,3,42.5,4|4|8|4,1:3|1:3|1:0|1:3,1:0:0:0:
267,223,229732,2,0,B|255:219|224:226,3,42.5,8|8|8|8,1:3|1:0|1:0|1:0,1:0:0:0:
154,274,230119,5,6,1:0:0:0:
1,141,230312,2,0,B|42:153|98:139,1,85,8|2,1:0|1:0,1:0:0:0:
273,10,230699,2,0,B|305:63|281:153,1,127.5,10|0,1:0|1:0,1:0:0:0:
296,153,231086,1,10,1:0:0:0:
393,255,231280,1,10,1:0:0:0:
388,275,231377,1,0,1:0:0:0:
383,295,231474,1,8,1:0:0:0:
259,357,231667,6,0,B|247:305|262:262,1,85,6|10,1:0|1:0,1:0:0:0:
55,179,232054,1,0,1:0:0:0:
148,345,232248,1,10,1:0:0:0:
241,232,232441,2,0,B|195:247|135:234,1,85,0|10,1:0|1:0,1:0:0:0:
347,124,232828,2,0,B|393:109|453:122,1,85,8|8,1:3|1:0,1:0:0:0:
360,266,233215,5,6,1:0:0:0:
200,145,233409,1,8,1:0:0:0:
200,145,233506,1,0,1:0:0:0:
200,145,233603,2,0,B|185:93|194:42,1,85,2|10,1:0|1:0,1:0:0:0:
28,274,233990,1,0,1:0:0:0:
249,214,234183,1,10,1:0:0:0:
82,125,234377,1,2,1:0:0:0:
205,289,234570,1,10,1:0:0:0:
392,235,234764,6,0,B|385:184|392:135,1,85,6|8,1:0|1:0,1:0:0:0:
397,130,235054,1,0,1:0:0:0:
407,111,235151,1,2,1:0:0:0:
477,304,235344,1,10,1:0:0:0:
305,233,235538,1,0,1:0:0:0:
276,240,235635,1,0,1:0:0:0:
246,242,235732,1,10,1:0:0:0:
216,238,235828,1,0,1:0:0:0:
186,231,235925,1,8,1:3:0:0:
85,284,236119,1,8,1:0:0:0:
58,67,236312,6,0,B|106:108|98:199,1,127.5,8|0,1:3|1:0,1:0:0:0:
97,200,236699,1,2,1:0:0:0:
236,133,236893,2,0,B|294:164|365:148,1,127.5,10|0,1:0|1:0,1:0:0:0:
378,159,237280,1,8,1:0:0:0:
507,79,237474,1,2,1:0:0:0:
500,107,237570,1,0,1:0:0:0:
493,135,237667,1,10,1:0:0:0:
503,274,237861,5,6,1:0:0:0:
377,243,238054,1,12,1:2:0:0:
296,331,238248,2,0,B|252:354|196:345,1,85,2|10,1:0|1:0,1:0:0:0:
0,186,238635,5,2,1:0:0:0:
133,223,238828,1,12,1:2:0:0:
225,123,239022,2,0,B|269:100|325:109,1,85,2|2,1:0|1:0,1:0:0:0:
420,41,239409,6,0,B|463:98|439:178,1,127.5,6|2,1:0|1:0,1:0:0:0:
434,184,239796,1,0,1:0:0:0:
437,351,239990,1,12,1:2:0:0:
437,351,240086,1,0,1:0:0:0:
437,351,240183,2,0,B|374:305|300:328,1,127.5,8|0,1:3|1:0,1:0:0:0:
295,339,240570,1,2,1:0:0:0:
171,374,240764,1,10,1:0:0:0:
72,314,240957,1,4,1:2:0:0:
72,314,241344,5,4,1:2:0:0:
220,265,241538,1,8,1:0:0:0:
223,171,241732,1,4,1:2:0:0:
146,216,241925,1,8,1:0:0:0:
300,225,242119,5,8,1:0:0:0:
307,196,242215,1,8,1:0:0:0:
310,166,242312,1,8,1:0:0:0:
313,136,242409,1,0,1:0:0:0:
313,106,242506,6,0,B|377:126|444:107,1,127.5,6|0,1:0|1:0,1:0:0:0:
455,123,242893,1,0,1:0:0:0:
409,309,243086,2,0,B|392:258|411:203,1,85,10|0,1:0|1:0,1:0:0:0:
294,264,243474,1,8,1:0:0:0:
294,264,243570,1,0,1:0:0:0:
294,264,243667,2,0,B|250:285|189:271,1,85,2|8,1:0|1:0,1:0:0:0:
25,180,244054,6,0,B|97:218|79:306,1,127.5,6|0,1:0|1:0,1:0:0:0:
80,302,244441,1,0,1:0:0:0:
181,177,244635,1,10,1:0:0:0:
181,177,244732,1,0,1:0:0:0:
181,177,244828,2,0,B|158:134|171:93,1,85,0|8,1:0|1:0,1:0:0:0:
307,45,245215,1,2,1:0:0:0:
323,74,245312,1,0,1:0:0:0:
329,107,245409,1,8,1:0:0:0:
327,141,245506,1,0,1:0:0:0:
313,172,245603,6,0,B|381:145|454:173,1,127.5,6|0,1:0|1:0,1:0:0:0:
451,182,245990,1,0,1:0:0:0:
372,358,246183,1,10,1:0:0:0:
216,272,246377,1,0,1:0:0:0:
216,272,246474,1,0,1:0:0:0:
216,272,246570,1,8,1:0:0:0:
102,291,246764,2,0,B|88:242|100:189,1,85,8|8,1:3|1:0,1:0:0:0:
173,38,247151,6,0,B|220:95|188:169,1,127.5,6|8,1:0|1:0,1:0:0:0:
196,179,247538,1,0,1:0:0:0:
4,123,247732,1,14,1:0:0:0:
4,123,247828,1,0,1:0:0:0:
4,123,247925,2,0,B|55:135|97:119,1,85,0|8,1:0|1:0,1:0:0:0:
210,78,248312,1,8,1:3:0:0:
319,152,248506,1,12,1:2:0:0:
461,92,248699,6,0,B|430:154|455:241,1,127.5,6|0,1:0|1:0,1:0:0:0:
457,235,249086,1,0,1:0:0:0:
345,334,249280,1,10,1:0:0:0:
345,334,249377,1,0,1:0:0:0:
345,334,249474,1,0,1:0:0:0:
229,264,249667,1,8,1:0:0:0:
258,134,249861,5,2,1:0:0:0:
379,118,250054,1,8,1:0:0:0:
425,217,250248,6,0,B|382:234|325:230,1,85,6|8,1:0|1:0,1:0:0:0:
231,361,250635,2,0,B|214:318|218:261,1,85,0|10,1:0|1:0,1:0:0:0:
87,167,251022,2,0,B|130:150|187:154,1,85,0|8,1:0|1:0,1:0:0:0:
281,23,251409,2,0,B|298:66|294:123,1,85,8|8,1:3|1:0,1:0:0:0:
244,246,251796,6,0,B|172:270|114:248,1,127.5,4|0,1:2|1:0,1:0:0:0:
105,237,252183,1,4,1:2:0:0:
274,331,252377,1,8,1:0:0:0:
382,147,252570,6,0,B|318:183|329:259,1,127.5,4|0,1:2|1:0,1:0:0:0:
340,269,252957,1,4,1:2:0:0:
437,233,253151,1,8,1:0:0:0:
273,86,253344,5,6,1:0:0:0:
229,160,253538,1,8,1:0:0:0:
100,228,253732,5,6,1:0:0:0:
179,254,253925,1,8,1:0:0:0:
262,353,254119,5,6,1:0:0:0:
332,290,254312,1,8,1:0:0:0:
433,298,254506,5,4,1:2:0:0:
428,272,254603,1,0,1:0:0:0:
427,246,254699,1,10,1:0:0:0:
427,220,254796,1,0,1:0:0:0:
430,194,254893,1,4,1:0:0:0:
244,83,256248,5,8,2:1:0:0:
244,83,256344,1,0,1:0:0:0:
244,83,256441,2,0,B|183:113|93:86,1,127.5,4|0,1:0|2:0,2:0:0:0:
20,182,257022,1,4,2:3:0:0:
20,182,257119,1,0,1:0:0:0:
20,182,257215,2,0,B|48:225|38:287,2,95.6250000000002,0|0|0,1:0|1:0|1:0,2:0:0:0:
165,245,257990,6,0,B|246:237|291:299|291:299|313:281|349:281,1,191.25,4|0,1:0|2:0,2:0:0:0:
463,283,258764,1,0,1:0:0:0:
475,257,258861,1,0,1:0:0:0:
481,229,258957,1,0,1:0:0:0:
484,200,259054,1,0,1:0:0:0:
479,171,259151,2,0,B|452:167|436:170,2,31.8750000000001,0|0|0,1:0|1:0|1:0,2:0:0:0:
474,87,259538,5,4,1:0:0:0:
260,167,259925,5,4,1:2:0:0:
57,100,260312,5,12,1:2:0:0:
111,335,261086,5,6,1:0:0:0:
203,289,261280,1,0,1:0:0:0:
228,293,261377,1,0,1:0:0:0:
253,297,261474,1,0,1:0:0:0:
277,301,261570,1,0,1:0:0:0:
302,305,261667,1,0,1:0:0:0:
426,333,261861,5,2,1:0:0:0:
377,191,262054,1,0,1:0:0:0:
345,196,262151,1,0,1:0:0:0:
313,201,262248,1,0,1:0:0:0:
281,206,262344,1,0,1:0:0:0:
249,211,262441,1,0,1:0:0:0:
130,156,262635,6,0,B|117:110|130:69,1,76.5000000000001,6|2,1:0|1:0,2:0:0:0:
385,80,263022,2,0,B|395:110|382:156,1,76.5000000000001,2|2,1:0|1:0,2:0:0:0:
256,284,263409,2,2,B|268:196|239:219|252:131,1,153,2|0,1:0|2:0,1:0:0:0:
16,270,264183,6,0,B|104:258|148:340,1,153,4|0,1:0|1:3,2:0:0:0:
256,284,264764,1,2,1:3:0:0:
256,284,264861,1,0,2:0:0:0:
256,284,264957,2,0,B|297:298|350:284,1,76.5000000000001,0|2,1:0|1:3,2:0:0:0:
360,303,265248,2,0,B|341:240|374:173,1,114.75,0|2,1:0|1:3,2:0:0:0:
260,121,265732,6,0,B|220:137|175:128,1,76.5000000000001,6|2,1:0|1:3,2:0:0:0:
58,93,266119,1,0,1:0:0:0:
50,118,266215,1,0,2:0:0:0:
47,144,266312,1,2,1:3:0:0:
51,170,266409,1,0,2:0:0:0:
61,194,266506,1,0,1:0:0:0:
74,217,266603,1,0,2:0:0:0:
81,242,266699,1,2,1:3:0:0:
85,268,266796,1,0,1:0:0:0:
83,294,266893,2,0,B|61:303|34:300,3,38.25,0|0|2|0,1:3|1:0|1:3|1:0,2:0:0:0:
159,344,267280,5,4,1:0:0:0:
256,192,267474,12,0,270377,2:0:0:0:
