osu file format v14

[General]
AudioFilename: audio.mp3
AudioLeadIn: 0
PreviewTime: 209935
Countdown: 0
SampleSet: Soft
StackLeniency: 0.7
Mode: 3
LetterboxInBreaks: 0
SpecialStyle: 0
WidescreenStoryboard: 0

[Editor]
DistanceSpacing: 2
BeatDivisor: 8
GridSize: 8
TimelineZoom: 2.799999

[Metadata]
Title:Sky Should be High -Vocal Version-
TitleUnicode:Sky Should be High -Vocal Version-
Artist:Daisuke Ishiwatari
ArtistUnicode:Daisuke Ishiwatari
Creator:Spicy Meme
Version:Heaven or Hell
Source:Guilty Gear Xrd -REVELATOR- OST
Tags:Guilty Gear Sky Should Be High Daisuke Ishiwatari Revelator
BeatmapID:1163922
BeatmapSetID:549658

[Difficulty]
HPDrainRate:8
CircleSize:4
OverallDifficulty:8
ApproachRate:5
SliderMultiplier:1.4
SliderTickRate:1

[Events]
//Background and Video events
0,0,"GGXRD_Millia_Winger.png",0,0
//Break Periods
//Storyboard Layer 0 (Background)
//Storyboard Layer 1 (Fail)
//Storyboard Layer 2 (Pass)
//Storyboard Layer 3 (Foreground)
//Storyboard Sound Samples

[TimingPoints]
371,387.09708537529,4,2,0,20,1,0
234951,387.096774193548,4,2,0,20,1,1
260499,387.096774193548,4,2,0,20,1,0

[HitObjects]
192,192,371,5,0,0:0:0:0:
320,192,371,1,0,0:0:0:0:
448,192,467,1,0,0:0:0:0:
192,192,564,1,0,0:0:0:0:
320,192,564,1,0,0:0:0:0:
320,192,661,1,0,0:0:0:0:
64,192,661,1,0,0:0:0:0:
448,192,758,1,0,0:0:0:0:
192,192,758,1,0,0:0:0:0:
320,192,854,1,0,0:0:0:0:
448,192,951,1,0,0:0:0:0:
192,192,951,1,0,0:0:0:0:
320,192,1048,1,0,0:0:0:0:
192,192,1048,1,0,0:0:0:0:
320,192,1145,5,0,0:0:0:0:
448,192,1145,1,0,0:0:0:0:
64,192,1241,1,0,0:0:0:0:
192,192,1241,1,0,0:0:0:0:
448,192,1338,1,0,0:0:0:0:
320,192,1338,1,0,0:0:0:0:
64,192,1435,1,0,0:0:0:0:
192,192,1435,1,0,0:0:0:0:
320,192,1532,128,0,1725:0:0:0:0:
192,192,1725,128,0,1919:0:0:0:0:
64,192,1919,1,0,0:0:0:0:
192,192,2016,1,0,0:0:0:0:
64,192,2112,1,0,0:0:0:0:
448,192,2112,128,0,2306:0:0:0:0:
320,192,2112,128,0,2306:0:0:0:0:
192,192,2306,1,0,0:0:0:0:
448,192,2403,1,0,0:0:0:0:
448,192,2500,1,0,0:0:0:0:
320,192,2500,128,0,2693:0:0:0:0:
64,192,2693,1,0,0:0:0:0:
192,192,2790,1,0,0:0:0:0:
64,192,2887,1,0,0:0:0:0:
448,192,2887,128,0,3080:0:0:0:0:
320,192,2887,128,0,3080:0:0:0:0:
192,192,3080,1,0,0:0:0:0:
192,192,3177,1,0,0:0:0:0:
64,192,3274,1,0,0:0:0:0:
320,192,3274,128,0,3467:0:0:0:0:
64,192,3467,1,0,0:0:0:0:
192,192,3564,1,0,0:0:0:0:
64,192,3661,1,0,0:0:0:0:
448,192,3661,128,0,4048:0:0:0:0:
320,192,3661,128,0,4048:0:0:0:0:
320,192,4145,1,0,0:0:0:0:
192,192,4241,1,0,0:0:0:0:
320,192,4338,1,0,0:0:0:0:
64,192,4338,1,0,0:0:0:0:
192,192,4435,1,0,0:0:0:0:
320,192,4435,1,0,0:0:0:0:
448,192,4532,1,0,0:0:0:0:
64,192,4532,1,0,0:0:0:0:
64,192,4629,1,0,0:0:0:0:
192,192,4629,1,0,0:0:0:0:
320,192,4629,128,0,4822:0:0:0:0:
192,192,4822,128,0,5016:0:0:0:0:
448,192,5016,1,0,0:0:0:0:
320,192,5112,1,0,0:0:0:0:
192,192,5209,1,0,0:0:0:0:
320,192,5209,128,0,5403:0:0:0:0:
64,192,5403,1,0,0:0:0:0:
192,192,5500,1,0,0:0:0:0:
192,192,5596,1,0,0:0:0:0:
448,192,5596,128,0,5790:0:0:0:0:
192,192,5790,1,0,0:0:0:0:
320,192,5887,1,0,0:0:0:0:
448,192,5983,1,0,0:0:0:0:
320,192,5983,128,0,6177:0:0:0:0:
192,192,6177,1,0,0:0:0:0:
64,192,6274,1,0,0:0:0:0:
64,192,6371,1,0,0:0:0:0:
192,192,6371,128,0,6564:0:0:0:0:
448,192,6564,1,0,0:0:0:0:
64,192,6758,128,0,7145:0:0:0:0:
448,192,6854,1,0,0:0:0:0:
448,192,7145,1,0,0:0:0:0:
320,192,7145,1,0,0:0:0:0:
448,192,7338,1,0,0:0:0:0:
320,192,7338,1,0,0:0:0:0:
192,192,7338,1,0,0:0:0:0:
448,192,7435,1,0,0:0:0:0:
192,192,7435,1,0,0:0:0:0:
448,192,7532,1,0,0:0:0:0:
320,192,7532,1,0,0:0:0:0:
64,192,7629,1,0,0:0:0:0:
192,192,7629,1,0,0:0:0:0:
448,192,7725,1,0,0:0:0:0:
320,192,7725,128,0,7919:0:0:0:0:
192,192,7822,1,0,0:0:0:0:
64,192,7919,1,0,0:0:0:0:
192,192,7919,128,0,8112:0:0:0:0:
448,192,8112,1,0,0:0:0:0:
192,192,8209,1,0,0:0:0:0:
320,192,8306,1,0,0:0:0:0:
192,192,8306,128,0,8500:0:0:0:0:
64,192,8306,128,0,8500:0:0:0:0:
448,192,8500,1,0,0:0:0:0:
320,192,8596,1,0,0:0:0:0:
192,192,8693,1,0,0:0:0:0:
64,192,8693,128,0,8887:0:0:0:0:
320,192,8887,1,0,0:0:0:0:
192,192,8983,1,0,0:0:0:0:
448,192,9080,1,0,0:0:0:0:
64,192,9080,128,0,9274:0:0:0:0:
192,192,9080,128,0,9274:0:0:0:0:
320,192,9274,1,0,0:0:0:0:
448,192,9371,1,0,0:0:0:0:
448,192,9467,1,0,0:0:0:0:
320,192,9467,1,0,0:0:0:0:
64,192,9467,128,0,9661:0:0:0:0:
192,192,9661,1,0,0:0:0:0:
448,192,9661,1,0,0:0:0:0:
192,192,9854,128,0,10241:0:0:0:0:
64,192,9854,128,0,10241:0:0:0:0:
320,192,9951,1,0,0:0:0:0:
448,192,9951,1,0,0:0:0:0:
320,192,10241,1,0,0:0:0:0:
448,192,10241,1,0,0:0:0:0:
192,192,10435,1,0,0:0:0:0:
320,192,10435,1,0,0:0:0:0:
448,192,10435,1,0,0:0:0:0:
448,192,10532,1,0,0:0:0:0:
192,192,10532,1,0,0:0:0:0:
64,192,10629,1,0,0:0:0:0:
320,192,10629,1,0,0:0:0:0:
448,192,10725,1,0,0:0:0:0:
192,192,10725,1,0,0:0:0:0:
320,192,10822,128,0,11016:0:0:0:0:
192,192,11016,128,0,11209:0:0:0:0:
448,192,11209,1,0,0:0:0:0:
192,192,11306,1,0,0:0:0:0:
448,192,11403,1,0,0:0:0:0:
320,192,11403,128,0,11596:0:0:0:0:
192,192,11596,1,0,0:0:0:0:
64,192,11693,1,0,0:0:0:0:
192,192,11790,1,0,0:0:0:0:
320,192,11790,128,0,11983:0:0:0:0:
448,192,11790,128,0,11983:0:0:0:0:
64,192,11887,1,0,0:0:0:0:
192,192,11983,1,0,0:0:0:0:
64,192,11983,1,0,0:0:0:0:
448,192,12177,128,0,12371:0:0:0:0:
192,192,12177,128,0,12371:0:0:0:0:
448,192,12564,1,0,0:0:0:0:
192,192,12564,128,0,12758:0:0:0:0:
320,192,12564,128,0,12758:0:0:0:0:
64,192,12758,1,0,0:0:0:0:
448,192,12758,1,0,0:0:0:0:
64,192,12951,128,0,13338:0:0:0:0:
320,192,12951,128,0,13338:0:0:0:0:
448,192,13338,1,0,0:0:0:0:
448,192,13532,1,0,0:0:0:0:
192,192,13532,1,0,0:0:0:0:
64,192,13532,1,0,0:0:0:0:
320,192,13629,1,0,0:0:0:0:
64,192,13725,1,0,0:0:0:0:
192,192,13822,1,0,0:0:0:0:
448,192,13822,1,0,0:0:0:0:
320,192,13919,128,0,14112:0:0:0:0:
192,192,14112,128,0,14306:0:0:0:0:
448,192,14403,1,0,0:0:0:0:
192,192,14403,1,0,0:0:0:0:
320,192,14500,1,0,0:0:0:0:
64,192,14500,1,0,0:0:0:0:
448,192,14596,1,0,0:0:0:0:
192,192,14596,1,0,0:0:0:0:
448,192,14693,1,0,0:0:0:0:
64,192,14693,1,0,0:0:0:0:
320,192,14693,128,0,14887:0:0:0:0:
192,192,14887,128,0,15080:0:0:0:0:
448,192,15177,1,0,0:0:0:0:
192,192,15177,1,0,0:0:0:0:
320,192,15274,1,0,0:0:0:0:
64,192,15274,1,0,0:0:0:0:
448,192,15371,1,0,0:0:0:0:
192,192,15371,1,0,0:0:0:0:
320,192,15467,1,0,0:0:0:0:
64,192,15467,1,0,0:0:0:0:
448,192,15564,1,0,0:0:0:0:
192,192,15564,1,0,0:0:0:0:
320,192,15661,1,0,0:0:0:0:
64,192,15661,1,0,0:0:0:0:
448,192,15758,1,0,0:0:0:0:
192,192,15758,1,0,0:0:0:0:
448,192,15854,1,0,0:0:0:0:
192,192,15854,1,0,0:0:0:0:
448,192,15951,1,0,0:0:0:0:
320,192,15951,1,0,0:0:0:0:
64,192,16048,1,0,0:0:0:0:
192,192,16048,1,0,0:0:0:0:
320,192,16145,1,0,0:0:0:0:
192,192,16145,1,0,0:0:0:0:
320,192,16241,128,0,16435:0:0:0:0:
448,192,16435,128,0,16629:0:0:0:0:
192,192,16629,1,0,0:0:0:0:
64,192,16725,1,0,0:0:0:0:
192,192,16725,1,0,0:0:0:0:
64,192,16822,1,0,0:0:0:0:
192,192,16919,1,0,0:0:0:0:
320,192,17016,128,0,17209:0:0:0:0:
192,192,17209,128,0,17403:0:0:0:0:
448,192,17500,1,0,0:0:0:0:
192,192,17500,1,0,0:0:0:0:
320,192,17596,1,0,0:0:0:0:
64,192,17596,1,0,0:0:0:0:
448,192,17693,1,0,0:0:0:0:
192,192,17693,1,0,0:0:0:0:
448,192,17790,1,0,0:0:0:0:
64,192,17790,1,0,0:0:0:0:
320,192,17790,128,0,17983:0:0:0:0:
192,192,17983,128,0,18177:0:0:0:0:
448,192,18274,1,0,0:0:0:0:
192,192,18274,1,0,0:0:0:0:
320,192,18371,1,0,0:0:0:0:
64,192,18371,1,0,0:0:0:0:
448,192,18467,1,0,0:0:0:0:
192,192,18467,1,0,0:0:0:0:
320,192,18564,1,0,0:0:0:0:
64,192,18564,1,0,0:0:0:0:
448,192,18661,1,0,0:0:0:0:
192,192,18661,1,0,0:0:0:0:
320,192,18758,1,0,0:0:0:0:
64,192,18758,1,0,0:0:0:0:
448,192,18854,1,0,0:0:0:0:
192,192,18854,1,0,0:0:0:0:
448,192,18951,1,0,0:0:0:0:
320,192,19048,1,0,0:0:0:0:
64,192,19145,1,0,0:0:0:0:
192,192,19145,1,0,0:0:0:0:
320,192,19241,1,0,0:0:0:0:
192,192,19241,1,0,0:0:0:0:
320,192,19338,128,0,19532:0:0:0:0:
64,192,19435,1,0,0:0:0:0:
192,192,19532,1,0,0:0:0:0:
448,192,19532,128,0,19725:0:0:0:0:
64,192,19629,1,0,0:0:0:0:
64,192,19725,1,0,0:0:0:0:
320,192,19790,1,0,0:0:0:0:
192,192,19854,1,0,0:0:0:0:
64,192,19919,1,0,0:0:0:0:
448,192,19919,1,0,0:0:0:0:
320,192,19919,1,0,0:0:0:0:
192,192,19983,1,0,0:0:0:0:
320,192,20048,1,0,0:0:0:0:
192,192,20112,1,0,0:0:0:0:
64,192,20177,1,0,0:0:0:0:
448,192,20177,1,0,0:0:0:0:
320,192,20241,1,0,0:0:0:0:
448,192,20306,1,0,0:0:0:0:
192,192,20306,1,0,0:0:0:0:
64,192,20306,1,0,0:0:0:0:
320,192,20371,1,0,0:0:0:0:
448,192,20435,1,0,0:0:0:0:
64,192,20500,1,0,0:0:0:0:
320,192,20564,1,0,0:0:0:0:
192,192,20629,1,0,0:0:0:0:
320,192,20693,1,0,0:0:0:0:
448,192,20693,1,0,0:0:0:0:
64,192,20693,1,0,0:0:0:0:
192,192,20758,1,0,0:0:0:0:
320,192,20822,1,0,0:0:0:0:
64,192,20887,1,0,0:0:0:0:
192,192,20951,1,0,0:0:0:0:
64,192,21016,1,0,0:0:0:0:
448,192,21080,1,0,0:0:0:0:
320,192,21080,1,0,0:0:0:0:
192,192,21080,1,0,0:0:0:0:
64,192,21145,1,0,0:0:0:0:
320,192,21209,1,0,0:0:0:0:
192,192,21274,128,0,21371:0:0:0:0:
64,192,21371,128,0,21467:0:0:0:0:
192,192,21467,128,0,21564:0:0:0:0:
320,192,21467,1,0,0:0:0:0:
448,192,21467,1,0,0:0:0:0:
64,192,21564,128,0,21661:0:0:0:0:
192,192,21661,128,0,21758:0:0:0:0:
320,192,21758,128,0,21854:0:0:0:0:
192,192,21854,1,0,0:0:0:0:
64,192,21854,1,0,0:0:0:0:
448,192,21854,128,0,22048:0:0:0:0:
320,192,22048,128,0,22145:0:0:0:0:
192,192,22145,128,0,22241:0:0:0:0:
320,192,22241,128,0,22338:0:0:0:0:
448,192,22241,1,0,0:0:0:0:
64,192,22241,1,0,0:0:0:0:
192,192,22338,128,0,22435:0:0:0:0:
320,192,22435,128,0,22629:0:0:0:0:
192,192,22629,128,0,22822:0:0:0:0:
448,192,22629,1,0,0:0:0:0:
64,192,22629,1,0,0:0:0:0:
448,192,22822,1,0,0:0:0:0:
320,192,22822,1,0,0:0:0:0:
64,192,22887,1,0,0:0:0:0:
192,192,22951,1,0,0:0:0:0:
320,192,23016,1,0,0:0:0:0:
448,192,23080,1,0,0:0:0:0:
64,192,23145,1,0,0:0:0:0:
192,192,23209,1,0,0:0:0:0:
320,192,23274,1,0,0:0:0:0:
64,192,23338,1,0,0:0:0:0:
320,192,23403,1,0,0:0:0:0:
448,192,23403,1,0,0:0:0:0:
192,192,23403,1,0,0:0:0:0:
64,192,23467,1,0,0:0:0:0:
448,192,23532,1,0,0:0:0:0:
320,192,23596,1,0,0:0:0:0:
192,192,23661,1,0,0:0:0:0:
320,192,23725,1,0,0:0:0:0:
448,192,23790,1,0,0:0:0:0:
192,192,23790,1,0,0:0:0:0:
64,192,23790,1,0,0:0:0:0:
320,192,23854,1,0,0:0:0:0:
192,192,23919,1,0,0:0:0:0:
64,192,23983,1,0,0:0:0:0:
448,192,24048,1,0,0:0:0:0:
64,192,24112,1,0,0:0:0:0:
448,192,24177,1,0,0:0:0:0:
320,192,24177,1,0,0:0:0:0:
192,192,24177,1,0,0:0:0:0:
64,192,24241,1,0,0:0:0:0:
320,192,24306,1,0,0:0:0:0:
192,192,24371,128,0,24467:0:0:0:0:
64,192,24467,128,0,24564:0:0:0:0:
448,192,24564,1,0,0:0:0:0:
320,192,24564,1,0,0:0:0:0:
192,192,24564,128,0,24661:0:0:0:0:
64,192,24661,128,0,24758:0:0:0:0:
192,192,24758,128,0,24854:0:0:0:0:
320,192,24854,128,0,24951:0:0:0:0:
448,192,24951,128,0,25145:0:0:0:0:
64,192,24951,1,0,0:0:0:0:
192,192,24951,1,0,0:0:0:0:
320,192,25145,128,0,25241:0:0:0:0:
192,192,25241,128,0,25338:0:0:0:0:
64,192,25338,1,0,0:0:0:0:
448,192,25338,1,0,0:0:0:0:
320,192,25338,128,0,25435:0:0:0:0:
192,192,25435,128,0,25532:0:0:0:0:
320,192,25532,128,0,25725:0:0:0:0:
192,192,25725,128,0,25919:0:0:0:0:
64,192,25725,1,0,0:0:0:0:
448,192,25725,1,0,0:0:0:0:
320,192,25919,1,0,0:0:0:0:
448,192,25919,1,0,0:0:0:0:
64,192,25983,1,0,0:0:0:0:
192,192,26048,1,0,0:0:0:0:
448,192,26112,1,0,0:0:0:0:
64,192,26112,1,0,0:0:0:0:
320,192,26112,1,0,0:0:0:0:
192,192,26177,1,0,0:0:0:0:
320,192,26241,1,0,0:0:0:0:
64,192,26306,1,0,0:0:0:0:
192,192,26371,1,0,0:0:0:0:
448,192,26435,1,0,0:0:0:0:
64,192,26500,1,0,0:0:0:0:
192,192,26500,1,0,0:0:0:0:
320,192,26500,1,0,0:0:0:0:
448,192,26564,1,0,0:0:0:0:
192,192,26629,1,0,0:0:0:0:
64,192,26693,1,0,0:0:0:0:
448,192,26758,1,0,0:0:0:0:
192,192,26822,1,0,0:0:0:0:
64,192,26887,1,0,0:0:0:0:
448,192,26887,1,0,0:0:0:0:
320,192,26887,1,0,0:0:0:0:
192,192,26951,1,0,0:0:0:0:
448,192,27016,1,0,0:0:0:0:
64,192,27080,1,0,0:0:0:0:
320,192,27145,1,0,0:0:0:0:
192,192,27209,1,0,0:0:0:0:
320,192,27274,1,0,0:0:0:0:
448,192,27274,1,0,0:0:0:0:
64,192,27274,1,0,0:0:0:0:
192,192,27338,1,0,0:0:0:0:
320,192,27403,1,0,0:0:0:0:
192,192,27467,128,0,27564:0:0:0:0:
64,192,27564,128,0,27661:0:0:0:0:
192,192,27661,128,0,27758:0:0:0:0:
320,192,27661,1,0,0:0:0:0:
448,192,27661,1,0,0:0:0:0:
64,192,27758,128,0,27854:0:0:0:0:
192,192,27854,128,0,27951:0:0:0:0:
320,192,27951,128,0,28048:0:0:0:0:
192,192,28048,1,0,0:0:0:0:
64,192,28048,1,0,0:0:0:0:
448,192,28048,128,0,28241:0:0:0:0:
320,192,28241,128,0,28338:0:0:0:0:
192,192,28338,128,0,28435:0:0:0:0:
320,192,28435,128,0,28532:0:0:0:0:
448,192,28435,1,0,0:0:0:0:
64,192,28435,1,0,0:0:0:0:
192,192,28532,128,0,28629:0:0:0:0:
320,192,28629,128,0,28822:0:0:0:0:
448,192,28822,1,0,0:0:0:0:
64,192,28822,1,0,0:0:0:0:
192,192,28822,128,0,29016:0:0:0:0:
448,192,29016,1,0,0:0:0:0:
320,192,29016,1,0,0:0:0:0:
64,192,29080,1,0,0:0:0:0:
320,192,29145,1,0,0:0:0:0:
64,192,29209,1,0,0:0:0:0:
192,192,29209,1,0,0:0:0:0:
448,192,29209,1,0,0:0:0:0:
320,192,29274,1,0,0:0:0:0:
64,192,29338,1,0,0:0:0:0:
320,192,29403,1,0,0:0:0:0:
64,192,29467,1,0,0:0:0:0:
448,192,29532,1,0,0:0:0:0:
320,192,29596,1,0,0:0:0:0:
192,192,29596,1,0,0:0:0:0:
64,192,29596,1,0,0:0:0:0:
448,192,29661,1,0,0:0:0:0:
64,192,29725,1,0,0:0:0:0:
192,192,29790,1,0,0:0:0:0:
320,192,29854,1,0,0:0:0:0:
192,192,29919,1,0,0:0:0:0:
64,192,29983,1,0,0:0:0:0:
448,192,29983,1,0,0:0:0:0:
320,192,29983,1,0,0:0:0:0:
192,192,30048,1,0,0:0:0:0:
320,192,30112,1,0,0:0:0:0:
448,192,30177,1,0,0:0:0:0:
64,192,30241,1,0,0:0:0:0:
448,192,30306,1,0,0:0:0:0:
320,192,30371,1,0,0:0:0:0:
192,192,30371,1,0,0:0:0:0:
64,192,30371,1,0,0:0:0:0:
448,192,30435,1,0,0:0:0:0:
64,192,30500,1,0,0:0:0:0:
192,192,30564,128,0,30661:0:0:0:0:
64,192,30661,128,0,30758:0:0:0:0:
448,192,30758,1,0,0:0:0:0:
320,192,30758,1,0,0:0:0:0:
192,192,30758,128,0,30854:0:0:0:0:
64,192,30854,128,0,30951:0:0:0:0:
448,192,30951,1,0,0:0:0:0:
320,192,30951,1,0,0:0:0:0:
192,192,30951,128,0,31048:0:0:0:0:
320,192,31048,128,0,31145:0:0:0:0:
448,192,31145,128,0,31338:0:0:0:0:
320,192,31338,128,0,31435:0:0:0:0:
448,192,31435,1,0,0:0:0:0:
192,192,31435,128,0,31532:0:0:0:0:
64,192,31532,1,0,0:0:0:0:
320,192,31532,128,0,31629:0:0:0:0:
448,192,31629,1,0,0:0:0:0:
192,192,31629,128,0,31725:0:0:0:0:
64,192,31725,1,0,0:0:0:0:
320,192,31725,128,0,31919:0:0:0:0:
448,192,31822,1,0,0:0:0:0:
64,192,31919,1,0,0:0:0:0:
192,192,31919,128,0,32112:0:0:0:0:
448,192,32016,1,0,0:0:0:0:
64,192,32112,1,0,0:0:0:0:
320,192,32112,1,0,0:0:0:0:
64,192,32306,1,0,0:0:0:0:
448,192,32306,1,0,0:0:0:0:
320,192,32306,1,0,0:0:0:0:
448,192,32500,1,0,0:0:0:0:
192,192,32500,1,0,0:0:0:0:
64,192,32500,1,0,0:0:0:0:
320,192,32596,1,0,0:0:0:0:
192,192,32693,1,0,0:0:0:0:
320,192,32790,1,0,0:0:0:0:
448,192,32887,1,0,0:0:0:0:
192,192,32887,1,0,0:0:0:0:
64,192,32983,1,0,0:0:0:0:
192,192,33080,1,0,0:0:0:0:
320,192,33080,1,0,0:0:0:0:
64,192,33177,1,0,0:0:0:0:
448,192,33177,1,0,0:0:0:0:
192,192,33274,1,0,0:0:0:0:
320,192,33371,1,0,0:0:0:0:
64,192,33371,1,0,0:0:0:0:
192,192,33467,1,0,0:0:0:0:
448,192,33564,1,0,0:0:0:0:
448,192,33661,1,0,0:0:0:0:
320,192,33661,1,0,0:0:0:0:
192,192,33661,1,0,0:0:0:0:
320,192,33758,1,0,0:0:0:0:
448,192,33854,1,0,0:0:0:0:
64,192,33854,1,0,0:0:0:0:
192,192,33854,1,0,0:0:0:0:
192,192,33951,1,0,0:0:0:0:
64,192,34048,1,0,0:0:0:0:
320,192,34048,1,0,0:0:0:0:
192,192,34048,1,0,0:0:0:0:
448,192,34145,1,0,0:0:0:0:
64,192,34241,1,0,0:0:0:0:
320,192,34241,1,0,0:0:0:0:
192,192,34338,1,0,0:0:0:0:
448,192,34338,1,0,0:0:0:0:
64,192,34435,1,0,0:0:0:0:
320,192,34532,1,0,0:0:0:0:
192,192,34629,1,0,0:0:0:0:
64,192,34629,1,0,0:0:0:0:
448,192,34725,1,0,0:0:0:0:
320,192,34822,1,0,0:0:0:0:
192,192,34822,1,0,0:0:0:0:
448,192,34919,1,0,0:0:0:0:
64,192,35016,1,0,0:0:0:0:
320,192,35112,1,0,0:0:0:0:
320,192,35209,1,0,0:0:0:0:
192,192,35209,1,0,0:0:0:0:
64,192,35209,1,0,0:0:0:0:
320,192,35306,1,0,0:0:0:0:
448,192,35403,1,0,0:0:0:0:
64,192,35403,1,0,0:0:0:0:
192,192,35403,1,0,0:0:0:0:
192,192,35500,1,0,0:0:0:0:
448,192,35596,1,0,0:0:0:0:
320,192,35596,1,0,0:0:0:0:
64,192,35596,1,0,0:0:0:0:
192,192,35693,1,0,0:0:0:0:
320,192,35790,1,0,0:0:0:0:
64,192,35790,1,0,0:0:0:0:
192,192,35887,1,0,0:0:0:0:
448,192,35887,1,0,0:0:0:0:
320,192,35983,1,0,0:0:0:0:
448,192,36080,1,0,0:0:0:0:
320,192,36177,1,0,0:0:0:0:
64,192,36177,1,0,0:0:0:0:
448,192,36274,1,0,0:0:0:0:
192,192,36274,1,0,0:0:0:0:
64,192,36371,1,0,0:0:0:0:
448,192,36467,1,0,0:0:0:0:
320,192,36467,1,0,0:0:0:0:
192,192,36564,1,0,0:0:0:0:
320,192,36661,1,0,0:0:0:0:
192,192,36758,128,0,37048:0:0:0:0:
320,192,36758,128,0,37048:0:0:0:0:
448,192,36758,1,0,0:0:0:0:
64,192,36951,1,0,0:0:0:0:
320,192,37145,128,0,37435:0:0:0:0:
448,192,37145,128,0,37435:0:0:0:0:
64,192,37338,1,0,0:0:0:0:
192,192,37532,128,0,37919:0:0:0:0:
320,192,37532,1,0,0:0:0:0:
448,192,37532,128,0,37919:0:0:0:0:
64,192,37725,1,0,0:0:0:0:
320,192,37919,1,0,0:0:0:0:
64,192,38016,1,0,0:0:0:0:
64,192,38112,1,0,0:0:0:0:
320,192,38112,1,0,0:0:0:0:
448,192,38209,1,0,0:0:0:0:
192,192,38209,1,0,0:0:0:0:
192,192,38306,1,0,0:0:0:0:
448,192,38306,1,0,0:0:0:0:
64,192,38306,1,0,0:0:0:0:
320,192,38306,1,0,0:0:0:0:
192,192,38500,1,0,0:0:0:0:
448,192,38500,1,0,0:0:0:0:
320,192,38500,1,0,0:0:0:0:
320,192,38693,1,0,0:0:0:0:
192,192,38693,1,0,0:0:0:0:
64,192,38693,1,0,0:0:0:0:
448,192,38790,1,0,0:0:0:0:
64,192,38887,1,0,0:0:0:0:
192,192,38887,1,0,0:0:0:0:
320,192,38983,1,0,0:0:0:0:
448,192,39080,1,0,0:0:0:0:
192,192,39080,1,0,0:0:0:0:
64,192,39177,1,0,0:0:0:0:
448,192,39274,1,0,0:0:0:0:
320,192,39274,1,0,0:0:0:0:
64,192,39371,1,0,0:0:0:0:
320,192,39467,1,0,0:0:0:0:
192,192,39467,1,0,0:0:0:0:
64,192,39564,1,0,0:0:0:0:
320,192,39661,1,0,0:0:0:0:
448,192,39661,1,0,0:0:0:0:
192,192,39758,1,0,0:0:0:0:
320,192,39854,1,0,0:0:0:0:
64,192,39854,1,0,0:0:0:0:
448,192,39854,1,0,0:0:0:0:
320,192,39951,1,0,0:0:0:0:
448,192,40048,1,0,0:0:0:0:
64,192,40048,1,0,0:0:0:0:
192,192,40048,1,0,0:0:0:0:
192,192,40145,1,0,0:0:0:0:
448,192,40241,1,0,0:0:0:0:
320,192,40241,1,0,0:0:0:0:
64,192,40241,1,0,0:0:0:0:
192,192,40338,1,0,0:0:0:0:
64,192,40435,1,0,0:0:0:0:
320,192,40435,1,0,0:0:0:0:
448,192,40532,1,0,0:0:0:0:
192,192,40532,1,0,0:0:0:0:
320,192,40629,1,0,0:0:0:0:
64,192,40725,1,0,0:0:0:0:
192,192,40725,1,0,0:0:0:0:
320,192,40822,1,0,0:0:0:0:
448,192,40919,1,0,0:0:0:0:
64,192,40919,1,0,0:0:0:0:
192,192,41016,1,0,0:0:0:0:
320,192,41016,1,0,0:0:0:0:
64,192,41112,1,0,0:0:0:0:
448,192,41209,1,0,0:0:0:0:
320,192,41209,1,0,0:0:0:0:
192,192,41306,1,0,0:0:0:0:
320,192,41403,1,0,0:0:0:0:
448,192,41403,1,0,0:0:0:0:
192,192,41403,1,0,0:0:0:0:
64,192,41500,1,0,0:0:0:0:
320,192,41596,1,0,0:0:0:0:
192,192,41596,1,0,0:0:0:0:
64,192,41596,1,0,0:0:0:0:
320,192,41693,1,0,0:0:0:0:
448,192,41790,1,0,0:0:0:0:
192,192,41790,1,0,0:0:0:0:
64,192,41790,1,0,0:0:0:0:
320,192,41887,1,0,0:0:0:0:
448,192,41983,1,0,0:0:0:0:
192,192,41983,1,0,0:0:0:0:
64,192,42080,1,0,0:0:0:0:
448,192,42177,1,0,0:0:0:0:
192,192,42177,1,0,0:0:0:0:
320,192,42274,1,0,0:0:0:0:
192,192,42371,1,0,0:0:0:0:
64,192,42371,1,0,0:0:0:0:
320,192,42467,1,0,0:0:0:0:
448,192,42564,1,0,0:0:0:0:
192,192,42564,1,0,0:0:0:0:
320,192,42661,1,0,0:0:0:0:
64,192,42661,1,0,0:0:0:0:
448,192,42758,1,0,0:0:0:0:
192,192,42758,1,0,0:0:0:0:
64,192,42854,1,0,0:0:0:0:
320,192,42951,1,0,0:0:0:0:
64,192,42951,128,0,43242:0:0:0:0:
192,192,42951,128,0,43242:0:0:0:0:
320,192,43145,1,0,0:0:0:0:
448,192,43338,1,0,0:0:0:0:
192,192,43338,128,0,43629:0:0:0:0:
320,192,43338,128,0,43629:0:0:0:0:
64,192,43532,1,0,0:0:0:0:
192,192,43725,1,0,0:0:0:0:
320,192,43725,128,0,44112:0:0:0:0:
448,192,43725,128,0,44112:0:0:0:0:
64,192,43919,1,0,0:0:0:0:
64,192,44112,1,0,0:0:0:0:
192,192,44209,1,0,0:0:0:0:
448,192,44306,1,0,0:0:0:0:
192,192,44306,1,0,0:0:0:0:
320,192,44403,1,0,0:0:0:0:
64,192,44403,1,0,0:0:0:0:
192,192,44500,1,0,0:0:0:0:
448,192,44500,1,0,0:0:0:0:
64,192,44500,1,0,0:0:0:0:
320,192,44500,1,0,0:0:0:0:
64,192,44693,1,0,0:0:0:0:
448,192,44693,1,0,0:0:0:0:
320,192,44693,1,0,0:0:0:0:
192,192,44887,1,0,0:0:0:0:
448,192,44887,1,0,0:0:0:0:
192,192,45080,1,0,0:0:0:0:
320,192,45080,1,0,0:0:0:0:
64,192,45177,1,0,0:0:0:0:
448,192,45274,1,0,0:0:0:0:
448,192,45371,1,0,0:0:0:0:
192,192,45467,1,0,0:0:0:0:
320,192,45467,1,0,0:0:0:0:
64,192,45661,1,0,0:0:0:0:
320,192,45661,1,0,0:0:0:0:
320,192,45758,1,0,0:0:0:0:
192,192,45854,1,0,0:0:0:0:
448,192,45854,1,0,0:0:0:0:
192,192,45951,1,0,0:0:0:0:
64,192,46048,1,0,0:0:0:0:
320,192,46048,1,0,0:0:0:0:
192,192,46242,1,0,0:0:0:0:
64,192,46242,1,0,0:0:0:0:
320,192,46242,1,0,0:0:0:0:
320,192,46435,1,0,0:0:0:0:
448,192,46435,1,0,0:0:0:0:
320,192,46629,1,0,0:0:0:0:
64,192,46629,1,0,0:0:0:0:
192,192,46725,1,0,0:0:0:0:
448,192,46725,1,0,0:0:0:0:
192,192,46822,1,0,0:0:0:0:
320,192,46919,1,0,0:0:0:0:
192,192,46919,1,0,0:0:0:0:
448,192,47016,1,0,0:0:0:0:
64,192,47016,1,0,0:0:0:0:
192,192,47209,1,0,0:0:0:0:
320,192,47209,1,0,0:0:0:0:
64,192,47306,1,0,0:0:0:0:
320,192,47403,1,0,0:0:0:0:
192,192,47403,1,0,0:0:0:0:
192,192,47500,1,0,0:0:0:0:
448,192,47596,1,0,0:0:0:0:
320,192,47596,1,0,0:0:0:0:
192,192,47790,1,0,0:0:0:0:
448,192,47790,1,0,0:0:0:0:
64,192,47790,1,0,0:0:0:0:
320,192,47983,1,0,0:0:0:0:
192,192,47983,1,0,0:0:0:0:
448,192,48177,1,0,0:0:0:0:
192,192,48177,1,0,0:0:0:0:
320,192,48274,1,0,0:0:0:0:
64,192,48274,1,0,0:0:0:0:
192,192,48371,1,0,0:0:0:0:
448,192,48467,1,0,0:0:0:0:
320,192,48467,1,0,0:0:0:0:
192,192,48564,1,0,0:0:0:0:
64,192,48564,1,0,0:0:0:0:
320,192,48758,1,0,0:0:0:0:
64,192,48758,1,0,0:0:0:0:
192,192,48854,1,0,0:0:0:0:
320,192,48951,1,0,0:0:0:0:
64,192,48951,1,0,0:0:0:0:
320,192,49048,1,0,0:0:0:0:
192,192,49145,1,0,0:0:0:0:
64,192,49145,1,0,0:0:0:0:
64,192,49338,1,0,0:0:0:0:
448,192,49338,1,0,0:0:0:0:
320,192,49338,1,0,0:0:0:0:
64,192,49532,1,0,0:0:0:0:
448,192,49532,1,0,0:0:0:0:
448,192,49725,1,0,0:0:0:0:
320,192,49725,1,0,0:0:0:0:
64,192,49822,1,0,0:0:0:0:
192,192,49822,1,0,0:0:0:0:
320,192,49919,1,0,0:0:0:0:
448,192,50016,1,0,0:0:0:0:
320,192,50016,1,0,0:0:0:0:
192,192,50112,1,0,0:0:0:0:
64,192,50112,1,0,0:0:0:0:
64,192,50306,1,0,0:0:0:0:
320,192,50306,1,0,0:0:0:0:
320,192,50403,1,0,0:0:0:0:
192,192,50500,1,0,0:0:0:0:
448,192,50500,1,0,0:0:0:0:
192,192,50596,1,0,0:0:0:0:
192,192,50693,1,0,0:0:0:0:
448,192,50693,1,0,0:0:0:0:
64,192,50693,1,0,0:0:0:0:
320,192,50693,1,0,0:0:0:0:
64,192,50887,1,0,0:0:0:0:
448,192,50887,1,0,0:0:0:0:
320,192,50887,1,0,0:0:0:0:
192,192,51080,1,0,0:0:0:0:
448,192,51080,1,0,0:0:0:0:
64,192,51274,1,0,0:0:0:0:
192,192,51274,1,0,0:0:0:0:
320,192,51371,1,0,0:0:0:0:
448,192,51371,1,0,0:0:0:0:
64,192,51467,1,0,0:0:0:0:
320,192,51564,1,0,0:0:0:0:
64,192,51564,1,0,0:0:0:0:
448,192,51661,1,0,0:0:0:0:
192,192,51661,1,0,0:0:0:0:
64,192,51854,1,0,0:0:0:0:
320,192,51854,1,0,0:0:0:0:
320,192,51951,1,0,0:0:0:0:
192,192,52048,1,0,0:0:0:0:
448,192,52048,1,0,0:0:0:0:
192,192,52145,1,0,0:0:0:0:
64,192,52242,1,0,0:0:0:0:
320,192,52242,1,0,0:0:0:0:
192,192,52435,1,0,0:0:0:0:
64,192,52435,1,0,0:0:0:0:
320,192,52435,1,0,0:0:0:0:
320,192,52629,1,0,0:0:0:0:
448,192,52629,1,0,0:0:0:0:
448,192,52822,1,0,0:0:0:0:
64,192,52822,1,0,0:0:0:0:
192,192,52919,1,0,0:0:0:0:
320,192,52919,1,0,0:0:0:0:
448,192,53016,1,0,0:0:0:0:
320,192,53112,1,0,0:0:0:0:
192,192,53112,1,0,0:0:0:0:
448,192,53209,1,0,0:0:0:0:
64,192,53209,1,0,0:0:0:0:
192,192,53403,1,0,0:0:0:0:
320,192,53403,1,0,0:0:0:0:
64,192,53500,1,0,0:0:0:0:
320,192,53596,1,0,0:0:0:0:
192,192,53596,1,0,0:0:0:0:
192,192,53693,1,0,0:0:0:0:
448,192,53790,1,0,0:0:0:0:
320,192,53790,1,0,0:0:0:0:
192,192,53983,1,0,0:0:0:0:
448,192,53983,1,0,0:0:0:0:
64,192,53983,1,0,0:0:0:0:
320,192,54177,1,0,0:0:0:0:
192,192,54177,1,0,0:0:0:0:
320,192,54371,1,0,0:0:0:0:
64,192,54371,1,0,0:0:0:0:
192,192,54467,1,0,0:0:0:0:
448,192,54467,1,0,0:0:0:0:
448,192,54564,1,0,0:0:0:0:
64,192,54661,1,0,0:0:0:0:
192,192,54661,1,0,0:0:0:0:
448,192,54758,1,0,0:0:0:0:
320,192,54758,1,0,0:0:0:0:
320,192,54951,1,0,0:0:0:0:
64,192,54951,1,0,0:0:0:0:
192,192,55048,1,0,0:0:0:0:
320,192,55145,1,0,0:0:0:0:
64,192,55145,1,0,0:0:0:0:
320,192,55242,1,0,0:0:0:0:
192,192,55338,1,0,0:0:0:0:
64,192,55338,1,0,0:0:0:0:
192,192,55532,128,0,55822:0:0:0:0:
448,192,55532,128,0,55822:0:0:0:0:
320,192,55532,1,0,0:0:0:0:
64,192,55532,1,0,0:0:0:0:
64,192,55725,1,0,0:0:0:0:
192,192,55919,128,0,56209:0:0:0:0:
320,192,55919,128,0,56209:0:0:0:0:
448,192,56209,1,0,0:0:0:0:
64,192,56306,128,0,56887:0:0:0:0:
192,192,56306,128,0,56887:0:0:0:0:
320,192,56500,1,0,0:0:0:0:
448,192,56596,1,0,0:0:0:0:
320,192,56693,1,0,0:0:0:0:
448,192,56790,1,0,0:0:0:0:
320,192,56887,1,0,0:0:0:0:
448,192,56887,1,0,0:0:0:0:
320,192,57080,1,0,0:0:0:0:
448,192,57080,1,0,0:0:0:0:
64,192,57080,1,0,0:0:0:0:
448,192,57274,1,0,0:0:0:0:
192,192,57274,1,0,0:0:0:0:
320,192,57467,1,0,0:0:0:0:
192,192,57467,1,0,0:0:0:0:
64,192,57564,1,0,0:0:0:0:
448,192,57661,1,0,0:0:0:0:
64,192,57758,1,0,0:0:0:0:
320,192,57854,1,0,0:0:0:0:
192,192,57854,1,0,0:0:0:0:
320,192,58048,1,0,0:0:0:0:
64,192,58048,1,0,0:0:0:0:
320,192,58145,1,0,0:0:0:0:
448,192,58242,1,0,0:0:0:0:
192,192,58242,1,0,0:0:0:0:
192,192,58338,1,0,0:0:0:0:
320,192,58435,1,0,0:0:0:0:
64,192,58435,1,0,0:0:0:0:
320,192,58629,1,0,0:0:0:0:
64,192,58629,1,0,0:0:0:0:
192,192,58629,1,0,0:0:0:0:
448,192,58822,1,0,0:0:0:0:
320,192,58822,1,0,0:0:0:0:
64,192,59016,1,0,0:0:0:0:
448,192,59016,1,0,0:0:0:0:
320,192,59112,1,0,0:0:0:0:
192,192,59112,1,0,0:0:0:0:
192,192,59209,1,0,0:0:0:0:
192,192,59306,1,0,0:0:0:0:
320,192,59306,1,0,0:0:0:0:
64,192,59403,1,0,0:0:0:0:
448,192,59403,1,0,0:0:0:0:
320,192,59596,1,0,0:0:0:0:
192,192,59596,1,0,0:0:0:0:
64,192,59693,1,0,0:0:0:0:
192,192,59790,1,0,0:0:0:0:
320,192,59790,1,0,0:0:0:0:
192,192,59887,1,0,0:0:0:0:
64,192,59983,1,0,0:0:0:0:
320,192,59983,1,0,0:0:0:0:
448,192,59983,1,0,0:0:0:0:
64,192,60177,1,0,0:0:0:0:
448,192,60177,1,0,0:0:0:0:
192,192,60177,1,0,0:0:0:0:
192,192,60371,1,0,0:0:0:0:
320,192,60371,1,0,0:0:0:0:
320,192,60564,1,0,0:0:0:0:
64,192,60564,1,0,0:0:0:0:
448,192,60661,1,0,0:0:0:0:
192,192,60661,1,0,0:0:0:0:
320,192,60758,1,0,0:0:0:0:
448,192,60854,1,0,0:0:0:0:
192,192,60854,1,0,0:0:0:0:
320,192,60951,1,0,0:0:0:0:
64,192,60951,1,0,0:0:0:0:
64,192,61145,1,0,0:0:0:0:
320,192,61145,1,0,0:0:0:0:
192,192,61242,1,0,0:0:0:0:
64,192,61338,1,0,0:0:0:0:
320,192,61338,1,0,0:0:0:0:
320,192,61435,1,0,0:0:0:0:
64,192,61532,1,0,0:0:0:0:
192,192,61532,1,0,0:0:0:0:
320,192,61725,1,0,0:0:0:0:
448,192,61725,1,0,0:0:0:0:
64,192,61725,1,0,0:0:0:0:
448,192,61919,1,0,0:0:0:0:
64,192,61919,1,0,0:0:0:0:
64,192,62112,1,0,0:0:0:0:
192,192,62112,1,0,0:0:0:0:
320,192,62209,1,0,0:0:0:0:
448,192,62209,1,0,0:0:0:0:
192,192,62306,1,0,0:0:0:0:
64,192,62403,1,0,0:0:0:0:
192,192,62403,1,0,0:0:0:0:
448,192,62500,1,0,0:0:0:0:
320,192,62500,1,0,0:0:0:0:
320,192,62693,1,0,0:0:0:0:
64,192,62693,1,0,0:0:0:0:
320,192,62790,1,0,0:0:0:0:
448,192,62887,1,0,0:0:0:0:
192,192,62887,1,0,0:0:0:0:
192,192,62983,1,0,0:0:0:0:
448,192,63080,1,0,0:0:0:0:
192,192,63080,1,0,0:0:0:0:
64,192,63080,1,0,0:0:0:0:
320,192,63080,1,0,0:0:0:0:
64,192,63274,1,0,0:0:0:0:
448,192,63274,1,0,0:0:0:0:
320,192,63274,1,0,0:0:0:0:
192,192,63467,1,0,0:0:0:0:
448,192,63467,1,0,0:0:0:0:
192,192,63661,1,0,0:0:0:0:
320,192,63661,1,0,0:0:0:0:
448,192,63758,1,0,0:0:0:0:
448,192,63854,1,0,0:0:0:0:
448,192,63951,1,0,0:0:0:0:
64,192,64048,1,0,0:0:0:0:
192,192,64048,1,0,0:0:0:0:
64,192,64242,1,0,0:0:0:0:
320,192,64242,1,0,0:0:0:0:
320,192,64338,1,0,0:0:0:0:
192,192,64435,1,0,0:0:0:0:
448,192,64435,1,0,0:0:0:0:
192,192,64532,1,0,0:0:0:0:
448,192,64629,1,0,0:0:0:0:
64,192,64629,1,0,0:0:0:0:
320,192,64629,1,0,0:0:0:0:
192,192,64822,1,0,0:0:0:0:
64,192,64822,1,0,0:0:0:0:
320,192,64822,1,0,0:0:0:0:
320,192,65016,1,0,0:0:0:0:
448,192,65016,1,0,0:0:0:0:
448,192,65209,1,0,0:0:0:0:
64,192,65209,1,0,0:0:0:0:
192,192,65306,1,0,0:0:0:0:
320,192,65306,1,0,0:0:0:0:
448,192,65403,1,0,0:0:0:0:
64,192,65500,1,0,0:0:0:0:
320,192,65500,1,0,0:0:0:0:
192,192,65596,1,0,0:0:0:0:
448,192,65596,1,0,0:0:0:0:
192,192,65790,1,0,0:0:0:0:
320,192,65790,1,0,0:0:0:0:
64,192,65887,1,0,0:0:0:0:
320,192,65983,1,0,0:0:0:0:
192,192,65983,1,0,0:0:0:0:
192,192,66080,1,0,0:0:0:0:
192,192,66177,1,0,0:0:0:0:
64,192,66177,1,0,0:0:0:0:
320,192,66177,1,0,0:0:0:0:
448,192,66177,1,0,0:0:0:0:
192,192,66371,1,0,0:0:0:0:
448,192,66371,1,0,0:0:0:0:
64,192,66371,1,0,0:0:0:0:
320,192,66564,1,0,0:0:0:0:
192,192,66564,1,0,0:0:0:0:
64,192,66758,1,0,0:0:0:0:
320,192,66758,1,0,0:0:0:0:
192,192,66758,1,0,0:0:0:0:
64,192,66854,1,0,0:0:0:0:
192,192,66854,1,0,0:0:0:0:
448,192,66854,1,0,0:0:0:0:
448,192,66951,1,0,0:0:0:0:
320,192,66951,1,0,0:0:0:0:
192,192,66951,1,0,0:0:0:0:
320,192,67145,1,0,0:0:0:0:
192,192,67145,1,0,0:0:0:0:
320,192,67338,1,0,0:0:0:0:
64,192,67338,1,0,0:0:0:0:
64,192,67532,1,0,0:0:0:0:
320,192,67532,1,0,0:0:0:0:
448,192,67532,1,0,0:0:0:0:
64,192,67629,1,0,0:0:0:0:
320,192,67629,1,0,0:0:0:0:
192,192,67629,1,0,0:0:0:0:
192,192,67725,1,0,0:0:0:0:
448,192,67725,1,0,0:0:0:0:
64,192,67725,1,0,0:0:0:0:
448,192,67919,1,0,0:0:0:0:
320,192,67919,1,0,0:0:0:0:
192,192,67919,1,0,0:0:0:0:
320,192,68016,1,0,0:0:0:0:
192,192,68016,1,0,0:0:0:0:
64,192,68016,1,0,0:0:0:0:
448,192,68112,1,0,0:0:0:0:
320,192,68112,1,0,0:0:0:0:
64,192,68112,1,0,0:0:0:0:
64,192,68306,1,0,0:0:0:0:
448,192,68306,1,0,0:0:0:0:
192,192,68306,1,0,0:0:0:0:
448,192,68403,1,0,0:0:0:0:
192,192,68403,1,0,0:0:0:0:
320,192,68403,1,0,0:0:0:0:
192,192,68500,1,0,0:0:0:0:
320,192,68500,1,0,0:0:0:0:
64,192,68500,1,0,0:0:0:0:
448,192,68693,1,0,0:0:0:0:
320,192,68693,1,0,0:0:0:0:
64,192,68693,1,0,0:0:0:0:
448,192,68887,1,0,0:0:0:0:
192,192,68887,1,0,0:0:0:0:
64,192,68983,1,0,0:0:0:0:
192,192,68983,1,0,0:0:0:0:
192,192,69080,1,0,0:0:0:0:
448,192,69080,1,0,0:0:0:0:
64,192,69177,1,0,0:0:0:0:
448,192,69177,1,0,0:0:0:0:
320,192,69274,1,0,0:0:0:0:
448,192,69274,1,0,0:0:0:0:
64,192,69274,1,0,0:0:0:0:
192,192,69274,1,0,0:0:0:0:
192,192,69371,1,0,0:0:0:0:
448,192,69467,1,0,0:0:0:0:
192,192,69564,1,0,0:0:0:0:
320,192,69661,128,0,69854:0:0:0:0:
192,192,69854,128,0,70145:0:0:0:0:
192,192,70242,1,0,0:0:0:0:
64,192,70338,1,0,0:0:0:0:
320,192,70338,1,0,0:0:0:0:
320,192,70435,128,0,70629:0:0:0:0:
192,192,70629,128,0,70919:0:0:0:0:
192,192,71016,1,0,0:0:0:0:
320,192,71112,1,0,0:0:0:0:
64,192,71112,1,0,0:0:0:0:
192,192,71209,1,0,0:0:0:0:
448,192,71209,1,0,0:0:0:0:
320,192,71306,1,0,0:0:0:0:
192,192,71306,1,0,0:0:0:0:
320,192,71403,1,0,0:0:0:0:
64,192,71403,1,0,0:0:0:0:
448,192,71500,1,0,0:0:0:0:
64,192,71500,1,0,0:0:0:0:
320,192,71596,1,0,0:0:0:0:
192,192,71596,1,0,0:0:0:0:
448,192,71693,1,0,0:0:0:0:
64,192,71693,1,0,0:0:0:0:
192,192,71790,1,0,0:0:0:0:
320,192,71790,1,0,0:0:0:0:
320,192,71887,1,0,0:0:0:0:
448,192,71887,1,0,0:0:0:0:
192,192,71983,128,0,72177:0:0:0:0:
320,192,72177,128,0,72371:0:0:0:0:
448,192,72371,1,0,0:0:0:0:
64,192,72371,1,0,0:0:0:0:
448,192,72467,1,0,0:0:0:0:
320,192,72564,1,0,0:0:0:0:
192,192,72661,1,0,0:0:0:0:
64,192,72758,1,0,0:0:0:0:
320,192,72758,128,0,72951:0:0:0:0:
448,192,72854,1,0,0:0:0:0:
64,192,72951,1,0,0:0:0:0:
192,192,72951,128,0,73242:0:0:0:0:
448,192,73048,1,0,0:0:0:0:
320,192,73145,1,0,0:0:0:0:
64,192,73242,1,0,0:0:0:0:
448,192,73338,1,0,0:0:0:0:
192,192,73338,1,0,0:0:0:0:
64,192,73435,1,0,0:0:0:0:
320,192,73435,1,0,0:0:0:0:
192,192,73532,1,0,0:0:0:0:
320,192,73532,128,0,73725:0:0:0:0:
64,192,73629,1,0,0:0:0:0:
448,192,73725,1,0,0:0:0:0:
192,192,73725,128,0,74016:0:0:0:0:
320,192,73822,1,0,0:0:0:0:
64,192,73919,1,0,0:0:0:0:
448,192,74016,1,0,0:0:0:0:
320,192,74112,1,0,0:0:0:0:
192,192,74112,1,0,0:0:0:0:
64,192,74209,1,0,0:0:0:0:
192,192,74306,1,0,0:0:0:0:
448,192,74306,1,0,0:0:0:0:
192,192,74403,1,0,0:0:0:0:
320,192,74500,1,0,0:0:0:0:
64,192,74500,1,0,0:0:0:0:
448,192,74596,1,0,0:0:0:0:
64,192,74693,1,0,0:0:0:0:
320,192,74693,1,0,0:0:0:0:
64,192,74790,1,0,0:0:0:0:
448,192,74887,1,0,0:0:0:0:
320,192,74887,1,0,0:0:0:0:
192,192,74983,1,0,0:0:0:0:
448,192,75080,1,0,0:0:0:0:
320,192,75080,128,0,75274:0:0:0:0:
64,192,75080,1,0,0:0:0:0:
192,192,75177,1,0,0:0:0:0:
64,192,75274,1,0,0:0:0:0:
448,192,75274,1,0,0:0:0:0:
192,192,75274,128,0,75467:0:0:0:0:
320,192,75371,1,0,0:0:0:0:
448,192,75467,1,0,0:0:0:0:
320,192,75467,1,0,0:0:0:0:
64,192,75467,1,0,0:0:0:0:
192,192,75532,1,0,0:0:0:0:
64,192,75596,1,0,0:0:0:0:
448,192,75661,1,0,0:0:0:0:
320,192,75661,1,0,0:0:0:0:
192,192,75661,1,0,0:0:0:0:
64,192,75725,1,0,0:0:0:0:
192,192,75790,1,0,0:0:0:0:
320,192,75854,1,0,0:0:0:0:
192,192,75919,1,0,0:0:0:0:
320,192,75983,1,0,0:0:0:0:
448,192,76048,1,0,0:0:0:0:
64,192,76048,1,0,0:0:0:0:
192,192,76048,1,0,0:0:0:0:
320,192,76112,1,0,0:0:0:0:
192,192,76177,1,0,0:0:0:0:
448,192,76242,1,0,0:0:0:0:
64,192,76306,1,0,0:0:0:0:
192,192,76371,1,0,0:0:0:0:
320,192,76435,1,0,0:0:0:0:
448,192,76435,1,0,0:0:0:0:
64,192,76435,1,0,0:0:0:0:
192,192,76500,1,0,0:0:0:0:
64,192,76564,1,0,0:0:0:0:
448,192,76629,1,0,0:0:0:0:
192,192,76693,1,0,0:0:0:0:
448,192,76758,1,0,0:0:0:0:
320,192,76822,1,0,0:0:0:0:
192,192,76822,1,0,0:0:0:0:
64,192,76822,1,0,0:0:0:0:
448,192,76887,1,0,0:0:0:0:
64,192,76951,1,0,0:0:0:0:
192,192,77016,128,0,77112:0:0:0:0:
64,192,77112,128,0,77209:0:0:0:0:
192,192,77209,128,0,77306:0:0:0:0:
320,192,77209,1,0,0:0:0:0:
448,192,77209,1,0,0:0:0:0:
64,192,77306,128,0,77403:0:0:0:0:
192,192,77403,128,0,77500:0:0:0:0:
320,192,77500,128,0,77596:0:0:0:0:
192,192,77596,1,0,0:0:0:0:
64,192,77596,1,0,0:0:0:0:
448,192,77596,128,0,77790:0:0:0:0:
320,192,77790,128,0,77887:0:0:0:0:
192,192,77887,128,0,77983:0:0:0:0:
320,192,77983,128,0,78080:0:0:0:0:
448,192,77983,1,0,0:0:0:0:
64,192,77983,1,0,0:0:0:0:
192,192,78080,128,0,78177:0:0:0:0:
320,192,78177,128,0,78371:0:0:0:0:
448,192,78371,1,0,0:0:0:0:
64,192,78371,1,0,0:0:0:0:
192,192,78371,128,0,78564:0:0:0:0:
448,192,78564,1,0,0:0:0:0:
320,192,78564,1,0,0:0:0:0:
64,192,78629,1,0,0:0:0:0:
448,192,78693,1,0,0:0:0:0:
192,192,78758,1,0,0:0:0:0:
320,192,78758,1,0,0:0:0:0:
64,192,78758,1,0,0:0:0:0:
448,192,78822,1,0,0:0:0:0:
320,192,78887,1,0,0:0:0:0:
192,192,78951,1,0,0:0:0:0:
448,192,79016,1,0,0:0:0:0:
320,192,79080,1,0,0:0:0:0:
448,192,79145,1,0,0:0:0:0:
64,192,79145,1,0,0:0:0:0:
192,192,79145,1,0,0:0:0:0:
320,192,79209,1,0,0:0:0:0:
192,192,79274,1,0,0:0:0:0:
64,192,79338,1,0,0:0:0:0:
320,192,79403,1,0,0:0:0:0:
64,192,79467,1,0,0:0:0:0:
448,192,79532,1,0,0:0:0:0:
320,192,79532,1,0,0:0:0:0:
192,192,79532,1,0,0:0:0:0:
64,192,79596,1,0,0:0:0:0:
448,192,79661,1,0,0:0:0:0:
64,192,79725,1,0,0:0:0:0:
320,192,79790,1,0,0:0:0:0:
192,192,79854,1,0,0:0:0:0:
320,192,79919,1,0,0:0:0:0:
448,192,79919,1,0,0:0:0:0:
64,192,79919,1,0,0:0:0:0:
192,192,79983,1,0,0:0:0:0:
448,192,80048,1,0,0:0:0:0:
192,192,80112,128,0,80209:0:0:0:0:
64,192,80209,128,0,80306:0:0:0:0:
448,192,80306,1,0,0:0:0:0:
320,192,80306,1,0,0:0:0:0:
192,192,80306,128,0,80403:0:0:0:0:
64,192,80403,128,0,80500:0:0:0:0:
192,192,80500,128,0,80596:0:0:0:0:
320,192,80596,128,0,80693:0:0:0:0:
448,192,80693,128,0,80887:0:0:0:0:
64,192,80693,1,0,0:0:0:0:
192,192,80693,1,0,0:0:0:0:
320,192,80887,128,0,80983:0:0:0:0:
192,192,80983,128,0,81080:0:0:0:0:
64,192,81080,1,0,0:0:0:0:
448,192,81080,1,0,0:0:0:0:
320,192,81080,128,0,81177:0:0:0:0:
192,192,81177,128,0,81274:0:0:0:0:
320,192,81274,128,0,81467:0:0:0:0:
192,192,81467,128,0,81661:0:0:0:0:
64,192,81467,1,0,0:0:0:0:
448,192,81467,1,0,0:0:0:0:
320,192,81661,1,0,0:0:0:0:
448,192,81661,1,0,0:0:0:0:
64,192,81725,1,0,0:0:0:0:
320,192,81790,1,0,0:0:0:0:
64,192,81854,1,0,0:0:0:0:
448,192,81854,1,0,0:0:0:0:
192,192,81854,1,0,0:0:0:0:
320,192,81919,1,0,0:0:0:0:
448,192,81983,1,0,0:0:0:0:
64,192,82048,1,0,0:0:0:0:
448,192,82113,1,0,0:0:0:0:
192,192,82177,1,0,0:0:0:0:
448,192,82242,1,0,0:0:0:0:
320,192,82242,1,0,0:0:0:0:
64,192,82242,1,0,0:0:0:0:
192,192,82306,1,0,0:0:0:0:
320,192,82371,1,0,0:0:0:0:
448,192,82435,1,0,0:0:0:0:
192,192,82500,1,0,0:0:0:0:
64,192,82564,1,0,0:0:0:0:
192,192,82629,1,0,0:0:0:0:
448,192,82629,1,0,0:0:0:0:
320,192,82629,1,0,0:0:0:0:
64,192,82693,1,0,0:0:0:0:
448,192,82758,1,0,0:0:0:0:
320,192,82822,1,0,0:0:0:0:
64,192,82887,1,0,0:0:0:0:
448,192,82951,1,0,0:0:0:0:
320,192,83016,1,0,0:0:0:0:
192,192,83016,1,0,0:0:0:0:
64,192,83016,1,0,0:0:0:0:
448,192,83080,1,0,0:0:0:0:
320,192,83145,1,0,0:0:0:0:
192,192,83209,128,0,83306:0:0:0:0:
64,192,83306,128,0,83403:0:0:0:0:
192,192,83403,128,0,83500:0:0:0:0:
320,192,83403,1,0,0:0:0:0:
448,192,83403,1,0,0:0:0:0:
64,192,83500,128,0,83596:0:0:0:0:
192,192,83596,128,0,83693:0:0:0:0:
320,192,83693,128,0,83790:0:0:0:0:
192,192,83790,1,0,0:0:0:0:
64,192,83790,1,0,0:0:0:0:
448,192,83790,128,0,83983:0:0:0:0:
320,192,83983,128,0,84080:0:0:0:0:
192,192,84080,128,0,84177:0:0:0:0:
320,192,84177,128,0,84274:0:0:0:0:
448,192,84177,1,0,0:0:0:0:
64,192,84177,1,0,0:0:0:0:
192,192,84274,128,0,84371:0:0:0:0:
320,192,84371,128,0,84564:0:0:0:0:
448,192,84564,1,0,0:0:0:0:
64,192,84564,1,0,0:0:0:0:
192,192,84564,128,0,84758:0:0:0:0:
448,192,84758,1,0,0:0:0:0:
320,192,84758,1,0,0:0:0:0:
64,192,84822,1,0,0:0:0:0:
192,192,84887,1,0,0:0:0:0:
448,192,84951,1,0,0:0:0:0:
64,192,84951,1,0,0:0:0:0:
320,192,84951,1,0,0:0:0:0:
192,192,85016,1,0,0:0:0:0:
320,192,85080,1,0,0:0:0:0:
64,192,85145,1,0,0:0:0:0:
320,192,85209,1,0,0:0:0:0:
448,192,85274,1,0,0:0:0:0:
64,192,85338,1,0,0:0:0:0:
320,192,85338,1,0,0:0:0:0:
192,192,85338,1,0,0:0:0:0:
448,192,85403,1,0,0:0:0:0:
192,192,85467,1,0,0:0:0:0:
64,192,85532,1,0,0:0:0:0:
448,192,85596,1,0,0:0:0:0:
320,192,85661,1,0,0:0:0:0:
64,192,85725,1,0,0:0:0:0:
448,192,85725,1,0,0:0:0:0:
192,192,85725,1,0,0:0:0:0:
320,192,85790,1,0,0:0:0:0:
192,192,85854,1,0,0:0:0:0:
64,192,85919,1,0,0:0:0:0:
192,192,85983,1,0,0:0:0:0:
448,192,86048,1,0,0:0:0:0:
64,192,86113,1,0,0:0:0:0:
320,192,86113,1,0,0:0:0:0:
192,192,86113,1,0,0:0:0:0:
448,192,86177,1,0,0:0:0:0:
320,192,86242,1,0,0:0:0:0:
192,192,86306,128,0,86403:0:0:0:0:
64,192,86403,128,0,86500:0:0:0:0:
448,192,86500,1,0,0:0:0:0:
320,192,86500,1,0,0:0:0:0:
192,192,86500,128,0,86596:0:0:0:0:
64,192,86596,128,0,86693:0:0:0:0:
448,192,86693,1,0,0:0:0:0:
320,192,86693,1,0,0:0:0:0:
192,192,86693,128,0,86790:0:0:0:0:
320,192,86790,128,0,86887:0:0:0:0:
448,192,86887,128,0,87080:0:0:0:0:
320,192,87080,128,0,87177:0:0:0:0:
64,192,87177,1,0,0:0:0:0:
192,192,87177,128,0,87274:0:0:0:0:
448,192,87274,1,0,0:0:0:0:
320,192,87274,128,0,87371:0:0:0:0:
64,192,87371,1,0,0:0:0:0:
192,192,87371,128,0,87467:0:0:0:0:
448,192,87467,1,0,0:0:0:0:
320,192,87467,128,0,87661:0:0:0:0:
64,192,87564,1,0,0:0:0:0:
192,192,87661,128,0,87854:0:0:0:0:
448,192,87661,1,0,0:0:0:0:
64,192,87758,1,0,0:0:0:0:
448,192,87854,1,0,0:0:0:0:
320,192,87854,1,0,0:0:0:0:
64,192,87854,1,0,0:0:0:0:
320,192,87951,1,0,0:0:0:0:
448,192,88048,1,0,0:0:0:0:
192,192,88048,1,0,0:0:0:0:
320,192,88145,1,0,0:0:0:0:
192,192,88242,1,0,0:0:0:0:
64,192,88242,1,0,0:0:0:0:
320,192,88338,1,0,0:0:0:0:
448,192,88338,1,0,0:0:0:0:
192,192,88435,1,0,0:0:0:0:
320,192,88532,1,0,0:0:0:0:
448,192,88532,1,0,0:0:0:0:
64,192,88629,1,0,0:0:0:0:
192,192,88725,1,0,0:0:0:0:
448,192,88725,1,0,0:0:0:0:
320,192,88822,1,0,0:0:0:0:
192,192,88919,1,0,0:0:0:0:
64,192,88919,1,0,0:0:0:0:
448,192,89016,1,0,0:0:0:0:
320,192,89113,1,0,0:0:0:0:
64,192,89113,1,0,0:0:0:0:
192,192,89209,1,0,0:0:0:0:
448,192,89306,1,0,0:0:0:0:
64,192,89403,1,0,0:0:0:0:
320,192,89403,1,0,0:0:0:0:
192,192,89403,1,0,0:0:0:0:
192,192,89500,1,0,0:0:0:0:
448,192,89596,1,0,0:0:0:0:
64,192,89596,1,0,0:0:0:0:
320,192,89596,1,0,0:0:0:0:
320,192,89693,1,0,0:0:0:0:
320,192,89790,1,0,0:0:0:0:
192,192,89790,1,0,0:0:0:0:
64,192,89790,1,0,0:0:0:0:
192,192,89887,1,0,0:0:0:0:
448,192,89887,1,0,0:0:0:0:
320,192,89983,1,0,0:0:0:0:
64,192,90080,1,0,0:0:0:0:
192,192,90080,1,0,0:0:0:0:
320,192,90177,1,0,0:0:0:0:
192,192,90274,1,0,0:0:0:0:
320,192,90371,1,0,0:0:0:0:
448,192,90371,1,0,0:0:0:0:
192,192,90467,1,0,0:0:0:0:
448,192,90564,1,0,0:0:0:0:
64,192,90564,1,0,0:0:0:0:
320,192,90661,1,0,0:0:0:0:
64,192,90758,1,0,0:0:0:0:
192,192,90758,1,0,0:0:0:0:
320,192,90854,1,0,0:0:0:0:
320,192,90951,1,0,0:0:0:0:
64,192,90951,1,0,0:0:0:0:
192,192,90951,1,0,0:0:0:0:
192,192,91048,1,0,0:0:0:0:
448,192,91145,1,0,0:0:0:0:
192,192,91145,1,0,0:0:0:0:
64,192,91145,1,0,0:0:0:0:
320,192,91242,1,0,0:0:0:0:
64,192,91338,1,0,0:0:0:0:
192,192,91338,1,0,0:0:0:0:
320,192,91338,1,0,0:0:0:0:
448,192,91435,1,0,0:0:0:0:
64,192,91532,1,0,0:0:0:0:
192,192,91532,1,0,0:0:0:0:
448,192,91629,1,0,0:0:0:0:
320,192,91629,1,0,0:0:0:0:
64,192,91725,1,0,0:0:0:0:
448,192,91822,1,0,0:0:0:0:
320,192,91822,1,0,0:0:0:0:
192,192,91919,1,0,0:0:0:0:
64,192,92016,1,0,0:0:0:0:
320,192,92016,1,0,0:0:0:0:
192,192,92113,1,0,0:0:0:0:
448,192,92209,1,0,0:0:0:0:
320,192,92209,1,0,0:0:0:0:
64,192,92306,1,0,0:0:0:0:
448,192,92403,1,0,0:0:0:0:
192,192,92403,1,0,0:0:0:0:
192,192,92500,128,0,92790:0:0:0:0:
320,192,92500,128,0,92790:0:0:0:0:
448,192,92500,1,0,0:0:0:0:
64,192,92693,1,0,0:0:0:0:
320,192,92887,128,0,93177:0:0:0:0:
448,192,92887,128,0,93177:0:0:0:0:
64,192,93080,1,0,0:0:0:0:
192,192,93274,128,0,93661:0:0:0:0:
320,192,93274,1,0,0:0:0:0:
448,192,93274,128,0,93661:0:0:0:0:
64,192,93467,1,0,0:0:0:0:
320,192,93661,1,0,0:0:0:0:
64,192,93758,1,0,0:0:0:0:
64,192,93854,1,0,0:0:0:0:
320,192,93854,1,0,0:0:0:0:
448,192,93951,1,0,0:0:0:0:
192,192,93951,1,0,0:0:0:0:
192,192,94048,1,0,0:0:0:0:
448,192,94048,1,0,0:0:0:0:
64,192,94048,1,0,0:0:0:0:
320,192,94048,1,0,0:0:0:0:
448,192,94242,1,0,0:0:0:0:
320,192,94242,1,0,0:0:0:0:
192,192,94242,1,0,0:0:0:0:
448,192,94435,1,0,0:0:0:0:
320,192,94435,1,0,0:0:0:0:
64,192,94435,1,0,0:0:0:0:
192,192,94532,1,0,0:0:0:0:
64,192,94629,1,0,0:0:0:0:
448,192,94629,1,0,0:0:0:0:
192,192,94725,1,0,0:0:0:0:
64,192,94822,1,0,0:0:0:0:
448,192,94822,1,0,0:0:0:0:
320,192,94919,1,0,0:0:0:0:
192,192,95016,1,0,0:0:0:0:
448,192,95113,1,0,0:0:0:0:
64,192,95113,1,0,0:0:0:0:
320,192,95209,1,0,0:0:0:0:
192,192,95209,1,0,0:0:0:0:
64,192,95306,1,0,0:0:0:0:
448,192,95306,1,0,0:0:0:0:
192,192,95403,1,0,0:0:0:0:
320,192,95500,1,0,0:0:0:0:
64,192,95596,1,0,0:0:0:0:
448,192,95596,1,0,0:0:0:0:
192,192,95596,1,0,0:0:0:0:
64,192,95693,1,0,0:0:0:0:
192,192,95790,1,0,0:0:0:0:
320,192,95790,1,0,0:0:0:0:
448,192,95790,1,0,0:0:0:0:
448,192,95887,1,0,0:0:0:0:
448,192,95983,1,0,0:0:0:0:
320,192,95983,1,0,0:0:0:0:
64,192,95983,1,0,0:0:0:0:
192,192,96080,1,0,0:0:0:0:
320,192,96177,1,0,0:0:0:0:
64,192,96177,1,0,0:0:0:0:
192,192,96274,1,0,0:0:0:0:
448,192,96371,1,0,0:0:0:0:
64,192,96467,1,0,0:0:0:0:
192,192,96467,1,0,0:0:0:0:
320,192,96564,1,0,0:0:0:0:
192,192,96661,1,0,0:0:0:0:
448,192,96661,1,0,0:0:0:0:
320,192,96758,1,0,0:0:0:0:
192,192,96854,1,0,0:0:0:0:
64,192,96854,1,0,0:0:0:0:
448,192,96951,1,0,0:0:0:0:
64,192,97048,1,0,0:0:0:0:
448,192,97145,1,0,0:0:0:0:
320,192,97145,1,0,0:0:0:0:
192,192,97145,1,0,0:0:0:0:
320,192,97242,1,0,0:0:0:0:
320,192,97338,1,0,0:0:0:0:
192,192,97338,1,0,0:0:0:0:
64,192,97338,1,0,0:0:0:0:
192,192,97435,1,0,0:0:0:0:
192,192,97532,1,0,0:0:0:0:
448,192,97532,1,0,0:0:0:0:
64,192,97532,1,0,0:0:0:0:
320,192,97629,1,0,0:0:0:0:
64,192,97725,1,0,0:0:0:0:
320,192,97822,1,0,0:0:0:0:
64,192,97919,1,0,0:0:0:0:
192,192,97919,1,0,0:0:0:0:
448,192,98016,1,0,0:0:0:0:
64,192,98113,1,0,0:0:0:0:
320,192,98113,1,0,0:0:0:0:
192,192,98209,1,0,0:0:0:0:
320,192,98306,1,0,0:0:0:0:
448,192,98306,1,0,0:0:0:0:
192,192,98403,1,0,0:0:0:0:
320,192,98500,1,0,0:0:0:0:
64,192,98500,1,0,0:0:0:0:
448,192,98596,1,0,0:0:0:0:
320,192,98693,1,0,0:0:0:0:
64,192,98693,128,0,98983:0:0:0:0:
192,192,98693,128,0,98983:0:0:0:0:
320,192,98887,1,0,0:0:0:0:
448,192,98887,1,0,0:0:0:0:
448,192,99080,1,0,0:0:0:0:
192,192,99080,128,0,99371:0:0:0:0:
320,192,99080,128,0,99371:0:0:0:0:
448,192,99274,1,0,0:0:0:0:
64,192,99274,1,0,0:0:0:0:
192,192,99467,1,0,0:0:0:0:
320,192,99467,128,0,99854:0:0:0:0:
448,192,99467,128,0,99854:0:0:0:0:
192,192,99661,1,0,0:0:0:0:
64,192,99661,1,0,0:0:0:0:
192,192,99854,1,0,0:0:0:0:
64,192,99951,1,0,0:0:0:0:
320,192,100048,1,0,0:0:0:0:
448,192,100048,1,0,0:0:0:0:
192,192,100145,1,0,0:0:0:0:
320,192,100145,1,0,0:0:0:0:
192,192,100242,1,0,0:0:0:0:
448,192,100242,1,0,0:0:0:0:
64,192,100242,1,0,0:0:0:0:
320,192,100242,1,0,0:0:0:0:
64,192,100435,1,0,0:0:0:0:
448,192,100435,1,0,0:0:0:0:
320,192,100435,1,0,0:0:0:0:
192,192,100629,1,0,0:0:0:0:
448,192,100629,1,0,0:0:0:0:
448,192,100822,1,0,0:0:0:0:
192,192,100822,1,0,0:0:0:0:
64,192,100919,1,0,0:0:0:0:
192,192,101016,1,0,0:0:0:0:
448,192,101113,1,0,0:0:0:0:
64,192,101209,1,0,0:0:0:0:
320,192,101209,1,0,0:0:0:0:
448,192,101403,1,0,0:0:0:0:
192,192,101403,1,0,0:0:0:0:
64,192,101500,1,0,0:0:0:0:
192,192,101596,1,0,0:0:0:0:
448,192,101596,1,0,0:0:0:0:
192,192,101693,1,0,0:0:0:0:
448,192,101790,1,0,0:0:0:0:
64,192,101790,1,0,0:0:0:0:
320,192,101983,1,0,0:0:0:0:
448,192,101983,1,0,0:0:0:0:
64,192,101983,1,0,0:0:0:0:
320,192,102177,1,0,0:0:0:0:
64,192,102177,1,0,0:0:0:0:
448,192,102371,1,0,0:0:0:0:
320,192,102371,1,0,0:0:0:0:
64,192,102467,1,0,0:0:0:0:
320,192,102564,1,0,0:0:0:0:
64,192,102661,1,0,0:0:0:0:
448,192,102758,1,0,0:0:0:0:
192,192,102758,1,0,0:0:0:0:
64,192,102951,1,0,0:0:0:0:
320,192,102951,1,0,0:0:0:0:
448,192,103048,1,0,0:0:0:0:
64,192,103145,1,0,0:0:0:0:
448,192,103145,1,0,0:0:0:0:
64,192,103242,1,0,0:0:0:0:
448,192,103338,1,0,0:0:0:0:
320,192,103338,1,0,0:0:0:0:
64,192,103532,1,0,0:0:0:0:
320,192,103532,1,0,0:0:0:0:
192,192,103725,1,0,0:0:0:0:
320,192,103725,1,0,0:0:0:0:
448,192,103725,1,0,0:0:0:0:
64,192,103919,1,0,0:0:0:0:
192,192,103919,1,0,0:0:0:0:
448,192,104016,1,0,0:0:0:0:
448,192,104113,1,0,0:0:0:0:
448,192,104209,1,0,0:0:0:0:
192,192,104306,1,0,0:0:0:0:
320,192,104306,1,0,0:0:0:0:
448,192,104500,1,0,0:0:0:0:
64,192,104500,1,0,0:0:0:0:
320,192,104596,1,0,0:0:0:0:
64,192,104693,1,0,0:0:0:0:
320,192,104693,1,0,0:0:0:0:
448,192,104790,1,0,0:0:0:0:
192,192,104887,1,0,0:0:0:0:
64,192,104887,1,0,0:0:0:0:
64,192,105080,1,0,0:0:0:0:
448,192,105080,1,0,0:0:0:0:
320,192,105080,1,0,0:0:0:0:
320,192,105274,1,0,0:0:0:0:
192,192,105274,1,0,0:0:0:0:
192,192,105467,1,0,0:0:0:0:
320,192,105467,1,0,0:0:0:0:
448,192,105564,1,0,0:0:0:0:
64,192,105661,1,0,0:0:0:0:
448,192,105758,1,0,0:0:0:0:
192,192,105854,1,0,0:0:0:0:
320,192,105854,1,0,0:0:0:0:
64,192,106048,1,0,0:0:0:0:
320,192,106048,1,0,0:0:0:0:
192,192,106145,1,0,0:0:0:0:
192,192,106242,1,0,0:0:0:0:
448,192,106242,1,0,0:0:0:0:
320,192,106338,1,0,0:0:0:0:
192,192,106435,1,0,0:0:0:0:
448,192,106435,1,0,0:0:0:0:
320,192,106435,1,0,0:0:0:0:
64,192,106435,1,0,0:0:0:0:
192,192,106629,1,0,0:0:0:0:
320,192,106629,1,0,0:0:0:0:
320,192,106822,1,0,0:0:0:0:
448,192,106822,1,0,0:0:0:0:
64,192,106822,1,0,0:0:0:0:
448,192,107016,1,0,0:0:0:0:
320,192,107016,1,0,0:0:0:0:
192,192,107113,1,0,0:0:0:0:
192,192,107209,1,0,0:0:0:0:
448,192,107306,1,0,0:0:0:0:
192,192,107306,1,0,0:0:0:0:
64,192,107403,1,0,0:0:0:0:
320,192,107403,1,0,0:0:0:0:
448,192,107596,1,0,0:0:0:0:
320,192,107596,1,0,0:0:0:0:
320,192,107693,1,0,0:0:0:0:
64,192,107790,1,0,0:0:0:0:
192,192,107790,1,0,0:0:0:0:
192,192,107887,1,0,0:0:0:0:
448,192,107983,1,0,0:0:0:0:
320,192,107983,1,0,0:0:0:0:
320,192,108177,1,0,0:0:0:0:
64,192,108177,1,0,0:0:0:0:
448,192,108371,1,0,0:0:0:0:
320,192,108371,1,0,0:0:0:0:
192,192,108371,1,0,0:0:0:0:
64,192,108564,1,0,0:0:0:0:
192,192,108564,1,0,0:0:0:0:
320,192,108661,1,0,0:0:0:0:
448,192,108661,1,0,0:0:0:0:
192,192,108758,1,0,0:0:0:0:
64,192,108854,1,0,0:0:0:0:
448,192,108854,1,0,0:0:0:0:
320,192,108951,1,0,0:0:0:0:
192,192,108951,1,0,0:0:0:0:
448,192,109145,1,0,0:0:0:0:
192,192,109145,1,0,0:0:0:0:
64,192,109242,1,0,0:0:0:0:
320,192,109242,1,0,0:0:0:0:
320,192,109338,1,0,0:0:0:0:
192,192,109338,1,0,0:0:0:0:
192,192,109435,1,0,0:0:0:0:
64,192,109435,1,0,0:0:0:0:
192,192,109532,1,0,0:0:0:0:
320,192,109532,1,0,0:0:0:0:
448,192,109725,1,0,0:0:0:0:
64,192,109725,1,0,0:0:0:0:
64,192,109919,1,0,0:0:0:0:
192,192,109919,1,0,0:0:0:0:
320,192,109919,1,0,0:0:0:0:
192,192,110113,1,0,0:0:0:0:
320,192,110113,1,0,0:0:0:0:
448,192,110209,1,0,0:0:0:0:
448,192,110306,1,0,0:0:0:0:
64,192,110403,1,0,0:0:0:0:
448,192,110500,1,0,0:0:0:0:
192,192,110500,1,0,0:0:0:0:
320,192,110693,1,0,0:0:0:0:
64,192,110693,1,0,0:0:0:0:
192,192,110790,1,0,0:0:0:0:
320,192,110887,1,0,0:0:0:0:
192,192,110887,1,0,0:0:0:0:
448,192,110983,1,0,0:0:0:0:
192,192,111080,1,0,0:0:0:0:
448,192,111080,1,0,0:0:0:0:
192,192,111274,128,0,111564:0:0:0:0:
448,192,111274,128,0,111564:0:0:0:0:
320,192,111274,1,0,0:0:0:0:
64,192,111274,1,0,0:0:0:0:
320,192,111467,1,0,0:0:0:0:
192,192,111661,128,0,111951:0:0:0:0:
320,192,111661,128,0,111951:0:0:0:0:
64,192,111951,1,0,0:0:0:0:
64,192,112048,128,0,112629:0:0:0:0:
192,192,112048,128,0,112629:0:0:0:0:
320,192,112242,1,0,0:0:0:0:
448,192,112338,1,0,0:0:0:0:
320,192,112435,1,0,0:0:0:0:
448,192,112532,1,0,0:0:0:0:
320,192,112629,1,0,0:0:0:0:
448,192,112629,1,0,0:0:0:0:
192,192,112822,1,0,0:0:0:0:
448,192,112822,1,0,0:0:0:0:
320,192,112822,1,0,0:0:0:0:
320,192,113016,1,0,0:0:0:0:
192,192,113016,1,0,0:0:0:0:
64,192,113016,1,0,0:0:0:0:
448,192,113209,1,0,0:0:0:0:
192,192,113209,1,0,0:0:0:0:
64,192,113306,1,0,0:0:0:0:
320,192,113306,1,0,0:0:0:0:
320,192,113403,1,0,0:0:0:0:
192,192,113500,1,0,0:0:0:0:
320,192,113500,1,0,0:0:0:0:
64,192,113596,1,0,0:0:0:0:
448,192,113596,1,0,0:0:0:0:
448,192,113790,1,0,0:0:0:0:
320,192,113790,1,0,0:0:0:0:
64,192,113887,1,0,0:0:0:0:
64,192,113983,1,0,0:0:0:0:
320,192,113983,1,0,0:0:0:0:
320,192,114080,1,0,0:0:0:0:
64,192,114177,1,0,0:0:0:0:
192,192,114177,1,0,0:0:0:0:
64,192,114371,1,0,0:0:0:0:
448,192,114371,1,0,0:0:0:0:
320,192,114371,1,0,0:0:0:0:
192,192,114564,1,0,0:0:0:0:
320,192,114564,1,0,0:0:0:0:
64,192,114564,1,0,0:0:0:0:
64,192,114758,1,0,0:0:0:0:
192,192,114758,1,0,0:0:0:0:
448,192,114854,1,0,0:0:0:0:
192,192,114951,1,0,0:0:0:0:
320,192,115048,1,0,0:0:0:0:
64,192,115145,1,0,0:0:0:0:
448,192,115145,1,0,0:0:0:0:
320,192,115338,1,0,0:0:0:0:
64,192,115338,1,0,0:0:0:0:
320,192,115435,1,0,0:0:0:0:
64,192,115532,1,0,0:0:0:0:
192,192,115532,1,0,0:0:0:0:
448,192,115629,1,0,0:0:0:0:
64,192,115725,1,0,0:0:0:0:
448,192,115725,1,0,0:0:0:0:
64,192,115919,1,0,0:0:0:0:
320,192,115919,1,0,0:0:0:0:
320,192,116113,1,0,0:0:0:0:
64,192,116113,1,0,0:0:0:0:
192,192,116113,1,0,0:0:0:0:
320,192,116306,1,0,0:0:0:0:
192,192,116306,1,0,0:0:0:0:
64,192,116403,1,0,0:0:0:0:
448,192,116500,1,0,0:0:0:0:
320,192,116596,1,0,0:0:0:0:
64,192,116693,1,0,0:0:0:0:
448,192,116693,1,0,0:0:0:0:
448,192,116887,1,0,0:0:0:0:
320,192,116887,1,0,0:0:0:0:
64,192,116983,1,0,0:0:0:0:
192,192,117080,1,0,0:0:0:0:
320,192,117080,1,0,0:0:0:0:
192,192,117177,1,0,0:0:0:0:
448,192,117274,1,0,0:0:0:0:
192,192,117274,1,0,0:0:0:0:
320,192,117467,1,0,0:0:0:0:
192,192,117467,1,0,0:0:0:0:
64,192,117467,1,0,0:0:0:0:
448,192,117661,1,0,0:0:0:0:
64,192,117661,1,0,0:0:0:0:
320,192,117661,1,0,0:0:0:0:
64,192,117854,1,0,0:0:0:0:
192,192,117854,1,0,0:0:0:0:
320,192,117951,1,0,0:0:0:0:
192,192,118048,1,0,0:0:0:0:
192,192,118145,1,0,0:0:0:0:
320,192,118242,1,0,0:0:0:0:
448,192,118242,1,0,0:0:0:0:
320,192,118435,1,0,0:0:0:0:
64,192,118435,1,0,0:0:0:0:
448,192,118532,1,0,0:0:0:0:
64,192,118629,1,0,0:0:0:0:
192,192,118629,1,0,0:0:0:0:
448,192,118725,1,0,0:0:0:0:
320,192,118822,1,0,0:0:0:0:
448,192,118822,1,0,0:0:0:0:
192,192,118822,1,0,0:0:0:0:
64,192,118822,1,0,0:0:0:0:
448,192,119016,1,0,0:0:0:0:
192,192,119016,1,0,0:0:0:0:
320,192,119016,1,0,0:0:0:0:
320,192,119209,1,0,0:0:0:0:
448,192,119209,1,0,0:0:0:0:
64,192,119209,1,0,0:0:0:0:
320,192,119403,1,0,0:0:0:0:
192,192,119403,1,0,0:0:0:0:
64,192,119500,1,0,0:0:0:0:
192,192,119596,1,0,0:0:0:0:
64,192,119693,1,0,0:0:0:0:
320,192,119790,1,0,0:0:0:0:
192,192,119790,1,0,0:0:0:0:
448,192,119983,1,0,0:0:0:0:
64,192,119983,1,0,0:0:0:0:
192,192,120080,1,0,0:0:0:0:
192,192,120177,1,0,0:0:0:0:
320,192,120177,1,0,0:0:0:0:
320,192,120274,1,0,0:0:0:0:
448,192,120371,1,0,0:0:0:0:
192,192,120371,1,0,0:0:0:0:
448,192,120564,1,0,0:0:0:0:
64,192,120564,1,0,0:0:0:0:
192,192,120564,1,0,0:0:0:0:
64,192,120758,1,0,0:0:0:0:
448,192,120758,1,0,0:0:0:0:
192,192,120758,1,0,0:0:0:0:
448,192,120951,1,0,0:0:0:0:
320,192,120951,1,0,0:0:0:0:
192,192,121048,1,0,0:0:0:0:
64,192,121145,1,0,0:0:0:0:
320,192,121242,1,0,0:0:0:0:
64,192,121338,1,0,0:0:0:0:
448,192,121338,1,0,0:0:0:0:
448,192,121532,1,0,0:0:0:0:
64,192,121532,1,0,0:0:0:0:
320,192,121629,1,0,0:0:0:0:
64,192,121725,1,0,0:0:0:0:
320,192,121725,1,0,0:0:0:0:
192,192,121822,1,0,0:0:0:0:
448,192,121919,1,0,0:0:0:0:
192,192,121919,1,0,0:0:0:0:
320,192,121919,1,0,0:0:0:0:
64,192,121919,1,0,0:0:0:0:
448,192,122113,1,0,0:0:0:0:
320,192,122113,1,0,0:0:0:0:
192,192,122113,1,0,0:0:0:0:
64,192,122306,1,0,0:0:0:0:
192,192,122306,1,0,0:0:0:0:
448,192,122500,1,0,0:0:0:0:
320,192,122500,1,0,0:0:0:0:
192,192,122500,1,0,0:0:0:0:
64,192,122596,1,0,0:0:0:0:
192,192,122596,1,0,0:0:0:0:
448,192,122596,1,0,0:0:0:0:
64,192,122693,1,0,0:0:0:0:
320,192,122693,1,0,0:0:0:0:
192,192,122693,1,0,0:0:0:0:
448,192,122887,1,0,0:0:0:0:
320,192,122887,1,0,0:0:0:0:
192,192,123080,1,0,0:0:0:0:
64,192,123080,1,0,0:0:0:0:
64,192,123274,1,0,0:0:0:0:
320,192,123274,1,0,0:0:0:0:
448,192,123274,1,0,0:0:0:0:
448,192,123371,1,0,0:0:0:0:
320,192,123371,1,0,0:0:0:0:
192,192,123371,1,0,0:0:0:0:
192,192,123467,1,0,0:0:0:0:
448,192,123467,1,0,0:0:0:0:
64,192,123467,1,0,0:0:0:0:
64,192,123661,1,0,0:0:0:0:
448,192,123661,1,0,0:0:0:0:
192,192,123661,1,0,0:0:0:0:
64,192,123758,1,0,0:0:0:0:
448,192,123758,1,0,0:0:0:0:
320,192,123758,1,0,0:0:0:0:
320,192,123854,1,0,0:0:0:0:
448,192,123854,1,0,0:0:0:0:
192,192,123854,1,0,0:0:0:0:
64,192,124048,1,0,0:0:0:0:
448,192,124048,1,0,0:0:0:0:
192,192,124048,1,0,0:0:0:0:
448,192,124145,1,0,0:0:0:0:
192,192,124145,1,0,0:0:0:0:
320,192,124145,1,0,0:0:0:0:
192,192,124242,1,0,0:0:0:0:
320,192,124242,1,0,0:0:0:0:
64,192,124242,1,0,0:0:0:0:
192,192,124435,1,0,0:0:0:0:
448,192,124435,1,0,0:0:0:0:
64,192,124435,1,0,0:0:0:0:
64,192,124629,1,0,0:0:0:0:
448,192,124629,1,0,0:0:0:0:
320,192,124725,1,0,0:0:0:0:
64,192,124725,1,0,0:0:0:0:
320,192,124822,1,0,0:0:0:0:
192,192,124822,1,0,0:0:0:0:
448,192,124919,1,0,0:0:0:0:
320,192,124919,1,0,0:0:0:0:
448,192,125016,1,0,0:0:0:0:
320,192,125016,128,0,125209:0:0:0:0:
64,192,125016,1,0,0:0:0:0:
192,192,125016,1,0,0:0:0:0:
192,192,125209,128,0,125338:0:0:0:0:
192,192,125403,128,0,125532:0:0:0:0:
320,192,125596,128,0,125790:0:0:0:0:
192,192,125790,128,0,125984:0:0:0:0:
448,192,125984,128,0,126177:0:0:0:0:
320,192,126177,128,0,126371:0:0:0:0:
192,192,126371,128,0,126758:0:0:0:0:
64,192,126758,128,0,126951:0:0:0:0:
192,192,126951,128,0,127145:0:0:0:0:
64,192,127145,128,0,127338:0:0:0:0:
192,192,127338,128,0,127467:0:0:0:0:
448,192,127532,128,0,127725:0:0:0:0:
192,192,127596,1,0,0:0:0:0:
64,192,127725,1,0,0:0:0:0:
320,192,127725,128,0,128113:0:0:0:0:
192,192,127822,1,0,0:0:0:0:
448,192,127822,1,0,0:0:0:0:
64,192,127919,1,0,0:0:0:0:
192,192,128016,1,0,0:0:0:0:
448,192,128016,1,0,0:0:0:0:
192,192,128113,1,0,0:0:0:0:
448,192,128113,1,0,0:0:0:0:
64,192,128113,128,0,128242:0:0:0:0:
64,192,128306,128,0,128435:0:0:0:0:
192,192,128500,128,0,128693:0:0:0:0:
64,192,128693,128,0,128887:0:0:0:0:
192,192,128887,128,0,129080:0:0:0:0:
64,192,129080,128,0,129274:0:0:0:0:
320,192,129274,128,0,129467:0:0:0:0:
448,192,129467,128,0,129854:0:0:0:0:
64,192,129854,128,0,130048:0:0:0:0:
192,192,130048,128,0,130242:0:0:0:0:
64,192,130242,128,0,130371:0:0:0:0:
192,192,130435,128,0,130564:0:0:0:0:
64,192,130435,128,0,130564:0:0:0:0:
192,192,130629,128,0,130758:0:0:0:0:
64,192,130629,128,0,130758:0:0:0:0:
192,192,130822,128,0,130951:0:0:0:0:
64,192,130822,128,0,130951:0:0:0:0:
192,192,131016,128,0,131209:0:0:0:0:
64,192,131016,128,0,131209:0:0:0:0:
448,192,131209,1,0,0:0:0:0:
320,192,131274,1,0,0:0:0:0:
448,192,131338,1,0,0:0:0:0:
320,192,131403,1,0,0:0:0:0:
192,192,131403,1,0,0:0:0:0:
64,192,131403,1,0,0:0:0:0:
448,192,131467,1,0,0:0:0:0:
192,192,131532,1,0,0:0:0:0:
64,192,131596,1,0,0:0:0:0:
320,192,131661,1,0,0:0:0:0:
192,192,131725,1,0,0:0:0:0:
448,192,131790,1,0,0:0:0:0:
64,192,131790,1,0,0:0:0:0:
320,192,131790,1,0,0:0:0:0:
192,192,131854,1,0,0:0:0:0:
448,192,131919,1,0,0:0:0:0:
64,192,131984,1,0,0:0:0:0:
192,192,132048,1,0,0:0:0:0:
64,192,132113,1,0,0:0:0:0:
320,192,132177,1,0,0:0:0:0:
192,192,132177,1,0,0:0:0:0:
448,192,132177,1,0,0:0:0:0:
64,192,132242,1,0,0:0:0:0:
448,192,132306,1,0,0:0:0:0:
320,192,132371,1,0,0:0:0:0:
64,192,132435,1,0,0:0:0:0:
192,192,132500,1,0,0:0:0:0:
448,192,132564,1,0,0:0:0:0:
64,192,132564,1,0,0:0:0:0:
320,192,132564,1,0,0:0:0:0:
192,192,132629,1,0,0:0:0:0:
320,192,132693,1,0,0:0:0:0:
448,192,132758,1,0,0:0:0:0:
64,192,132822,1,0,0:0:0:0:
320,192,132887,1,0,0:0:0:0:
448,192,132951,1,0,0:0:0:0:
192,192,132951,1,0,0:0:0:0:
64,192,132951,1,0,0:0:0:0:
320,192,133016,1,0,0:0:0:0:
64,192,133080,1,0,0:0:0:0:
448,192,133145,1,0,0:0:0:0:
192,192,133209,1,0,0:0:0:0:
64,192,133274,1,0,0:0:0:0:
192,192,133338,1,0,0:0:0:0:
448,192,133338,1,0,0:0:0:0:
320,192,133338,1,0,0:0:0:0:
64,192,133403,1,0,0:0:0:0:
192,192,133467,1,0,0:0:0:0:
320,192,133532,1,0,0:0:0:0:
448,192,133596,1,0,0:0:0:0:
320,192,133661,1,0,0:0:0:0:
448,192,133725,1,0,0:0:0:0:
192,192,133725,1,0,0:0:0:0:
64,192,133725,1,0,0:0:0:0:
320,192,133790,1,0,0:0:0:0:
192,192,133854,1,0,0:0:0:0:
448,192,133919,1,0,0:0:0:0:
192,192,133984,1,0,0:0:0:0:
448,192,134048,1,0,0:0:0:0:
320,192,134113,1,0,0:0:0:0:
192,192,134113,1,0,0:0:0:0:
64,192,134113,1,0,0:0:0:0:
448,192,134177,1,0,0:0:0:0:
64,192,134242,1,0,0:0:0:0:
192,192,134306,1,0,0:0:0:0:
320,192,134371,1,0,0:0:0:0:
192,192,134435,1,0,0:0:0:0:
64,192,134500,1,0,0:0:0:0:
448,192,134500,1,0,0:0:0:0:
320,192,134500,1,0,0:0:0:0:
192,192,134564,1,0,0:0:0:0:
320,192,134629,1,0,0:0:0:0:
448,192,134693,1,0,0:0:0:0:
320,192,134758,1,0,0:0:0:0:
448,192,134822,1,0,0:0:0:0:
320,192,134887,1,0,0:0:0:0:
192,192,134887,1,0,0:0:0:0:
64,192,134887,1,0,0:0:0:0:
448,192,134951,1,0,0:0:0:0:
64,192,135016,1,0,0:0:0:0:
192,192,135080,1,0,0:0:0:0:
64,192,135145,1,0,0:0:0:0:
320,192,135209,1,0,0:0:0:0:
192,192,135274,1,0,0:0:0:0:
64,192,135274,1,0,0:0:0:0:
448,192,135274,1,0,0:0:0:0:
320,192,135338,1,0,0:0:0:0:
64,192,135403,1,0,0:0:0:0:
192,192,135467,1,0,0:0:0:0:
320,192,135532,1,0,0:0:0:0:
64,192,135596,1,0,0:0:0:0:
192,192,135661,1,0,0:0:0:0:
320,192,135661,1,0,0:0:0:0:
448,192,135661,1,0,0:0:0:0:
64,192,135725,1,0,0:0:0:0:
320,192,135790,1,0,0:0:0:0:
448,192,135854,1,0,0:0:0:0:
64,192,135919,1,0,0:0:0:0:
192,192,135984,1,0,0:0:0:0:
320,192,136048,1,0,0:0:0:0:
448,192,136048,1,0,0:0:0:0:
64,192,136048,1,0,0:0:0:0:
192,192,136113,1,0,0:0:0:0:
320,192,136177,1,0,0:0:0:0:
64,192,136242,1,0,0:0:0:0:
192,192,136306,1,0,0:0:0:0:
320,192,136371,1,0,0:0:0:0:
448,192,136435,1,0,0:0:0:0:
192,192,136435,1,0,0:0:0:0:
64,192,136435,1,0,0:0:0:0:
320,192,136500,1,0,0:0:0:0:
192,192,136564,1,0,0:0:0:0:
64,192,136629,1,0,0:0:0:0:
448,192,136693,1,0,0:0:0:0:
64,192,136758,1,0,0:0:0:0:
448,192,136822,1,0,0:0:0:0:
320,192,136822,1,0,0:0:0:0:
192,192,136822,1,0,0:0:0:0:
64,192,136887,1,0,0:0:0:0:
320,192,136951,1,0,0:0:0:0:
192,192,137016,1,0,0:0:0:0:
448,192,137080,1,0,0:0:0:0:
192,192,137145,1,0,0:0:0:0:
448,192,137209,1,0,0:0:0:0:
320,192,137209,1,0,0:0:0:0:
64,192,137209,1,0,0:0:0:0:
192,192,137274,1,0,0:0:0:0:
64,192,137338,1,0,0:0:0:0:
448,192,137403,1,0,0:0:0:0:
192,192,137467,1,0,0:0:0:0:
320,192,137532,1,0,0:0:0:0:
448,192,137596,1,0,0:0:0:0:
192,192,137596,1,0,0:0:0:0:
64,192,137596,1,0,0:0:0:0:
320,192,137661,1,0,0:0:0:0:
64,192,137725,1,0,0:0:0:0:
192,192,137790,1,0,0:0:0:0:
320,192,137854,1,0,0:0:0:0:
448,192,137919,1,0,0:0:0:0:
320,192,137984,1,0,0:0:0:0:
192,192,137984,1,0,0:0:0:0:
64,192,137984,1,0,0:0:0:0:
448,192,138048,1,0,0:0:0:0:
320,192,138113,1,0,0:0:0:0:
192,192,138177,1,0,0:0:0:0:
64,192,138242,1,0,0:0:0:0:
192,192,138306,1,0,0:0:0:0:
448,192,138371,1,0,0:0:0:0:
320,192,138371,1,0,0:0:0:0:
64,192,138371,1,0,0:0:0:0:
192,192,138435,1,0,0:0:0:0:
64,192,138500,1,0,0:0:0:0:
192,192,138564,1,0,0:0:0:0:
320,192,138629,1,0,0:0:0:0:
192,192,138693,1,0,0:0:0:0:
320,192,138758,1,0,0:0:0:0:
448,192,138758,1,0,0:0:0:0:
64,192,138758,1,0,0:0:0:0:
192,192,138758,1,0,0:0:0:0:
320,192,138822,1,0,0:0:0:0:
64,192,138887,1,0,0:0:0:0:
320,192,138951,1,0,0:0:0:0:
448,192,139016,1,0,0:0:0:0:
192,192,139080,1,0,0:0:0:0:
320,192,139145,1,0,0:0:0:0:
448,192,139145,1,0,0:0:0:0:
64,192,139145,1,0,0:0:0:0:
192,192,139145,1,0,0:0:0:0:
448,192,139209,1,0,0:0:0:0:
64,192,139274,1,0,0:0:0:0:
320,192,139338,5,0,0:0:0:0:
64,192,139403,1,0,0:0:0:0:
192,192,139467,1,0,0:0:0:0:
64,192,139532,5,0,0:0:0:0:
192,192,139532,1,0,0:0:0:0:
448,192,139532,1,0,0:0:0:0:
320,192,139532,1,0,0:0:0:0:
448,192,139596,1,0,0:0:0:0:
320,192,139661,1,0,0:0:0:0:
192,192,139725,1,0,0:0:0:0:
64,192,139790,1,0,0:0:0:0:
192,192,139854,1,0,0:0:0:0:
448,192,139919,1,0,0:0:0:0:
320,192,139919,1,0,0:0:0:0:
64,192,139919,1,0,0:0:0:0:
64,192,140113,1,0,0:0:0:0:
192,192,140113,1,0,0:0:0:0:
320,192,140113,1,0,0:0:0:0:
64,192,140306,1,0,0:0:0:0:
192,192,140306,1,0,0:0:0:0:
448,192,140306,1,0,0:0:0:0:
64,192,140500,5,0,0:0:0:0:
192,192,140500,1,0,0:0:0:0:
448,192,140500,128,0,141177:0:0:0:0:
320,192,140500,128,0,141177:0:0:0:0:
64,192,140693,1,0,0:0:0:0:
192,192,140693,1,0,0:0:0:0:
64,192,141274,1,0,0:0:0:0:
320,192,141274,1,0,0:0:0:0:
448,192,141274,128,0,141951:0:0:0:0:
192,192,141274,128,0,141951:0:0:0:0:
64,192,141467,1,0,0:0:0:0:
320,192,141564,1,0,0:0:0:0:
64,192,141661,1,0,0:0:0:0:
320,192,141758,1,0,0:0:0:0:
64,192,141854,1,0,0:0:0:0:
320,192,141951,1,0,0:0:0:0:
448,192,142048,1,0,0:0:0:0:
64,192,142048,1,0,0:0:0:0:
320,192,142048,128,0,142725:0:0:0:0:
192,192,142048,128,0,142725:0:0:0:0:
64,192,142242,1,0,0:0:0:0:
448,192,142338,1,0,0:0:0:0:
64,192,142435,1,0,0:0:0:0:
448,192,142532,1,0,0:0:0:0:
64,192,142629,1,0,0:0:0:0:
448,192,142822,1,0,0:0:0:0:
192,192,142822,1,0,0:0:0:0:
64,192,142822,128,0,143500:0:0:0:0:
320,192,142822,128,0,143500:0:0:0:0:
192,192,143016,1,0,0:0:0:0:
448,192,143113,1,0,0:0:0:0:
192,192,143209,1,0,0:0:0:0:
448,192,143306,1,0,0:0:0:0:
192,192,143403,1,0,0:0:0:0:
448,192,143500,1,0,0:0:0:0:
320,192,143596,1,0,0:0:0:0:
448,192,143596,1,0,0:0:0:0:
64,192,143596,128,0,143887:0:0:0:0:
192,192,143596,128,0,143887:0:0:0:0:
192,192,143984,128,0,145822:0:0:0:0:
64,192,143984,128,0,145822:0:0:0:0:
320,192,143984,1,0,0:0:0:0:
448,192,143984,1,0,0:0:0:0:
64,192,145919,1,0,0:0:0:0:
192,192,145919,1,0,0:0:0:0:
64,192,146016,1,0,0:0:0:0:
192,192,146016,1,0,0:0:0:0:
64,192,146113,1,0,0:0:0:0:
192,192,146113,1,0,0:0:0:0:
64,192,146209,1,0,0:0:0:0:
192,192,146209,1,0,0:0:0:0:
320,192,146306,128,0,146500:0:0:0:0:
192,192,146500,128,0,146693:0:0:0:0:
64,192,146693,1,0,0:0:0:0:
448,192,146693,1,0,0:0:0:0:
320,192,146790,1,0,0:0:0:0:
320,192,146887,1,0,0:0:0:0:
320,192,146984,1,0,0:0:0:0:
192,192,147080,1,0,0:0:0:0:
448,192,147080,1,0,0:0:0:0:
448,192,147177,1,0,0:0:0:0:
448,192,147274,1,0,0:0:0:0:
448,192,147371,1,0,0:0:0:0:
192,192,147467,1,0,0:0:0:0:
448,192,147564,1,0,0:0:0:0:
192,192,147564,1,0,0:0:0:0:
320,192,147661,1,0,0:0:0:0:
320,192,147758,1,0,0:0:0:0:
448,192,147854,1,0,0:0:0:0:
320,192,147951,1,0,0:0:0:0:
192,192,148048,1,0,0:0:0:0:
320,192,148145,1,0,0:0:0:0:
64,192,148145,1,0,0:0:0:0:
192,192,148242,1,0,0:0:0:0:
192,192,148338,1,0,0:0:0:0:
64,192,148435,1,0,0:0:0:0:
64,192,148532,1,0,0:0:0:0:
448,192,148629,1,0,0:0:0:0:
192,192,148629,1,0,0:0:0:0:
192,192,148725,1,0,0:0:0:0:
320,192,148822,1,0,0:0:0:0:
320,192,148919,1,0,0:0:0:0:
64,192,149016,1,0,0:0:0:0:
64,192,149113,1,0,0:0:0:0:
192,192,149209,1,0,0:0:0:0:
192,192,149306,1,0,0:0:0:0:
320,192,149403,1,0,0:0:0:0:
64,192,149403,1,0,0:0:0:0:
192,192,149500,1,0,0:0:0:0:
320,192,149596,1,0,0:0:0:0:
192,192,149693,1,0,0:0:0:0:
448,192,149693,1,0,0:0:0:0:
64,192,149790,1,0,0:0:0:0:
64,192,149887,1,0,0:0:0:0:
192,192,149984,1,0,0:0:0:0:
192,192,150080,1,0,0:0:0:0:
64,192,150177,1,0,0:0:0:0:
320,192,150177,1,0,0:0:0:0:
320,192,150274,1,0,0:0:0:0:
64,192,150371,1,0,0:0:0:0:
64,192,150467,1,0,0:0:0:0:
320,192,150564,1,0,0:0:0:0:
64,192,150661,1,0,0:0:0:0:
320,192,150661,1,0,0:0:0:0:
192,192,150758,1,0,0:0:0:0:
192,192,150854,1,0,0:0:0:0:
64,192,150951,1,0,0:0:0:0:
448,192,150951,1,0,0:0:0:0:
320,192,151048,1,0,0:0:0:0:
192,192,151145,1,0,0:0:0:0:
64,192,151242,1,0,0:0:0:0:
192,192,151338,1,0,0:0:0:0:
192,192,151435,1,0,0:0:0:0:
64,192,151532,1,0,0:0:0:0:
320,192,151532,1,0,0:0:0:0:
320,192,151629,1,0,0:0:0:0:
192,192,151725,1,0,0:0:0:0:
192,192,151822,1,0,0:0:0:0:
64,192,151919,1,0,0:0:0:0:
320,192,152016,1,0,0:0:0:0:
64,192,152016,1,0,0:0:0:0:
64,192,152113,1,0,0:0:0:0:
64,192,152209,1,0,0:0:0:0:
448,192,152306,1,0,0:0:0:0:
192,192,152306,1,0,0:0:0:0:
320,192,152306,1,0,0:0:0:0:
64,192,152403,1,0,0:0:0:0:
192,192,152403,1,0,0:0:0:0:
448,192,152500,1,0,0:0:0:0:
320,192,152500,1,0,0:0:0:0:
64,192,152500,1,0,0:0:0:0:
64,192,152693,1,0,0:0:0:0:
320,192,152693,1,0,0:0:0:0:
192,192,152693,1,0,0:0:0:0:
192,192,152887,1,0,0:0:0:0:
448,192,152887,128,0,153371:0:0:0:0:
320,192,152887,1,0,0:0:0:0:
64,192,152984,1,0,0:0:0:0:
320,192,153080,1,0,0:0:0:0:
192,192,153080,1,0,0:0:0:0:
64,192,153177,1,0,0:0:0:0:
192,192,153274,1,0,0:0:0:0:
320,192,153371,1,0,0:0:0:0:
192,192,153371,128,0,153467:0:0:0:0:
64,192,153467,1,0,0:0:0:0:
320,192,153467,128,0,153564:0:0:0:0:
448,192,153564,1,0,0:0:0:0:
192,192,153564,128,0,153854:0:0:0:0:
64,192,153661,1,0,0:0:0:0:
320,192,153758,1,0,0:0:0:0:
64,192,153854,1,0,0:0:0:0:
320,192,153854,128,0,154145:0:0:0:0:
448,192,153951,1,0,0:0:0:0:
192,192,154048,1,0,0:0:0:0:
64,192,154145,1,0,0:0:0:0:
448,192,154242,1,0,0:0:0:0:
320,192,154242,128,0,154919:0:0:0:0:
192,192,154242,128,0,154919:0:0:0:0:
64,192,154338,1,0,0:0:0:0:
448,192,154435,1,0,0:0:0:0:
64,192,154532,1,0,0:0:0:0:
448,192,154629,1,0,0:0:0:0:
64,192,154725,1,0,0:0:0:0:
448,192,154822,1,0,0:0:0:0:
448,192,154919,1,0,0:0:0:0:
64,192,154919,128,0,155016:0:0:0:0:
320,192,155016,1,0,0:0:0:0:
192,192,155016,128,0,155113:0:0:0:0:
448,192,155113,1,0,0:0:0:0:
64,192,155113,128,0,155403:0:0:0:0:
192,192,155209,1,0,0:0:0:0:
448,192,155306,1,0,0:0:0:0:
320,192,155403,1,0,0:0:0:0:
192,192,155403,128,0,155693:0:0:0:0:
64,192,155500,1,0,0:0:0:0:
448,192,155596,1,0,0:0:0:0:
64,192,155693,1,0,0:0:0:0:
320,192,155790,1,0,0:0:0:0:
64,192,155790,128,0,156467:0:0:0:0:
192,192,155790,128,0,156467:0:0:0:0:
448,192,155887,1,0,0:0:0:0:
320,192,155984,1,0,0:0:0:0:
448,192,156080,1,0,0:0:0:0:
320,192,156177,1,0,0:0:0:0:
448,192,156274,1,0,0:0:0:0:
320,192,156371,1,0,0:0:0:0:
448,192,156467,1,0,0:0:0:0:
192,192,156564,1,0,0:0:0:0:
64,192,156564,128,0,157000:0:0:0:0:
448,192,156661,1,0,0:0:0:0:
320,192,156758,1,0,0:0:0:0:
448,192,156854,1,0,0:0:0:0:
192,192,156951,1,0,0:0:0:0:
448,192,157048,1,0,0:0:0:0:
192,192,157048,1,0,0:0:0:0:
320,192,157096,1,0,0:0:0:0:
448,192,157145,128,0,159080:0:0:0:0:
192,192,157145,1,0,0:0:0:0:
64,192,157242,1,0,0:0:0:0:
320,192,157338,1,0,0:0:0:0:
192,192,157435,1,0,0:0:0:0:
64,192,157532,1,0,0:0:0:0:
192,192,157629,1,0,0:0:0:0:
64,192,157725,1,0,0:0:0:0:
320,192,157725,128,0,157822:0:0:0:0:
192,192,157822,1,0,0:0:0:0:
64,192,157919,1,0,0:0:0:0:
320,192,157919,128,0,158016:0:0:0:0:
192,192,158016,1,0,0:0:0:0:
64,192,158113,1,0,0:0:0:0:
320,192,158113,128,0,158209:0:0:0:0:
192,192,158209,1,0,0:0:0:0:
64,192,158306,1,0,0:0:0:0:
320,192,158306,128,0,158403:0:0:0:0:
192,192,158403,1,0,0:0:0:0:
320,192,158500,128,0,158887:0:0:0:0:
64,192,158500,1,0,0:0:0:0:
192,192,158596,1,0,0:0:0:0:
64,192,158693,1,0,0:0:0:0:
192,192,158790,1,0,0:0:0:0:
64,192,158887,1,0,0:0:0:0:
192,192,158984,1,0,0:0:0:0:
64,192,159080,1,0,0:0:0:0:
320,192,159080,128,0,159177:0:0:0:0:
448,192,159177,1,0,0:0:0:0:
192,192,159274,1,0,0:0:0:0:
320,192,159274,128,0,159371:0:0:0:0:
64,192,159371,1,0,0:0:0:0:
448,192,159467,1,0,0:0:0:0:
320,192,159467,128,0,159564:0:0:0:0:
64,192,159564,1,0,0:0:0:0:
192,192,159564,128,0,159661:0:0:0:0:
448,192,159661,1,0,0:0:0:0:
320,192,159661,128,0,159758:0:0:0:0:
448,192,159758,1,0,0:0:0:0:
192,192,159758,128,0,159854:0:0:0:0:
64,192,159854,1,0,0:0:0:0:
320,192,159854,128,0,159951:0:0:0:0:
64,192,159951,1,0,0:0:0:0:
448,192,159951,128,0,160048:0:0:0:0:
192,192,160048,1,0,0:0:0:0:
320,192,160048,128,0,160145:0:0:0:0:
64,192,160145,1,0,0:0:0:0:
192,192,160145,128,0,160242:0:0:0:0:
448,192,160242,1,0,0:0:0:0:
320,192,160242,128,0,160338:0:0:0:0:
448,192,160338,1,0,0:0:0:0:
192,192,160338,128,0,160435:0:0:0:0:
64,192,160435,1,0,0:0:0:0:
320,192,160435,128,0,160532:0:0:0:0:
448,192,160532,1,0,0:0:0:0:
64,192,160532,128,0,160629:0:0:0:0:
192,192,160629,1,0,0:0:0:0:
320,192,160629,128,0,160725:0:0:0:0:
448,192,160725,1,0,0:0:0:0:
64,192,160725,128,0,160822:0:0:0:0:
320,192,160822,1,0,0:0:0:0:
192,192,160822,128,0,160919:0:0:0:0:
448,192,160919,1,0,0:0:0:0:
64,192,160919,128,0,161016:0:0:0:0:
320,192,161016,1,0,0:0:0:0:
192,192,161016,128,0,161113:0:0:0:0:
64,192,161113,1,0,0:0:0:0:
320,192,161113,128,0,161209:0:0:0:0:
192,192,161209,1,0,0:0:0:0:
448,192,161209,128,0,161306:0:0:0:0:
64,192,161306,1,0,0:0:0:0:
320,192,161306,128,0,161403:0:0:0:0:
448,192,161403,1,0,0:0:0:0:
192,192,161403,128,0,161500:0:0:0:0:
64,192,161500,1,0,0:0:0:0:
320,192,161500,128,0,161596:0:0:0:0:
448,192,161596,1,0,0:0:0:0:
192,192,161596,128,0,161693:0:0:0:0:
64,192,161693,1,0,0:0:0:0:
320,192,161693,128,0,161790:0:0:0:0:
64,192,161790,1,0,0:0:0:0:
448,192,161790,128,0,162177:0:0:0:0:
192,192,161790,128,0,162177:0:0:0:0:
320,192,161887,1,0,0:0:0:0:
64,192,161984,1,0,0:0:0:0:
320,192,162080,1,0,0:0:0:0:
320,192,162177,1,0,0:0:0:0:
64,192,162177,128,0,162225:0:0:0:0:
192,192,162225,128,0,162274:0:0:0:0:
448,192,162274,1,0,0:0:0:0:
64,192,162274,128,0,162322:0:0:0:0:
192,192,162322,128,0,162371:0:0:0:0:
320,192,162371,1,0,0:0:0:0:
64,192,162371,128,0,162419:0:0:0:0:
192,192,162419,128,0,162467:0:0:0:0:
448,192,162467,1,0,0:0:0:0:
64,192,162467,128,0,162758:0:0:0:0:
320,192,162564,1,0,0:0:0:0:
192,192,162661,1,0,0:0:0:0:
448,192,162758,1,0,0:0:0:0:
192,192,162758,128,0,162951:0:0:0:0:
320,192,162855,1,0,0:0:0:0:
64,192,162951,1,0,0:0:0:0:
448,192,162951,128,0,163242:0:0:0:0:
320,192,163048,1,0,0:0:0:0:
64,192,163145,1,0,0:0:0:0:
192,192,163242,1,0,0:0:0:0:
320,192,163242,128,0,163532:0:0:0:0:
448,192,163338,1,0,0:0:0:0:
64,192,163435,1,0,0:0:0:0:
448,192,163532,1,0,0:0:0:0:
192,192,163532,128,0,163725:0:0:0:0:
320,192,163629,1,0,0:0:0:0:
448,192,163725,1,0,0:0:0:0:
64,192,163725,128,0,163919:0:0:0:0:
192,192,163822,1,0,0:0:0:0:
448,192,163919,1,0,0:0:0:0:
192,192,163919,128,0,164209:0:0:0:0:
320,192,163919,128,0,164209:0:0:0:0:
64,192,164016,1,0,0:0:0:0:
448,192,164113,1,0,0:0:0:0:
64,192,164209,1,0,0:0:0:0:
448,192,164306,1,0,0:0:0:0:
320,192,164306,128,0,164693:0:0:0:0:
192,192,164403,1,0,0:0:0:0:
64,192,164500,1,0,0:0:0:0:
192,192,164596,1,0,0:0:0:0:
64,192,164693,1,0,0:0:0:0:
448,192,164693,128,0,165855:0:0:0:0:
320,192,164790,1,0,0:0:0:0:
64,192,164887,1,0,0:0:0:0:
192,192,164984,1,0,0:0:0:0:
320,192,165080,1,0,0:0:0:0:
192,192,165177,1,0,0:0:0:0:
64,192,165274,1,0,0:0:0:0:
320,192,165371,1,0,0:0:0:0:
192,192,165467,1,0,0:0:0:0:
320,192,165564,1,0,0:0:0:0:
192,192,165661,1,0,0:0:0:0:
64,192,165758,1,0,0:0:0:0:
192,192,165855,1,0,0:0:0:0:
320,192,165855,128,0,165951:0:0:0:0:
448,192,165951,1,0,0:0:0:0:
192,192,165951,128,0,166000:0:0:0:0:
64,192,166000,128,0,166048:0:0:0:0:
320,192,166048,1,0,0:0:0:0:
192,192,166048,128,0,166145:0:0:0:0:
64,192,166145,1,0,0:0:0:0:
320,192,166145,128,0,166822:0:0:0:0:
448,192,166242,1,0,0:0:0:0:
64,192,166338,1,0,0:0:0:0:
192,192,166435,1,0,0:0:0:0:
448,192,166532,1,0,0:0:0:0:
64,192,166629,1,0,0:0:0:0:
192,192,166725,1,0,0:0:0:0:
64,192,166822,1,0,0:0:0:0:
448,192,166822,1,0,0:0:0:0:
448,192,166919,1,0,0:0:0:0:
64,192,167016,1,0,0:0:0:0:
192,192,167016,128,0,167209:0:0:0:0:
448,192,167113,1,0,0:0:0:0:
320,192,167209,128,0,167274:0:0:0:0:
448,192,167209,1,0,0:0:0:0:
64,192,167209,1,0,0:0:0:0:
448,192,167274,128,0,167338:0:0:0:0:
320,192,167338,128,0,167403:0:0:0:0:
448,192,167403,128,0,167467:0:0:0:0:
192,192,167467,128,0,167532:0:0:0:0:
320,192,167532,128,0,167596:0:0:0:0:
192,192,167596,128,0,167661:0:0:0:0:
320,192,167661,128,0,167725:0:0:0:0:
64,192,167725,128,0,167790:0:0:0:0:
192,192,167790,128,0,167855:0:0:0:0:
64,192,167855,128,0,167919:0:0:0:0:
192,192,167919,128,0,167984:0:0:0:0:
64,192,167984,128,0,168048:0:0:0:0:
320,192,168048,128,0,168113:0:0:0:0:
64,192,168113,128,0,168177:0:0:0:0:
320,192,168177,128,0,168242:0:0:0:0:
64,192,168242,128,0,168306:0:0:0:0:
192,192,168306,128,0,168371:0:0:0:0:
320,192,168371,128,0,168435:0:0:0:0:
192,192,168435,128,0,168500:0:0:0:0:
320,192,168500,128,0,168564:0:0:0:0:
192,192,168564,128,0,168629:0:0:0:0:
320,192,168629,128,0,168693:0:0:0:0:
64,192,168693,128,0,168758:0:0:0:0:
192,192,168758,128,0,168822:0:0:0:0:
64,192,168822,128,0,168887:0:0:0:0:
192,192,168887,128,0,168951:0:0:0:0:
320,192,168951,128,0,169016:0:0:0:0:
192,192,169016,128,0,169080:0:0:0:0:
320,192,169080,128,0,169145:0:0:0:0:
192,192,169145,128,0,169209:0:0:0:0:
320,192,169209,128,0,169274:0:0:0:0:
64,192,169274,128,0,169338:0:0:0:0:
192,192,169338,128,0,169403:0:0:0:0:
64,192,169403,128,0,169467:0:0:0:0:
192,192,169467,128,0,169532:0:0:0:0:
320,192,169532,128,0,169596:0:0:0:0:
192,192,169596,128,0,169661:0:0:0:0:
320,192,169661,128,0,169725:0:0:0:0:
192,192,169725,128,0,169790:0:0:0:0:
320,192,169790,128,0,169855:0:0:0:0:
448,192,169855,128,0,169919:0:0:0:0:
320,192,169919,128,0,169984:0:0:0:0:
448,192,169984,128,0,170048:0:0:0:0:
320,192,170048,128,0,170113:0:0:0:0:
192,192,170113,128,0,170177:0:0:0:0:
320,192,170177,128,0,170242:0:0:0:0:
192,192,170242,128,0,170306:0:0:0:0:
320,192,170306,128,0,170371:0:0:0:0:
192,192,170371,128,0,170435:0:0:0:0:
64,192,170435,128,0,170500:0:0:0:0:
192,192,170500,128,0,170564:0:0:0:0:
64,192,170564,128,0,170629:0:0:0:0:
192,192,170629,128,0,170693:0:0:0:0:
320,192,170693,128,0,170758:0:0:0:0:
192,192,170758,128,0,170822:0:0:0:0:
320,192,170822,128,0,170887:0:0:0:0:
192,192,170887,128,0,170951:0:0:0:0:
448,192,170951,128,0,171016:0:0:0:0:
320,192,171016,128,0,171080:0:0:0:0:
448,192,171080,128,0,171177:0:0:0:0:
320,192,171145,128,0,171209:0:0:0:0:
192,192,171209,128,0,171274:0:0:0:0:
64,192,171274,128,0,171338:0:0:0:0:
192,192,171338,128,0,171403:0:0:0:0:
64,192,171403,128,0,171467:0:0:0:0:
448,192,171467,1,0,0:0:0:0:
320,192,171467,1,0,0:0:0:0:
192,192,171467,1,0,0:0:0:0:
320,192,171661,1,0,0:0:0:0:
448,192,171661,1,0,0:0:0:0:
64,192,171661,1,0,0:0:0:0:
192,192,171661,1,0,0:0:0:0:
64,192,172605,1,0,0:0:0:0:
192,192,172701,1,0,0:0:0:0:
64,192,172798,1,0,0:0:0:0:
192,192,172895,1,0,0:0:0:0:
320,192,172992,1,0,0:0:0:0:
64,192,173379,1,0,0:0:0:0:
448,192,173766,1,0,0:0:0:0:
320,192,173959,1,0,0:0:0:0:
192,192,174153,1,0,0:0:0:0:
64,192,174346,1,0,0:0:0:0:
64,192,174540,1,0,0:0:0:0:
64,192,174927,1,0,0:0:0:0:
192,192,174927,1,0,0:0:0:0:
64,192,175121,1,0,0:0:0:0:
192,192,175121,1,0,0:0:0:0:
320,192,175314,1,0,0:0:0:0:
64,192,175895,1,0,0:0:0:0:
192,192,175992,1,0,0:0:0:0:
320,192,176088,1,0,0:0:0:0:
320,192,176475,1,0,0:0:0:0:
448,192,176863,1,0,0:0:0:0:
320,192,177056,1,0,0:0:0:0:
448,192,177637,1,0,0:0:0:0:
192,192,178024,1,0,0:0:0:0:
64,192,178024,1,0,0:0:0:0:
64,192,178217,1,0,0:0:0:0:
192,192,178217,1,0,0:0:0:0:
320,192,178411,1,0,0:0:0:0:
448,192,178459,1,0,0:0:0:0:
320,192,178798,1,0,0:0:0:0:
448,192,178992,1,0,0:0:0:0:
192,192,179185,1,0,0:0:0:0:
320,192,179234,1,0,0:0:0:0:
448,192,179282,1,0,0:0:0:0:
64,192,179572,1,0,0:0:0:0:
192,192,179572,1,0,0:0:0:0:
320,192,179766,1,0,0:0:0:0:
448,192,179814,1,0,0:0:0:0:
64,192,179959,1,0,0:0:0:0:
64,192,180153,1,0,0:0:0:0:
448,192,180346,1,0,0:0:0:0:
192,192,180540,1,0,0:0:0:0:
192,192,180734,1,0,0:0:0:0:
320,192,180734,1,0,0:0:0:0:
192,192,181121,1,0,0:0:0:0:
64,192,181121,1,0,0:0:0:0:
192,192,181314,1,0,0:0:0:0:
64,192,181314,1,0,0:0:0:0:
320,192,181508,1,0,0:0:0:0:
320,192,181701,1,0,0:0:0:0:
192,192,181895,1,0,0:0:0:0:
192,192,182088,1,0,0:0:0:0:
64,192,182282,1,0,0:0:0:0:
192,192,182475,1,0,0:0:0:0:
320,192,182669,1,0,0:0:0:0:
448,192,182863,1,0,0:0:0:0:
320,192,183056,1,0,0:0:0:0:
192,192,183250,1,0,0:0:0:0:
64,192,183443,1,0,0:0:0:0:
192,192,183637,1,0,0:0:0:0:
64,192,183830,1,0,0:0:0:0:
448,192,183879,1,0,0:0:0:0:
64,192,184217,1,0,0:0:0:0:
192,192,184217,1,0,0:0:0:0:
64,192,184411,1,0,0:0:0:0:
192,192,184411,1,0,0:0:0:0:
64,192,184605,1,0,0:0:0:0:
192,192,184605,1,0,0:0:0:0:
192,192,184992,1,0,0:0:0:0:
64,192,184992,1,0,0:0:0:0:
64,192,185185,1,0,0:0:0:0:
192,192,185185,1,0,0:0:0:0:
320,192,185379,1,0,0:0:0:0:
320,192,185766,1,0,0:0:0:0:
320,192,186153,1,0,0:0:0:0:
320,192,186346,1,0,0:0:0:0:
192,192,186540,1,0,0:0:0:0:
64,192,186734,1,0,0:0:0:0:
64,192,187121,1,0,0:0:0:0:
192,192,187314,1,0,0:0:0:0:
320,192,187508,1,0,0:0:0:0:
64,192,187701,1,0,0:0:0:0:
192,192,187701,1,0,0:0:0:0:
320,192,187895,1,0,0:0:0:0:
192,192,188088,1,0,0:0:0:0:
64,192,188282,1,0,0:0:0:0:
64,192,188475,1,0,0:0:0:0:
320,192,188475,1,0,0:0:0:0:
64,192,188863,1,0,0:0:0:0:
192,192,188863,1,0,0:0:0:0:
64,192,189056,1,0,0:0:0:0:
192,192,189056,1,0,0:0:0:0:
320,192,189250,1,0,0:0:0:0:
192,192,189250,1,0,0:0:0:0:
192,192,189443,1,0,0:0:0:0:
320,192,189637,1,0,0:0:0:0:
448,192,189830,1,0,0:0:0:0:
192,192,190024,1,0,0:0:0:0:
448,192,190024,1,0,0:0:0:0:
64,192,190411,1,0,0:0:0:0:
192,192,190411,1,0,0:0:0:0:
64,192,190605,1,0,0:0:0:0:
192,192,190605,1,0,0:0:0:0:
320,192,190798,1,0,0:0:0:0:
448,192,190846,1,0,0:0:0:0:
192,192,191185,1,0,0:0:0:0:
64,192,191185,1,0,0:0:0:0:
192,192,191379,1,0,0:0:0:0:
64,192,191379,1,0,0:0:0:0:
320,192,191572,1,0,0:0:0:0:
192,192,191572,1,0,0:0:0:0:
64,192,191959,1,0,0:0:0:0:
192,192,191959,1,0,0:0:0:0:
192,192,192153,1,0,0:0:0:0:
64,192,192153,1,0,0:0:0:0:
448,192,192346,5,0,0:0:0:0:
320,192,192637,1,0,0:0:0:0:
192,192,192927,1,0,0:0:0:0:
64,192,193169,5,0,0:0:0:0:
320,192,193169,1,0,0:0:0:0:
192,192,194669,1,0,0:0:0:0:
320,192,194693,1,0,0:0:0:0:
448,192,194717,1,0,0:0:0:0:
192,192,195056,1,0,0:0:0:0:
320,192,195080,1,0,0:0:0:0:
448,192,195105,1,0,0:0:0:0:
192,192,195443,1,0,0:0:0:0:
320,192,195467,1,0,0:0:0:0:
448,192,195492,1,0,0:0:0:0:
192,192,195830,1,0,0:0:0:0:
320,192,195855,1,0,0:0:0:0:
448,192,195879,1,0,0:0:0:0:
448,192,196217,1,0,0:0:0:0:
320,192,196242,1,0,0:0:0:0:
192,192,196266,1,0,0:0:0:0:
64,192,196629,1,0,0:0:0:0:
320,192,196629,1,0,0:0:0:0:
192,192,196629,1,0,0:0:0:0:
320,192,196992,1,0,0:0:0:0:
192,192,197016,1,0,0:0:0:0:
64,192,197040,1,0,0:0:0:0:
320,192,197379,1,0,0:0:0:0:
192,192,197403,1,0,0:0:0:0:
64,192,197427,1,0,0:0:0:0:
320,192,197790,1,0,0:0:0:0:
448,192,197790,1,0,0:0:0:0:
64,192,197790,1,0,0:0:0:0:
448,192,197887,1,0,0:0:0:0:
192,192,197887,1,0,0:0:0:0:
192,192,197984,1,0,0:0:0:0:
64,192,197984,1,0,0:0:0:0:
192,192,198080,1,0,0:0:0:0:
448,192,198080,1,0,0:0:0:0:
320,192,198177,128,0,198371:0:0:0:0:
192,192,198371,128,0,198564:0:0:0:0:
448,192,198564,1,0,0:0:0:0:
64,192,198661,1,0,0:0:0:0:
192,192,198661,1,0,0:0:0:0:
448,192,198758,1,0,0:0:0:0:
320,192,198758,1,0,0:0:0:0:
448,192,198855,1,0,0:0:0:0:
64,192,198855,1,0,0:0:0:0:
192,192,198951,1,0,0:0:0:0:
448,192,198951,1,0,0:0:0:0:
320,192,198951,128,0,199145:0:0:0:0:
192,192,199145,128,0,199338:0:0:0:0:
448,192,199435,1,0,0:0:0:0:
192,192,199435,1,0,0:0:0:0:
320,192,199532,1,0,0:0:0:0:
64,192,199532,1,0,0:0:0:0:
448,192,199629,1,0,0:0:0:0:
192,192,199629,1,0,0:0:0:0:
320,192,199725,1,0,0:0:0:0:
64,192,199725,1,0,0:0:0:0:
320,192,199822,1,0,0:0:0:0:
448,192,199822,1,0,0:0:0:0:
320,192,199919,1,0,0:0:0:0:
64,192,199919,1,0,0:0:0:0:
192,192,200016,1,0,0:0:0:0:
64,192,200016,1,0,0:0:0:0:
64,192,200113,1,0,0:0:0:0:
448,192,200113,1,0,0:0:0:0:
320,192,200209,1,0,0:0:0:0:
192,192,200209,1,0,0:0:0:0:
448,192,200306,1,0,0:0:0:0:
192,192,200306,1,0,0:0:0:0:
64,192,200403,1,0,0:0:0:0:
320,192,200403,1,0,0:0:0:0:
320,192,200500,128,0,200693:0:0:0:0:
448,192,200693,128,0,200887:0:0:0:0:
320,192,200887,1,0,0:0:0:0:
64,192,200887,1,0,0:0:0:0:
320,192,200984,1,0,0:0:0:0:
448,192,201080,1,0,0:0:0:0:
64,192,201080,1,0,0:0:0:0:
448,192,201177,1,0,0:0:0:0:
192,192,201177,1,0,0:0:0:0:
448,192,201274,1,0,0:0:0:0:
64,192,201274,1,0,0:0:0:0:
320,192,201274,128,0,201467:0:0:0:0:
192,192,201467,128,0,201661:0:0:0:0:
320,192,201758,1,0,0:0:0:0:
448,192,201758,1,0,0:0:0:0:
64,192,201855,1,0,0:0:0:0:
320,192,201855,1,0,0:0:0:0:
192,192,201951,1,0,0:0:0:0:
448,192,201951,1,0,0:0:0:0:
320,192,202048,128,0,202242:0:0:0:0:
64,192,202048,1,0,0:0:0:0:
448,192,202048,1,0,0:0:0:0:
192,192,202242,128,0,202435:0:0:0:0:
64,192,202532,1,0,0:0:0:0:
192,192,202532,1,0,0:0:0:0:
448,192,202532,1,0,0:0:0:0:
320,192,202629,1,0,0:0:0:0:
192,192,202726,1,0,0:0:0:0:
448,192,202726,1,0,0:0:0:0:
320,192,202822,1,0,0:0:0:0:
64,192,202822,1,0,0:0:0:0:
320,192,202919,1,0,0:0:0:0:
448,192,202919,1,0,0:0:0:0:
192,192,203016,1,0,0:0:0:0:
64,192,203016,1,0,0:0:0:0:
64,192,203113,1,0,0:0:0:0:
448,192,203113,1,0,0:0:0:0:
192,192,203209,1,0,0:0:0:0:
448,192,203209,1,0,0:0:0:0:
320,192,203306,1,0,0:0:0:0:
448,192,203306,1,0,0:0:0:0:
320,192,203403,1,0,0:0:0:0:
64,192,203403,1,0,0:0:0:0:
448,192,203500,1,0,0:0:0:0:
192,192,203500,1,0,0:0:0:0:
320,192,203596,128,0,203790:0:0:0:0:
448,192,203790,128,0,203984:0:0:0:0:
64,192,203984,1,0,0:0:0:0:
192,192,203984,1,0,0:0:0:0:
320,192,204048,1,0,0:0:0:0:
192,192,204113,1,0,0:0:0:0:
448,192,204177,1,0,0:0:0:0:
192,192,204242,1,0,0:0:0:0:
320,192,204306,1,0,0:0:0:0:
192,192,204371,1,0,0:0:0:0:
64,192,204371,1,0,0:0:0:0:
448,192,204371,1,0,0:0:0:0:
320,192,204435,1,0,0:0:0:0:
64,192,204500,1,0,0:0:0:0:
448,192,204564,1,0,0:0:0:0:
320,192,204629,1,0,0:0:0:0:
64,192,204693,1,0,0:0:0:0:
448,192,204758,1,0,0:0:0:0:
192,192,204758,1,0,0:0:0:0:
320,192,204758,1,0,0:0:0:0:
64,192,204822,1,0,0:0:0:0:
192,192,204887,1,0,0:0:0:0:
320,192,204951,1,0,0:0:0:0:
64,192,205016,1,0,0:0:0:0:
192,192,205080,1,0,0:0:0:0:
320,192,205145,1,0,0:0:0:0:
448,192,205145,1,0,0:0:0:0:
64,192,205145,1,0,0:0:0:0:
192,192,205209,1,0,0:0:0:0:
448,192,205274,1,0,0:0:0:0:
64,192,205338,1,0,0:0:0:0:
192,192,205403,1,0,0:0:0:0:
320,192,205467,1,0,0:0:0:0:
448,192,205532,1,0,0:0:0:0:
64,192,205532,1,0,0:0:0:0:
192,192,205532,1,0,0:0:0:0:
320,192,205596,1,0,0:0:0:0:
64,192,205661,1,0,0:0:0:0:
320,192,205726,1,0,0:0:0:0:
192,192,205790,1,0,0:0:0:0:
448,192,205855,1,0,0:0:0:0:
320,192,205919,1,0,0:0:0:0:
192,192,205919,1,0,0:0:0:0:
64,192,205919,1,0,0:0:0:0:
448,192,205984,1,0,0:0:0:0:
320,192,206048,1,0,0:0:0:0:
192,192,206113,1,0,0:0:0:0:
320,192,206177,1,0,0:0:0:0:
64,192,206242,1,0,0:0:0:0:
448,192,206306,1,0,0:0:0:0:
320,192,206306,1,0,0:0:0:0:
192,192,206306,1,0,0:0:0:0:
64,192,206371,1,0,0:0:0:0:
192,192,206435,1,0,0:0:0:0:
64,192,206500,1,0,0:0:0:0:
320,192,206564,1,0,0:0:0:0:
448,192,206629,1,0,0:0:0:0:
192,192,206693,1,0,0:0:0:0:
320,192,206693,1,0,0:0:0:0:
64,192,206693,1,0,0:0:0:0:
448,192,206758,1,0,0:0:0:0:
320,192,206822,1,0,0:0:0:0:
64,192,206887,1,0,0:0:0:0:
448,192,206951,1,0,0:0:0:0:
320,192,207016,1,0,0:0:0:0:
64,192,207080,1,0,0:0:0:0:
448,192,207080,1,0,0:0:0:0:
192,192,207080,1,0,0:0:0:0:
320,192,207145,1,0,0:0:0:0:
448,192,207209,1,0,0:0:0:0:
320,192,207274,1,0,0:0:0:0:
192,192,207338,1,0,0:0:0:0:
64,192,207403,1,0,0:0:0:0:
448,192,207467,1,0,0:0:0:0:
320,192,207467,1,0,0:0:0:0:
192,192,207467,1,0,0:0:0:0:
64,192,207532,1,0,0:0:0:0:
192,192,207596,1,0,0:0:0:0:
320,192,207661,1,0,0:0:0:0:
448,192,207726,1,0,0:0:0:0:
192,192,207790,1,0,0:0:0:0:
448,192,207855,1,0,0:0:0:0:
320,192,207855,1,0,0:0:0:0:
64,192,207855,1,0,0:0:0:0:
192,192,207919,1,0,0:0:0:0:
448,192,207984,1,0,0:0:0:0:
64,192,208048,1,0,0:0:0:0:
192,192,208113,1,0,0:0:0:0:
64,192,208177,1,0,0:0:0:0:
448,192,208242,1,0,0:0:0:0:
320,192,208242,1,0,0:0:0:0:
192,192,208242,1,0,0:0:0:0:
64,192,208306,1,0,0:0:0:0:
448,192,208371,1,0,0:0:0:0:
320,192,208435,1,0,0:0:0:0:
64,192,208500,1,0,0:0:0:0:
192,192,208564,1,0,0:0:0:0:
448,192,208629,1,0,0:0:0:0:
320,192,208629,1,0,0:0:0:0:
64,192,208629,1,0,0:0:0:0:
192,192,208693,1,0,0:0:0:0:
320,192,208758,1,0,0:0:0:0:
448,192,208822,1,0,0:0:0:0:
192,192,208887,1,0,0:0:0:0:
448,192,208951,1,0,0:0:0:0:
320,192,209016,1,0,0:0:0:0:
192,192,209016,1,0,0:0:0:0:
64,192,209016,1,0,0:0:0:0:
448,192,209080,1,0,0:0:0:0:
320,192,209145,1,0,0:0:0:0:
192,192,209209,1,0,0:0:0:0:
64,192,209274,1,0,0:0:0:0:
320,192,209338,1,0,0:0:0:0:
448,192,209403,1,0,0:0:0:0:
192,192,209403,1,0,0:0:0:0:
64,192,209403,1,0,0:0:0:0:
320,192,209467,1,0,0:0:0:0:
192,192,209532,1,0,0:0:0:0:
64,192,209596,1,0,0:0:0:0:
320,192,209661,1,0,0:0:0:0:
64,192,209726,1,0,0:0:0:0:
192,192,209790,1,0,0:0:0:0:
320,192,209790,1,0,0:0:0:0:
448,192,209790,1,0,0:0:0:0:
64,192,209855,1,0,0:0:0:0:
192,192,209919,1,0,0:0:0:0:
320,192,209984,1,0,0:0:0:0:
64,192,210048,1,0,0:0:0:0:
192,192,210113,1,0,0:0:0:0:
448,192,210177,1,0,0:0:0:0:
320,192,210177,1,0,0:0:0:0:
64,192,210177,1,0,0:0:0:0:
192,192,210371,1,0,0:0:0:0:
64,192,210371,1,0,0:0:0:0:
448,192,210371,1,0,0:0:0:0:
320,192,210564,1,0,0:0:0:0:
192,192,210564,1,0,0:0:0:0:
448,192,210564,1,0,0:0:0:0:
192,192,210758,1,0,0:0:0:0:
320,192,210758,1,0,0:0:0:0:
320,192,210855,1,0,0:0:0:0:
64,192,210855,1,0,0:0:0:0:
192,192,210951,1,0,0:0:0:0:
320,192,211048,1,0,0:0:0:0:
64,192,211048,1,0,0:0:0:0:
448,192,211145,1,0,0:0:0:0:
320,192,211145,1,0,0:0:0:0:
448,192,211338,1,0,0:0:0:0:
64,192,211338,1,0,0:0:0:0:
320,192,211338,1,0,0:0:0:0:
320,192,211435,1,0,0:0:0:0:
64,192,211532,1,0,0:0:0:0:
192,192,211532,1,0,0:0:0:0:
448,192,211532,1,0,0:0:0:0:
448,192,211629,1,0,0:0:0:0:
192,192,211726,1,0,0:0:0:0:
64,192,211726,1,0,0:0:0:0:
320,192,211726,1,0,0:0:0:0:
320,192,211919,1,0,0:0:0:0:
448,192,211919,1,0,0:0:0:0:
192,192,211919,1,0,0:0:0:0:
64,192,212113,1,0,0:0:0:0:
448,192,212113,1,0,0:0:0:0:
192,192,212113,1,0,0:0:0:0:
64,192,212306,1,0,0:0:0:0:
320,192,212306,1,0,0:0:0:0:
448,192,212403,1,0,0:0:0:0:
192,192,212403,1,0,0:0:0:0:
192,192,212500,1,0,0:0:0:0:
320,192,212596,1,0,0:0:0:0:
64,192,212596,1,0,0:0:0:0:
192,192,212693,1,0,0:0:0:0:
320,192,212693,1,0,0:0:0:0:
64,192,212887,1,0,0:0:0:0:
192,192,212887,1,0,0:0:0:0:
320,192,212887,1,0,0:0:0:0:
192,192,212984,1,0,0:0:0:0:
320,192,213080,1,0,0:0:0:0:
64,192,213080,1,0,0:0:0:0:
448,192,213080,1,0,0:0:0:0:
320,192,213177,1,0,0:0:0:0:
192,192,213274,1,0,0:0:0:0:
64,192,213274,1,0,0:0:0:0:
320,192,213274,1,0,0:0:0:0:
448,192,213467,1,0,0:0:0:0:
192,192,213467,1,0,0:0:0:0:
320,192,213467,1,0,0:0:0:0:
448,192,213661,1,0,0:0:0:0:
320,192,213661,1,0,0:0:0:0:
64,192,213661,1,0,0:0:0:0:
192,192,213855,1,0,0:0:0:0:
320,192,213855,1,0,0:0:0:0:
192,192,213951,1,0,0:0:0:0:
320,192,213951,1,0,0:0:0:0:
64,192,214048,1,0,0:0:0:0:
448,192,214145,1,0,0:0:0:0:
320,192,214145,1,0,0:0:0:0:
192,192,214242,1,0,0:0:0:0:
64,192,214242,1,0,0:0:0:0:
320,192,214435,1,0,0:0:0:0:
192,192,214435,1,0,0:0:0:0:
64,192,214435,1,0,0:0:0:0:
320,192,214532,1,0,0:0:0:0:
320,192,214629,1,0,0:0:0:0:
448,192,214629,1,0,0:0:0:0:
192,192,214629,1,0,0:0:0:0:
192,192,214726,1,0,0:0:0:0:
64,192,214822,1,0,0:0:0:0:
192,192,214822,1,0,0:0:0:0:
320,192,214822,1,0,0:0:0:0:
448,192,215016,1,0,0:0:0:0:
192,192,215016,1,0,0:0:0:0:
64,192,215016,1,0,0:0:0:0:
192,192,215209,1,0,0:0:0:0:
320,192,215209,1,0,0:0:0:0:
448,192,215209,1,0,0:0:0:0:
192,192,215403,1,0,0:0:0:0:
64,192,215403,1,0,0:0:0:0:
448,192,215500,1,0,0:0:0:0:
192,192,215500,1,0,0:0:0:0:
320,192,215596,1,0,0:0:0:0:
320,192,215693,1,0,0:0:0:0:
192,192,215693,1,0,0:0:0:0:
64,192,215790,1,0,0:0:0:0:
448,192,215790,1,0,0:0:0:0:
448,192,215984,1,0,0:0:0:0:
320,192,215984,1,0,0:0:0:0:
64,192,215984,1,0,0:0:0:0:
192,192,216080,1,0,0:0:0:0:
64,192,216177,1,0,0:0:0:0:
320,192,216177,1,0,0:0:0:0:
192,192,216177,1,0,0:0:0:0:
320,192,216274,1,0,0:0:0:0:
320,192,216371,1,0,0:0:0:0:
448,192,216371,1,0,0:0:0:0:
64,192,216371,1,0,0:0:0:0:
192,192,216371,1,0,0:0:0:0:
448,192,216564,1,0,0:0:0:0:
192,192,216564,1,0,0:0:0:0:
64,192,216564,1,0,0:0:0:0:
448,192,216758,1,0,0:0:0:0:
320,192,216758,1,0,0:0:0:0:
192,192,216758,1,0,0:0:0:0:
320,192,216951,1,0,0:0:0:0:
448,192,216951,1,0,0:0:0:0:
192,192,217048,1,0,0:0:0:0:
64,192,217048,1,0,0:0:0:0:
320,192,217145,1,0,0:0:0:0:
448,192,217242,1,0,0:0:0:0:
320,192,217242,1,0,0:0:0:0:
448,192,217338,1,0,0:0:0:0:
320,192,217338,1,0,0:0:0:0:
192,192,217532,1,0,0:0:0:0:
64,192,217532,1,0,0:0:0:0:
320,192,217532,1,0,0:0:0:0:
192,192,217629,1,0,0:0:0:0:
320,192,217726,1,0,0:0:0:0:
448,192,217726,1,0,0:0:0:0:
192,192,217726,1,0,0:0:0:0:
64,192,217822,1,0,0:0:0:0:
448,192,217919,1,0,0:0:0:0:
192,192,217919,1,0,0:0:0:0:
320,192,217919,1,0,0:0:0:0:
448,192,218113,1,0,0:0:0:0:
320,192,218113,1,0,0:0:0:0:
192,192,218113,1,0,0:0:0:0:
448,192,218306,1,0,0:0:0:0:
192,192,218306,1,0,0:0:0:0:
64,192,218306,1,0,0:0:0:0:
64,192,218500,1,0,0:0:0:0:
320,192,218500,1,0,0:0:0:0:
192,192,218596,1,0,0:0:0:0:
320,192,218596,1,0,0:0:0:0:
448,192,218693,1,0,0:0:0:0:
192,192,218790,1,0,0:0:0:0:
320,192,218790,1,0,0:0:0:0:
320,192,218887,1,0,0:0:0:0:
448,192,218887,1,0,0:0:0:0:
192,192,219080,1,0,0:0:0:0:
320,192,219080,1,0,0:0:0:0:
64,192,219080,1,0,0:0:0:0:
448,192,219177,1,0,0:0:0:0:
320,192,219274,1,0,0:0:0:0:
192,192,219274,1,0,0:0:0:0:
64,192,219274,1,0,0:0:0:0:
64,192,219371,1,0,0:0:0:0:
448,192,219467,1,0,0:0:0:0:
192,192,219467,1,0,0:0:0:0:
64,192,219467,1,0,0:0:0:0:
448,192,219661,1,0,0:0:0:0:
320,192,219661,1,0,0:0:0:0:
192,192,219661,1,0,0:0:0:0:
64,192,219855,1,0,0:0:0:0:
448,192,219855,1,0,0:0:0:0:
320,192,219855,1,0,0:0:0:0:
64,192,220048,1,0,0:0:0:0:
320,192,220048,1,0,0:0:0:0:
64,192,220145,1,0,0:0:0:0:
320,192,220145,1,0,0:0:0:0:
192,192,220242,1,0,0:0:0:0:
448,192,220338,1,0,0:0:0:0:
192,192,220338,1,0,0:0:0:0:
64,192,220435,1,0,0:0:0:0:
320,192,220435,1,0,0:0:0:0:
192,192,220629,1,0,0:0:0:0:
320,192,220629,1,0,0:0:0:0:
448,192,220629,1,0,0:0:0:0:
64,192,220726,1,0,0:0:0:0:
320,192,220822,1,0,0:0:0:0:
448,192,220822,1,0,0:0:0:0:
192,192,220822,1,0,0:0:0:0:
64,192,220919,1,0,0:0:0:0:
448,192,221016,1,0,0:0:0:0:
64,192,221016,1,0,0:0:0:0:
320,192,221016,1,0,0:0:0:0:
192,192,221209,128,0,221500:0:0:0:0:
448,192,221209,128,0,221500:0:0:0:0:
320,192,221209,1,0,0:0:0:0:
64,192,221209,1,0,0:0:0:0:
320,192,221403,1,0,0:0:0:0:
64,192,221403,1,0,0:0:0:0:
192,192,221596,128,0,221887:0:0:0:0:
320,192,221596,128,0,221887:0:0:0:0:
64,192,221693,1,0,0:0:0:0:
448,192,221693,1,0,0:0:0:0:
64,192,221887,1,0,0:0:0:0:
448,192,221887,1,0,0:0:0:0:
192,192,221984,128,0,222564:0:0:0:0:
64,192,221984,128,0,222564:0:0:0:0:
320,192,222177,1,0,0:0:0:0:
448,192,222274,1,0,0:0:0:0:
320,192,222371,1,0,0:0:0:0:
448,192,222467,1,0,0:0:0:0:
448,192,222564,1,0,0:0:0:0:
320,192,222564,1,0,0:0:0:0:
448,192,222758,1,0,0:0:0:0:
64,192,222758,1,0,0:0:0:0:
192,192,222758,1,0,0:0:0:0:
448,192,222951,1,0,0:0:0:0:
320,192,222951,1,0,0:0:0:0:
64,192,222951,1,0,0:0:0:0:
448,192,223145,1,0,0:0:0:0:
320,192,223145,1,0,0:0:0:0:
192,192,223242,1,0,0:0:0:0:
320,192,223242,1,0,0:0:0:0:
448,192,223338,1,0,0:0:0:0:
192,192,223435,1,0,0:0:0:0:
320,192,223435,1,0,0:0:0:0:
192,192,223532,1,0,0:0:0:0:
64,192,223532,1,0,0:0:0:0:
448,192,223726,1,0,0:0:0:0:
320,192,223726,1,0,0:0:0:0:
64,192,223726,1,0,0:0:0:0:
192,192,223822,1,0,0:0:0:0:
320,192,223919,1,0,0:0:0:0:
192,192,223919,1,0,0:0:0:0:
448,192,223919,1,0,0:0:0:0:
64,192,224016,1,0,0:0:0:0:
448,192,224113,1,0,0:0:0:0:
320,192,224113,1,0,0:0:0:0:
192,192,224113,1,0,0:0:0:0:
448,192,224306,1,0,0:0:0:0:
64,192,224306,1,0,0:0:0:0:
320,192,224306,1,0,0:0:0:0:
320,192,224500,1,0,0:0:0:0:
64,192,224500,1,0,0:0:0:0:
192,192,224500,1,0,0:0:0:0:
64,192,224693,1,0,0:0:0:0:
192,192,224693,1,0,0:0:0:0:
448,192,224790,1,0,0:0:0:0:
320,192,224790,1,0,0:0:0:0:
192,192,224887,1,0,0:0:0:0:
192,192,224984,1,0,0:0:0:0:
64,192,224984,1,0,0:0:0:0:
448,192,225080,1,0,0:0:0:0:
320,192,225080,1,0,0:0:0:0:
192,192,225274,1,0,0:0:0:0:
64,192,225274,1,0,0:0:0:0:
320,192,225274,1,0,0:0:0:0:
192,192,225371,1,0,0:0:0:0:
320,192,225467,1,0,0:0:0:0:
64,192,225467,1,0,0:0:0:0:
192,192,225564,1,0,0:0:0:0:
320,192,225661,1,0,0:0:0:0:
448,192,225661,1,0,0:0:0:0:
64,192,225661,1,0,0:0:0:0:
448,192,225855,1,0,0:0:0:0:
64,192,225855,1,0,0:0:0:0:
320,192,225855,1,0,0:0:0:0:
448,192,226048,1,0,0:0:0:0:
320,192,226048,1,0,0:0:0:0:
192,192,226048,1,0,0:0:0:0:
64,192,226242,1,0,0:0:0:0:
192,192,226242,1,0,0:0:0:0:
192,192,226338,1,0,0:0:0:0:
320,192,226338,1,0,0:0:0:0:
192,192,226435,1,0,0:0:0:0:
448,192,226532,1,0,0:0:0:0:
320,192,226532,1,0,0:0:0:0:
192,192,226629,1,0,0:0:0:0:
320,192,226629,1,0,0:0:0:0:
448,192,226822,1,0,0:0:0:0:
320,192,226822,1,0,0:0:0:0:
64,192,226822,1,0,0:0:0:0:
64,192,226919,1,0,0:0:0:0:
320,192,227016,1,0,0:0:0:0:
192,192,227016,1,0,0:0:0:0:
448,192,227016,1,0,0:0:0:0:
64,192,227113,1,0,0:0:0:0:
320,192,227209,1,0,0:0:0:0:
448,192,227209,1,0,0:0:0:0:
192,192,227209,1,0,0:0:0:0:
64,192,227403,1,0,0:0:0:0:
448,192,227403,1,0,0:0:0:0:
192,192,227403,1,0,0:0:0:0:
64,192,227596,1,0,0:0:0:0:
320,192,227596,1,0,0:0:0:0:
192,192,227596,1,0,0:0:0:0:
448,192,227790,1,0,0:0:0:0:
192,192,227790,1,0,0:0:0:0:
64,192,227887,1,0,0:0:0:0:
320,192,227887,1,0,0:0:0:0:
192,192,227984,1,0,0:0:0:0:
64,192,228080,1,0,0:0:0:0:
320,192,228080,1,0,0:0:0:0:
448,192,228177,1,0,0:0:0:0:
320,192,228177,1,0,0:0:0:0:
192,192,228371,1,0,0:0:0:0:
64,192,228371,1,0,0:0:0:0:
448,192,228371,1,0,0:0:0:0:
320,192,228467,1,0,0:0:0:0:
64,192,228564,1,0,0:0:0:0:
448,192,228564,1,0,0:0:0:0:
192,192,228564,1,0,0:0:0:0:
448,192,228661,1,0,0:0:0:0:
192,192,228758,1,0,0:0:0:0:
64,192,228758,1,0,0:0:0:0:
448,192,228758,1,0,0:0:0:0:
320,192,228758,1,0,0:0:0:0:
448,192,228951,1,0,0:0:0:0:
64,192,228951,1,0,0:0:0:0:
192,192,228951,1,0,0:0:0:0:
192,192,229145,1,0,0:0:0:0:
448,192,229145,1,0,0:0:0:0:
64,192,229145,1,0,0:0:0:0:
320,192,229338,1,0,0:0:0:0:
448,192,229338,1,0,0:0:0:0:
448,192,229435,1,0,0:0:0:0:
320,192,229435,1,0,0:0:0:0:
192,192,229532,1,0,0:0:0:0:
192,192,229629,1,0,0:0:0:0:
64,192,229629,1,0,0:0:0:0:
448,192,229726,1,0,0:0:0:0:
192,192,229726,1,0,0:0:0:0:
448,192,229919,1,0,0:0:0:0:
320,192,229919,1,0,0:0:0:0:
64,192,229919,1,0,0:0:0:0:
320,192,230016,1,0,0:0:0:0:
192,192,230113,1,0,0:0:0:0:
448,192,230113,1,0,0:0:0:0:
64,192,230113,1,0,0:0:0:0:
448,192,230209,1,0,0:0:0:0:
320,192,230306,1,0,0:0:0:0:
192,192,230306,1,0,0:0:0:0:
64,192,230306,1,0,0:0:0:0:
448,192,230500,1,0,0:0:0:0:
320,192,230500,1,0,0:0:0:0:
192,192,230500,1,0,0:0:0:0:
320,192,230693,1,0,0:0:0:0:
448,192,230693,1,0,0:0:0:0:
192,192,230693,1,0,0:0:0:0:
64,192,230887,1,0,0:0:0:0:
192,192,230887,1,0,0:0:0:0:
64,192,230984,1,0,0:0:0:0:
320,192,230984,1,0,0:0:0:0:
320,192,231080,1,0,0:0:0:0:
192,192,231177,1,0,0:0:0:0:
448,192,231177,1,0,0:0:0:0:
448,192,231274,1,0,0:0:0:0:
320,192,231274,1,0,0:0:0:0:
64,192,231467,1,0,0:0:0:0:
192,192,231467,1,0,0:0:0:0:
448,192,231467,1,0,0:0:0:0:
320,192,231467,1,0,0:0:0:0:
192,192,231564,1,0,0:0:0:0:
448,192,231661,1,0,0:0:0:0:
320,192,231661,1,0,0:0:0:0:
192,192,231661,1,0,0:0:0:0:
320,192,231758,1,0,0:0:0:0:
448,192,231855,1,0,0:0:0:0:
192,192,231855,1,0,0:0:0:0:
320,192,231855,1,0,0:0:0:0:
64,192,231855,1,0,0:0:0:0:
64,192,232048,1,0,0:0:0:0:
320,192,232048,1,0,0:0:0:0:
192,192,232048,1,0,0:0:0:0:
320,192,232242,1,0,0:0:0:0:
192,192,232242,1,0,0:0:0:0:
448,192,232435,1,0,0:0:0:0:
320,192,232435,1,0,0:0:0:0:
192,192,232435,1,0,0:0:0:0:
320,192,232532,1,0,0:0:0:0:
64,192,232532,1,0,0:0:0:0:
192,192,232532,1,0,0:0:0:0:
64,192,232629,1,0,0:0:0:0:
320,192,232629,1,0,0:0:0:0:
192,192,232629,1,0,0:0:0:0:
448,192,232822,1,0,0:0:0:0:
320,192,232822,1,0,0:0:0:0:
192,192,233016,1,0,0:0:0:0:
64,192,233016,1,0,0:0:0:0:
192,192,233209,1,0,0:0:0:0:
64,192,233209,1,0,0:0:0:0:
320,192,233209,1,0,0:0:0:0:
448,192,233306,1,0,0:0:0:0:
320,192,233306,1,0,0:0:0:0:
192,192,233306,1,0,0:0:0:0:
320,192,233403,1,0,0:0:0:0:
192,192,233403,1,0,0:0:0:0:
64,192,233403,1,0,0:0:0:0:
64,192,233596,1,0,0:0:0:0:
448,192,233596,1,0,0:0:0:0:
192,192,233596,1,0,0:0:0:0:
192,192,233693,1,0,0:0:0:0:
448,192,233693,1,0,0:0:0:0:
320,192,233693,1,0,0:0:0:0:
192,192,233790,5,0,0:0:0:0:
64,192,233790,1,0,0:0:0:0:
320,192,233790,1,0,0:0:0:0:
320,192,233984,1,0,0:0:0:0:
448,192,233984,1,0,0:0:0:0:
192,192,233984,1,0,0:0:0:0:
448,192,234080,1,0,0:0:0:0:
64,192,234080,1,0,0:0:0:0:
320,192,234080,1,0,0:0:0:0:
448,192,234177,1,0,0:0:0:0:
192,192,234177,1,0,0:0:0:0:
320,192,234177,1,0,0:0:0:0:
192,192,234371,1,0,0:0:0:0:
320,192,234371,1,0,0:0:0:0:
64,192,234371,1,0,0:0:0:0:
448,192,234371,1,0,0:0:0:0:
192,192,234564,1,0,0:0:0:0:
64,192,234564,1,0,0:0:0:0:
448,192,234564,1,0,0:0:0:0:
448,192,234661,1,0,0:0:0:0:
320,192,234661,1,0,0:0:0:0:
64,192,234661,1,0,0:0:0:0:
64,192,234758,1,0,0:0:0:0:
320,192,234758,1,0,0:0:0:0:
192,192,234758,1,0,0:0:0:0:
192,192,234855,1,0,0:0:0:0:
448,192,234855,1,0,0:0:0:0:
320,192,234855,1,0,0:0:0:0:
448,192,234951,1,0,0:0:0:0:
64,192,234951,1,0,0:0:0:0:
192,192,234951,1,0,0:0:0:0:
320,192,235015,1,0,0:0:0:0:
192,192,235080,1,0,0:0:0:0:
64,192,235144,1,0,0:0:0:0:
448,192,235144,1,0,0:0:0:0:
320,192,235144,1,0,0:0:0:0:
320,192,235209,1,0,0:0:0:0:
448,192,235273,1,0,0:0:0:0:
64,192,235338,1,0,0:0:0:0:
192,192,235402,1,0,0:0:0:0:
320,192,235467,1,0,0:0:0:0:
448,192,235531,1,0,0:0:0:0:
192,192,235531,1,0,0:0:0:0:
64,192,235531,1,0,0:0:0:0:
192,192,235596,1,0,0:0:0:0:
64,192,235660,1,0,0:0:0:0:
448,192,235789,1,0,0:0:0:0:
192,192,235854,1,0,0:0:0:0:
448,192,235918,1,0,0:0:0:0:
320,192,235918,1,0,0:0:0:0:
64,192,235918,1,0,0:0:0:0:
320,192,235983,1,0,0:0:0:0:
64,192,236047,1,0,0:0:0:0:
192,192,236112,1,0,0:0:0:0:
320,192,236176,1,0,0:0:0:0:
448,192,236241,1,0,0:0:0:0:
320,192,236305,1,0,0:0:0:0:
192,192,236305,1,0,0:0:0:0:
64,192,236305,1,0,0:0:0:0:
320,192,236370,1,0,0:0:0:0:
192,192,236434,1,0,0:0:0:0:
64,192,236499,1,0,0:0:0:0:
320,192,236563,1,0,0:0:0:0:
192,192,236628,1,0,0:0:0:0:
320,192,236692,1,0,0:0:0:0:
448,192,236692,1,0,0:0:0:0:
64,192,236692,1,0,0:0:0:0:
320,192,236757,1,0,0:0:0:0:
448,192,236821,1,0,0:0:0:0:
64,192,236886,1,0,0:0:0:0:
192,192,236951,1,0,0:0:0:0:
320,192,237015,1,0,0:0:0:0:
448,192,237080,1,0,0:0:0:0:
192,192,237080,1,0,0:0:0:0:
64,192,237080,1,0,0:0:0:0:
192,192,237144,1,0,0:0:0:0:
64,192,237209,1,0,0:0:0:0:
448,192,237273,1,0,0:0:0:0:
320,192,237338,1,0,0:0:0:0:
192,192,237402,1,0,0:0:0:0:
320,192,237467,1,0,0:0:0:0:
448,192,237467,1,0,0:0:0:0:
64,192,237467,1,0,0:0:0:0:
320,192,237531,1,0,0:0:0:0:
64,192,237596,1,0,0:0:0:0:
320,192,237660,1,0,0:0:0:0:
448,192,237725,1,0,0:0:0:0:
192,192,237789,1,0,0:0:0:0:
448,192,237854,1,0,0:0:0:0:
320,192,237854,1,0,0:0:0:0:
64,192,237854,1,0,0:0:0:0:
448,192,237918,1,0,0:0:0:0:
192,192,237983,1,0,0:0:0:0:
64,192,238047,1,0,0:0:0:0:
448,192,238112,1,0,0:0:0:0:
320,192,238176,1,0,0:0:0:0:
448,192,238241,1,0,0:0:0:0:
192,192,238241,1,0,0:0:0:0:
64,192,238241,1,0,0:0:0:0:
192,192,238305,1,0,0:0:0:0:
320,192,238370,1,0,0:0:0:0:
448,192,238434,1,0,0:0:0:0:
64,192,238499,1,0,0:0:0:0:
192,192,238563,1,0,0:0:0:0:
448,192,238628,1,0,0:0:0:0:
320,192,238628,1,0,0:0:0:0:
64,192,238628,1,0,0:0:0:0:
448,192,238692,1,0,0:0:0:0:
192,192,238757,1,0,0:0:0:0:
64,192,238821,1,0,0:0:0:0:
320,192,238886,1,0,0:0:0:0:
192,192,238951,1,0,0:0:0:0:
448,192,239015,1,0,0:0:0:0:
320,192,239015,1,0,0:0:0:0:
64,192,239015,1,0,0:0:0:0:
64,192,239080,1,0,0:0:0:0:
192,192,239144,1,0,0:0:0:0:
320,192,239209,1,0,0:0:0:0:
448,192,239273,1,0,0:0:0:0:
192,192,239338,1,0,0:0:0:0:
320,192,239402,1,0,0:0:0:0:
448,192,239402,1,0,0:0:0:0:
64,192,239402,1,0,0:0:0:0:
320,192,239467,1,0,0:0:0:0:
448,192,239531,1,0,0:0:0:0:
64,192,239596,1,0,0:0:0:0:
192,192,239660,1,0,0:0:0:0:
320,192,239725,1,0,0:0:0:0:
448,192,239789,1,0,0:0:0:0:
192,192,239789,1,0,0:0:0:0:
64,192,239789,1,0,0:0:0:0:
448,192,239854,1,0,0:0:0:0:
64,192,239918,1,0,0:0:0:0:
192,192,239983,1,0,0:0:0:0:
320,192,240047,1,0,0:0:0:0:
448,192,240112,1,0,0:0:0:0:
320,192,240176,1,0,0:0:0:0:
192,192,240176,1,0,0:0:0:0:
64,192,240176,1,0,0:0:0:0:
320,192,240241,1,0,0:0:0:0:
192,192,240305,1,0,0:0:0:0:
64,192,240370,1,0,0:0:0:0:
320,192,240434,1,0,0:0:0:0:
192,192,240499,1,0,0:0:0:0:
448,192,240563,1,0,0:0:0:0:
320,192,240563,1,0,0:0:0:0:
64,192,240563,1,0,0:0:0:0:
64,192,240628,1,0,0:0:0:0:
320,192,240692,1,0,0:0:0:0:
192,192,240757,1,0,0:0:0:0:
320,192,240821,1,0,0:0:0:0:
64,192,240886,1,0,0:0:0:0:
448,192,240951,1,0,0:0:0:0:
320,192,240951,1,0,0:0:0:0:
192,192,240951,1,0,0:0:0:0:
192,192,241015,1,0,0:0:0:0:
448,192,241080,1,0,0:0:0:0:
64,192,241144,1,0,0:0:0:0:
320,192,241209,1,0,0:0:0:0:
192,192,241273,1,0,0:0:0:0:
448,192,241338,1,0,0:0:0:0:
320,192,241338,1,0,0:0:0:0:
64,192,241338,1,0,0:0:0:0:
64,192,241402,1,0,0:0:0:0:
192,192,241467,1,0,0:0:0:0:
320,192,241531,1,0,0:0:0:0:
448,192,241596,1,0,0:0:0:0:
192,192,241660,1,0,0:0:0:0:
448,192,241725,1,0,0:0:0:0:
320,192,241725,1,0,0:0:0:0:
64,192,241725,1,0,0:0:0:0:
448,192,241789,1,0,0:0:0:0:
320,192,241854,1,0,0:0:0:0:
192,192,241918,1,0,0:0:0:0:
448,192,241983,1,0,0:0:0:0:
64,192,242047,1,0,0:0:0:0:
448,192,242112,1,0,0:0:0:0:
320,192,242112,1,0,0:0:0:0:
192,192,242112,1,0,0:0:0:0:
192,192,242176,1,0,0:0:0:0:
320,192,242241,1,0,0:0:0:0:
64,192,242305,1,0,0:0:0:0:
192,192,242370,1,0,0:0:0:0:
320,192,242434,1,0,0:0:0:0:
448,192,242499,1,0,0:0:0:0:
192,192,242499,1,0,0:0:0:0:
64,192,242499,1,0,0:0:0:0:
448,192,242563,1,0,0:0:0:0:
64,192,242628,1,0,0:0:0:0:
192,192,242692,1,0,0:0:0:0:
64,192,242757,1,0,0:0:0:0:
320,192,242821,1,0,0:0:0:0:
448,192,242886,1,0,0:0:0:0:
192,192,242886,1,0,0:0:0:0:
64,192,242886,1,0,0:0:0:0:
448,192,242951,1,0,0:0:0:0:
192,192,243015,1,0,0:0:0:0:
64,192,243080,1,0,0:0:0:0:
320,192,243144,1,0,0:0:0:0:
192,192,243209,1,0,0:0:0:0:
448,192,243273,1,0,0:0:0:0:
320,192,243273,1,0,0:0:0:0:
64,192,243273,1,0,0:0:0:0:
448,192,243338,1,0,0:0:0:0:
64,192,243402,1,0,0:0:0:0:
192,192,243467,1,0,0:0:0:0:
320,192,243531,1,0,0:0:0:0:
64,192,243596,1,0,0:0:0:0:
320,192,243660,1,0,0:0:0:0:
448,192,243660,1,0,0:0:0:0:
192,192,243660,1,0,0:0:0:0:
192,192,243725,1,0,0:0:0:0:
320,192,243789,1,0,0:0:0:0:
448,192,243854,1,0,0:0:0:0:
192,192,243918,1,0,0:0:0:0:
320,192,243983,1,0,0:0:0:0:
448,192,244047,1,0,0:0:0:0:
192,192,244047,1,0,0:0:0:0:
64,192,244047,1,0,0:0:0:0:
192,192,244112,1,0,0:0:0:0:
64,192,244176,1,0,0:0:0:0:
320,192,244241,1,0,0:0:0:0:
192,192,244305,1,0,0:0:0:0:
320,192,244370,1,0,0:0:0:0:
448,192,244434,1,0,0:0:0:0:
192,192,244434,1,0,0:0:0:0:
64,192,244434,1,0,0:0:0:0:
448,192,244499,1,0,0:0:0:0:
320,192,244563,1,0,0:0:0:0:
64,192,244628,1,0,0:0:0:0:
320,192,244692,1,0,0:0:0:0:
192,192,244757,1,0,0:0:0:0:
448,192,244821,1,0,0:0:0:0:
320,192,244821,1,0,0:0:0:0:
64,192,244821,1,0,0:0:0:0:
320,192,244886,1,0,0:0:0:0:
64,192,244951,1,0,0:0:0:0:
320,192,245015,1,0,0:0:0:0:
192,192,245080,1,0,0:0:0:0:
64,192,245144,1,0,0:0:0:0:
448,192,245209,1,0,0:0:0:0:
320,192,245209,1,0,0:0:0:0:
192,192,245209,1,0,0:0:0:0:
192,192,245273,1,0,0:0:0:0:
320,192,245338,1,0,0:0:0:0:
448,192,245402,1,0,0:0:0:0:
64,192,245467,1,0,0:0:0:0:
192,192,245531,1,0,0:0:0:0:
448,192,245596,1,0,0:0:0:0:
320,192,245596,1,0,0:0:0:0:
64,192,245596,1,0,0:0:0:0:
448,192,245660,1,0,0:0:0:0:
320,192,245725,1,0,0:0:0:0:
64,192,245789,1,0,0:0:0:0:
320,192,245854,1,0,0:0:0:0:
448,192,245918,1,0,0:0:0:0:
320,192,245983,1,0,0:0:0:0:
192,192,245983,1,0,0:0:0:0:
64,192,245983,1,0,0:0:0:0:
320,192,246047,1,0,0:0:0:0:
192,192,246112,1,0,0:0:0:0:
64,192,246176,1,0,0:0:0:0:
448,192,246241,1,0,0:0:0:0:
192,192,246305,1,0,0:0:0:0:
320,192,246370,1,0,0:0:0:0:
448,192,246370,1,0,0:0:0:0:
64,192,246370,1,0,0:0:0:0:
448,192,246434,1,0,0:0:0:0:
192,192,246499,1,0,0:0:0:0:
64,192,246563,1,0,0:0:0:0:
320,192,246628,1,0,0:0:0:0:
192,192,246692,1,0,0:0:0:0:
448,192,246757,1,0,0:0:0:0:
320,192,246757,1,0,0:0:0:0:
64,192,246757,1,0,0:0:0:0:
448,192,246821,1,0,0:0:0:0:
320,192,246886,1,0,0:0:0:0:
64,192,246951,1,0,0:0:0:0:
320,192,247015,1,0,0:0:0:0:
192,192,247080,1,0,0:0:0:0:
448,192,247144,1,0,0:0:0:0:
320,192,247144,1,0,0:0:0:0:
64,192,247144,1,0,0:0:0:0:
320,192,247209,1,0,0:0:0:0:
64,192,247273,1,0,0:0:0:0:
320,192,247338,1,0,0:0:0:0:
192,192,247338,1,0,0:0:0:0:
64,192,247338,1,0,0:0:0:0:
448,192,247628,1,0,0:0:0:0:
192,192,247628,1,0,0:0:0:0:
320,192,247628,1,0,0:0:0:0:
64,192,247725,1,0,0:0:0:0:
448,192,247725,1,0,0:0:0:0:
192,192,247725,1,0,0:0:0:0:
320,192,247821,1,0,0:0:0:0:
64,192,247918,1,0,0:0:0:0:
448,192,247918,1,0,0:0:0:0:
320,192,248015,1,0,0:0:0:0:
448,192,248112,1,0,0:0:0:0:
320,192,248112,1,0,0:0:0:0:
192,192,248112,1,0,0:0:0:0:
448,192,248209,1,0,0:0:0:0:
64,192,248305,1,0,0:0:0:0:
320,192,248305,1,0,0:0:0:0:
448,192,248402,1,0,0:0:0:0:
192,192,248499,1,0,0:0:0:0:
320,192,248499,1,0,0:0:0:0:
64,192,248499,1,0,0:0:0:0:
192,192,248596,1,0,0:0:0:0:
320,192,248692,1,0,0:0:0:0:
64,192,248692,1,0,0:0:0:0:
448,192,248789,1,0,0:0:0:0:
448,192,248886,1,0,0:0:0:0:
320,192,248886,1,0,0:0:0:0:
192,192,248886,1,0,0:0:0:0:
320,192,248983,1,0,0:0:0:0:
320,192,249080,1,0,0:0:0:0:
64,192,249080,1,0,0:0:0:0:
320,192,249176,1,0,0:0:0:0:
192,192,249273,1,0,0:0:0:0:
448,192,249273,1,0,0:0:0:0:
64,192,249273,1,0,0:0:0:0:
64,192,249370,1,0,0:0:0:0:
320,192,249467,1,0,0:0:0:0:
448,192,249467,1,0,0:0:0:0:
64,192,249563,1,0,0:0:0:0:
64,192,249660,1,0,0:0:0:0:
448,192,249660,1,0,0:0:0:0:
192,192,249660,1,0,0:0:0:0:
448,192,249757,1,0,0:0:0:0:
320,192,249854,1,0,0:0:0:0:
64,192,249854,1,0,0:0:0:0:
320,192,249951,1,0,0:0:0:0:
448,192,250047,1,0,0:0:0:0:
64,192,250047,1,0,0:0:0:0:
192,192,250047,1,0,0:0:0:0:
192,192,250144,1,0,0:0:0:0:
64,192,250241,1,0,0:0:0:0:
448,192,250241,1,0,0:0:0:0:
192,192,250338,1,0,0:0:0:0:
192,192,250434,1,0,0:0:0:0:
320,192,250434,1,0,0:0:0:0:
64,192,250434,1,0,0:0:0:0:
448,192,250531,1,0,0:0:0:0:
192,192,250628,1,0,0:0:0:0:
64,192,250628,1,0,0:0:0:0:
448,192,250725,1,0,0:0:0:0:
64,192,250821,1,0,0:0:0:0:
448,192,250821,1,0,0:0:0:0:
192,192,250821,1,0,0:0:0:0:
320,192,250918,1,0,0:0:0:0:
448,192,251015,1,0,0:0:0:0:
320,192,251015,1,0,0:0:0:0:
192,192,251112,1,0,0:0:0:0:
320,192,251209,1,0,0:0:0:0:
448,192,251209,1,0,0:0:0:0:
192,192,251209,1,0,0:0:0:0:
64,192,251305,1,0,0:0:0:0:
320,192,251402,1,0,0:0:0:0:
448,192,251402,1,0,0:0:0:0:
192,192,251499,1,0,0:0:0:0:
448,192,251596,1,0,0:0:0:0:
320,192,251596,1,0,0:0:0:0:
64,192,251596,1,0,0:0:0:0:
448,192,251692,1,0,0:0:0:0:
64,192,251789,1,0,0:0:0:0:
192,192,251789,1,0,0:0:0:0:
448,192,251886,1,0,0:0:0:0:
320,192,251983,1,0,0:0:0:0:
448,192,251983,1,0,0:0:0:0:
192,192,251983,1,0,0:0:0:0:
192,192,252080,1,0,0:0:0:0:
448,192,252176,1,0,0:0:0:0:
64,192,252176,1,0,0:0:0:0:
192,192,252273,1,0,0:0:0:0:
192,192,252370,5,0,0:0:0:0:
320,192,252370,1,0,0:0:0:0:
448,192,252370,1,0,0:0:0:0:
448,192,252467,1,0,0:0:0:0:
320,192,252563,1,0,0:0:0:0:
192,192,252563,1,0,0:0:0:0:
64,192,252660,1,0,0:0:0:0:
64,192,252757,1,0,0:0:0:0:
320,192,252757,1,0,0:0:0:0:
192,192,252757,1,0,0:0:0:0:
320,192,252854,1,0,0:0:0:0:
192,192,252950,1,0,0:0:0:0:
64,192,252950,1,0,0:0:0:0:
320,192,253047,1,0,0:0:0:0:
64,192,253144,1,0,0:0:0:0:
320,192,253144,1,0,0:0:0:0:
192,192,253144,1,0,0:0:0:0:
448,192,253241,1,0,0:0:0:0:
192,192,253338,1,0,0:0:0:0:
64,192,253338,1,0,0:0:0:0:
448,192,253434,1,0,0:0:0:0:
448,192,253531,1,0,0:0:0:0:
64,192,253531,1,0,0:0:0:0:
320,192,253531,1,0,0:0:0:0:
192,192,253531,1,0,0:0:0:0:
448,192,253628,1,0,0:0:0:0:
192,192,253628,1,0,0:0:0:0:
192,192,253725,1,0,0:0:0:0:
64,192,253821,1,0,0:0:0:0:
320,192,253821,1,0,0:0:0:0:
448,192,253918,1,0,0:0:0:0:
320,192,253918,1,0,0:0:0:0:
192,192,253918,1,0,0:0:0:0:
192,192,254015,1,0,0:0:0:0:
448,192,254015,1,0,0:0:0:0:
320,192,254112,1,0,0:0:0:0:
448,192,254209,1,0,0:0:0:0:
192,192,254209,1,0,0:0:0:0:
448,192,254305,1,0,0:0:0:0:
320,192,254305,1,0,0:0:0:0:
64,192,254305,1,0,0:0:0:0:
192,192,254402,1,0,0:0:0:0:
320,192,254402,1,0,0:0:0:0:
64,192,254499,1,0,0:0:0:0:
192,192,254596,1,0,0:0:0:0:
448,192,254596,1,0,0:0:0:0:
448,192,254692,1,0,0:0:0:0:
320,192,254692,1,0,0:0:0:0:
192,192,254692,1,0,0:0:0:0:
320,192,254789,1,0,0:0:0:0:
64,192,254789,1,0,0:0:0:0:
192,192,254886,1,0,0:0:0:0:
320,192,254983,1,0,0:0:0:0:
448,192,254983,1,0,0:0:0:0:
448,192,255080,1,0,0:0:0:0:
192,192,255080,1,0,0:0:0:0:
64,192,255080,1,0,0:0:0:0:
64,192,255176,1,0,0:0:0:0:
320,192,255176,1,0,0:0:0:0:
192,192,255273,1,0,0:0:0:0:
64,192,255370,1,0,0:0:0:0:
320,192,255370,1,0,0:0:0:0:
64,192,255467,1,0,0:0:0:0:
320,192,255467,1,0,0:0:0:0:
448,192,255467,1,0,0:0:0:0:
320,192,255563,1,0,0:0:0:0:
192,192,255563,1,0,0:0:0:0:
320,192,255660,1,0,0:0:0:0:
192,192,255757,1,0,0:0:0:0:
64,192,255757,1,0,0:0:0:0:
320,192,255854,1,0,0:0:0:0:
64,192,255854,1,0,0:0:0:0:
448,192,255854,1,0,0:0:0:0:
192,192,255950,1,0,0:0:0:0:
448,192,255950,1,0,0:0:0:0:
320,192,256047,1,0,0:0:0:0:
192,192,256144,1,0,0:0:0:0:
64,192,256144,1,0,0:0:0:0:
448,192,256241,1,0,0:0:0:0:
320,192,256241,1,0,0:0:0:0:
64,192,256241,1,0,0:0:0:0:
320,192,256338,1,0,0:0:0:0:
192,192,256338,1,0,0:0:0:0:
320,192,256434,1,0,0:0:0:0:
192,192,256531,1,0,0:0:0:0:
64,192,256531,1,0,0:0:0:0:
320,192,256628,1,0,0:0:0:0:
448,192,256628,1,0,0:0:0:0:
64,192,256628,1,0,0:0:0:0:
192,192,256628,1,0,0:0:0:0:
320,192,256725,1,0,0:0:0:0:
64,192,256725,1,0,0:0:0:0:
192,192,256821,1,0,0:0:0:0:
448,192,256918,1,0,0:0:0:0:
64,192,256918,1,0,0:0:0:0:
448,192,257015,1,0,0:0:0:0:
320,192,257015,1,0,0:0:0:0:
192,192,257015,1,0,0:0:0:0:
64,192,257015,1,0,0:0:0:0:
192,192,257112,1,0,0:0:0:0:
320,192,257112,1,0,0:0:0:0:
448,192,257209,1,0,0:0:0:0:
320,192,257305,1,0,0:0:0:0:
64,192,257305,1,0,0:0:0:0:
320,192,257402,1,0,0:0:0:0:
448,192,257402,1,0,0:0:0:0:
64,192,257402,1,0,0:0:0:0:
192,192,257402,1,0,0:0:0:0:
320,192,257499,1,0,0:0:0:0:
448,192,257499,1,0,0:0:0:0:
192,192,257596,1,0,0:0:0:0:
448,192,257692,1,0,0:0:0:0:
320,192,257692,1,0,0:0:0:0:
64,192,257789,1,0,0:0:0:0:
320,192,257789,1,0,0:0:0:0:
192,192,257789,1,0,0:0:0:0:
448,192,257789,1,0,0:0:0:0:
192,192,257886,1,0,0:0:0:0:
320,192,257886,1,0,0:0:0:0:
64,192,257983,1,0,0:0:0:0:
448,192,258080,1,0,0:0:0:0:
192,192,258080,1,0,0:0:0:0:
192,192,258176,5,0,0:0:0:0:
448,192,258176,1,0,0:0:0:0:
320,192,258176,1,0,0:0:0:0:
64,192,258176,1,0,0:0:0:0:
448,192,258273,1,0,0:0:0:0:
320,192,258273,1,0,0:0:0:0:
64,192,258370,1,0,0:0:0:0:
448,192,258467,1,0,0:0:0:0:
320,192,258467,1,0,0:0:0:0:
448,192,258563,1,0,0:0:0:0:
64,192,258563,1,0,0:0:0:0:
192,192,258563,1,0,0:0:0:0:
320,192,258563,1,0,0:0:0:0:
320,192,258660,1,0,0:0:0:0:
192,192,258660,1,0,0:0:0:0:
320,192,258757,1,0,0:0:0:0:
448,192,258757,1,0,0:0:0:0:
64,192,258757,1,0,0:0:0:0:
192,192,258757,1,0,0:0:0:0:
192,192,258854,1,0,0:0:0:0:
448,192,258854,1,0,0:0:0:0:
64,192,258950,1,0,0:0:0:0:
320,192,258950,1,0,0:0:0:0:
448,192,259047,1,0,0:0:0:0:
192,192,259047,1,0,0:0:0:0:
320,192,259144,1,0,0:0:0:0:
192,192,259144,1,0,0:0:0:0:
320,192,259241,1,0,0:0:0:0:
64,192,259241,1,0,0:0:0:0:
320,192,259338,1,0,0:0:0:0:
192,192,259338,1,0,0:0:0:0:
64,192,259434,1,0,0:0:0:0:
448,192,259434,1,0,0:0:0:0:
448,192,259531,1,0,0:0:0:0:
192,192,259531,1,0,0:0:0:0:
64,192,259628,1,0,0:0:0:0:
320,192,259628,1,0,0:0:0:0:
320,192,259725,1,0,0:0:0:0:
448,192,259725,1,0,0:0:0:0:
64,192,259725,1,0,0:0:0:0:
192,192,259725,1,0,0:0:0:0:
