osu file format v14

[General]
AudioFilename: 015_One Dawn.mp3
AudioLeadIn: 0
PreviewTime: 107776
Countdown: 0
SampleSet: Soft
StackLeniency: 0.4
Mode: 0
LetterboxInBreaks: 0
WidescreenStoryboard: 0

[Editor]
Bookmarks: 136340,137318,151231,223079,282210
DistanceSpacing: 0.6
BeatDivisor: 4
GridSize: 4
TimelineZoom: 2.2

[Metadata]
Title:One Dawn
TitleUnicode:One Dawn
Artist:Daisuke Ishiwatari
ArtistUnicode:石渡 太輔
Creator:Natteke desu
Version:Gamma Ray
Source:Guilty Gear Xrd -REVELATOR-
Tags:SIGN REV2 Dizzy Necro Undine soundtrack ArcSystemWorks EvilElvis Jounzan
BeatmapID:1188847
BeatmapSetID:562302

[Difficulty]
HPDrainRate:7
CircleSize:4
OverallDifficulty:8
ApproachRate:9.4
SliderMultiplier:3.59999990463257
SliderTickRate:2

[Events]
//Background and Video events
0,0,"dizzy bg.jpg",0,0
//Break Periods
2,14818,15922
2,105357,107427
2,234053,236123
//Storyboard Layer 0 (Background)
//Storyboard Layer 1 (Fail)
//Storyboard Layer 2 (Pass)
//Storyboard Layer 3 (Foreground)
//Storyboard Layer 4 (Overlay)
//Storyboard Sound Samples

[TimingPoints]
810,434.782608695652,4,2,1,30,1,0
810,-200,4,2,1,30,0,0
28636,-200,4,2,1,50,0,0
30375,-100,4,2,1,65,0,0
46896,-200,4,2,1,50,0,0
47766,-111.111111111111,4,2,1,70,0,0
54288,-200,4,2,1,70,0,0
54723,-111.111111111111,4,2,1,70,0,0
65157,-100,4,2,1,60,0,0
70375,-76.9230769230769,4,2,1,60,0,0
71679,-200,4,2,1,60,0,0
72114,-100,4,2,1,60,0,0
75592,-76.9230769230769,4,2,1,60,0,0
79070,-100,4,2,1,60,0,0
92983,-111.111111111111,4,2,1,50,0,0
99940,-200,4,2,1,50,0,0
108636,-90.9090909090909,4,2,1,70,0,1
129505,-111.111111111111,4,2,1,60,0,0
136462,-100,4,2,1,60,0,0
146027,-71.4285714285714,4,2,1,70,0,0
146244,-100,4,2,1,60,0,0
150701,-76.9230769230769,4,2,1,60,0,0
151570,-100,4,2,1,60,0,0
151896,-76.9230769230769,4,2,1,60,0,0
152875,-100,4,2,1,60,0,0
164288,-83.3333333333333,4,2,1,70,0,1
177766,-83.3333333333333,4,2,1,60,0,0
178201,-100,4,2,1,70,0,1
192114,-100,4,2,1,50,0,0
198636,-100,4,2,1,70,0,1
199070,-100,4,2,1,50,0,0
205592,-100,4,2,1,50,0,1
206027,-100,4,2,1,50,0,0
230375,-166.666666666667,4,2,1,50,0,0
237331,-76.9230769230769,4,2,1,70,0,1
258201,-90.9090909090909,4,2,1,60,0,0
259940,-76.9230769230769,4,2,1,60,0,0
261679,-71.4285714285714,4,2,1,70,0,1
282549,-71.4285714285714,4,2,1,50,0,0
286027,-200,4,2,1,50,0,0
298201,-100,4,2,1,60,0,0
299940,-90.9090909090909,4,2,1,70,0,1
329505,-90.9090909090909,4,2,1,50,0,0

[Colours]
Combo1 : 221,221,0
Combo2 : 97,175,175
Combo3 : 44,88,88
Combo4 : 47,187,255
Combo5 : 0,124,185
Combo6 : 194,135,135

[HitObjects]
51,54,810,69,2,0:0:0:0:
157,72,1679,1,2,0:0:0:0:
235,50,2331,1,2,0:0:0:0:
235,50,2766,1,2,0:0:0:0:
312,73,3418,5,2,0:0:0:0:
312,73,3853,1,2,0:0:0:0:
308,99,3962,1,2,0:0:0:0:
308,125,4070,1,2,0:0:0:0:
307,152,4179,1,2,0:0:0:0:
310,178,4288,69,2,0:0:0:0:
399,173,4723,1,2,0:0:0:0:
482,205,5157,1,2,0:0:0:0:
442,305,5809,1,2,0:0:0:0:
357,274,6244,1,2,0:0:0:0:
229,317,6896,1,2,0:0:0:0:
81,214,7766,5,2,0:0:0:0:
251,156,8636,1,2,0:0:0:0:
372,215,9288,1,2,0:0:0:0:
460,197,9723,1,2,0:0:0:0:
427,65,10375,1,2,0:0:0:0:
340,88,10809,1,2,0:0:0:0:
165,45,11679,69,2,0:0:0:0:
99,106,12114,1,2,0:0:0:0:
182,211,12766,1,2,0:0:0:0:
131,285,13201,1,2,0:0:0:0:
265,298,13853,1,2,0:0:0:0:
471,39,16462,5,2,0:0:0:0:
363,40,16896,1,2,0:0:0:0:
254,42,17331,1,2,0:0:0:0:
145,43,17766,1,2,0:0:0:0:
283,168,18201,69,2,0:0:0:0:
182,127,18636,1,2,0:0:0:0:
81,166,19070,1,2,0:0:0:0:
81,166,19505,1,2,0:0:0:0:
22,274,19940,5,2,0:0:0:0:
130,273,20374,1,2,0:0:0:0:
239,271,20809,1,2,0:0:0:0:
348,270,21244,1,2,0:0:0:0:
248,173,21679,69,2,0:0:0:0:
349,132,22114,1,2,0:0:0:0:
450,171,22548,1,2,0:0:0:0:
450,171,22983,1,2,0:0:0:0:
355,358,23418,5,2,0:0:0:0:
247,357,23852,1,2,0:0:0:0:
138,355,24287,1,2,0:0:0:0:
29,354,24722,1,2,0:0:0:0:
239,54,25157,69,2,0:0:0:0:
347,53,25591,1,2,0:0:0:0:
456,51,26026,1,2,0:0:0:0:
456,51,26461,1,2,0:0:0:0:
258,139,26896,5,2,0:0:0:0:
139,199,27331,1,2,0:0:0:0:
255,262,27766,1,2,0:0:0:0:
382,194,28201,1,2,0:0:0:0:
0,188,28636,69,8,1:3:0:0:
0,188,29505,1,8,1:3:0:0:
0,188,30375,22,0,B|97:162|67:244|208:208,1,179.999995231629,4|2,1:0|0:3,0:0:0:0:
255,176,30701,1,0,0:0:0:0:
255,176,30809,2,0,B|298:170|298:170|345:176,1,89.9999976158143,8|0,1:0|0:0,0:0:0:0:
487,121,31027,2,0,B|446:128|446:128|397:121,1,89.9999976158143,2|0,1:3|1:3,0:0:0:0:
459,216,31244,6,0,P|379:246|379:341,1,179.999995231629,0|2,1:0|0:3,0:0:0:0:
280,287,31570,1,0,0:0:0:0:
280,287,31679,2,0,P|273:331|284:385,1,89.9999976158143,8|8,1:0|1:0,0:0:0:0:
454,381,31896,2,0,P|461:336|454:292,1,89.9999976158143,2|8,0:3|1:0,0:0:0:0:
247,206,32114,6,0,L|64:229,1,179.999995231629,4|2,1:0|0:3,0:0:0:0:
129,137,32440,1,0,0:0:0:0:
129,137,32549,2,0,L|225:122,1,89.9999976158143,10|0,1:0|0:0,0:0:0:0:
325,170,32766,5,2,1:3:0:0:
397,195,32875,1,10,1:0:0:0:
471,224,32983,2,0,B|484:180|484:180|474:131,1,89.9999976158143,0|10,0:0|1:0,0:0:0:0:
324,255,33201,2,0,B|315:298|315:298|328:342,1,89.9999976158143,2|0,1:3|0:0,0:0:0:0:
416,323,33418,2,0,L|320:343,1,89.9999976158143,10|0,1:0|0:0,0:0:0:0:
233,315,33636,2,0,L|137:335,1,89.9999976158143,2|0,0:3|0:0,0:0:0:0:
29,169,33853,38,0,P|128:178|143:269,1,179.999995231629,4|2,1:2|0:3,0:0:0:0:
206,148,34179,1,0,0:0:0:0:
206,148,34288,2,0,P|202:102|207:51,1,89.9999976158143,8|0,1:0|0:0,0:0:0:0:
321,60,34505,2,0,P|324:104|320:149,1,89.9999976158143,2|0,0:3|0:0,0:0:0:0:
490,180,34723,6,0,P|391:189|376:280,1,179.999995231629,4|2,1:2|0:3,0:0:0:0:
320,149,35049,1,0,0:0:0:0:
320,149,35158,2,0,P|324:103|319:52,1,89.9999976158143,8|0,1:0|0:0,0:0:0:0:
205,61,35375,2,0,P|201:105|205:150,1,89.9999976158143,2|0,0:3|0:0,0:0:0:0:
167,297,35592,6,0,B|252:269|252:269|358:309,1,179.999995231629,4|2,1:2|0:3,0:0:0:0:
250,368,35918,1,0,0:0:0:0:
167,291,36027,2,0,B|252:263|252:263|358:303,1,179.999995231629,4|2,1:2|0:3,0:0:0:0:
249,359,36353,1,0,0:0:0:0:
167,285,36462,2,0,B|252:257|252:257|358:297,1,179.999995231629,4|2,1:2|0:3,0:0:0:0:
421,349,36788,5,0,0:0:0:0:
421,349,36896,2,0,L|323:385,1,89.9999976158143,4|0,1:2|0:0,0:0:0:0:
163,375,37114,2,0,L|78:343,1,89.9999976158143,4|0,1:2|0:0,0:0:0:0:
106,164,37331,38,0,P|13:215|11:285,1,179.999995231629,4|2,1:0|0:3,0:0:0:0:
194,197,37657,1,0,0:0:0:0:
194,197,37766,2,0,B|201:150|201:150|187:97,1,89.9999976158143,8|0,1:0|0:0,0:0:0:0:
275,18,37983,2,0,B|264:59|264:59|271:106,1,89.9999976158143,2|0,0:3|0:0,0:0:0:0:
512,181,38201,6,0,B|496:249|496:249|453:272|453:272|434:335,1,179.999995231629,2|2,1:0|0:3,0:0:0:0:
420,201,38527,1,0,0:0:0:0:
420,201,38636,2,0,B|402:142|402:142|359:119|359:119|343:51,1,179.999995231629,10|2,1:0|0:3,0:0:0:0:
421,62,38962,1,0,1:0:0:0:
325,195,39070,6,0,B|225:175|248:245|130:217,1,179.999995231629,6|2,1:0|0:3,0:0:0:0:
58,178,39396,5,0,0:0:0:0:
151,221,39505,2,0,B|251:201|228:271|346:243,1,179.999995231629,14|2,1:0|0:3,0:0:0:0:
439,227,39831,37,0,0:0:0:0:
363,259,39940,2,0,B|263:239|286:309|168:281,1,179.999995231629,6|2,1:0|0:3,0:0:0:0:
94,285,40266,5,0,0:0:0:0:
159,319,40375,2,0,B|203:312|203:312|250:325,1,89.9999976158143,14|0,1:0|0:0,0:0:0:0:
319,348,40592,2,0,B|275:341|275:341|228:354,1,89.9999976158143,2|8,0:3|1:0,0:0:0:0:
131,96,40809,6,0,P|224:103|248:202,1,179.999995231629,4|2,1:0|0:3,0:0:0:0:
394,205,41136,1,0,0:0:0:0:
394,205,41244,2,0,P|386:251|395:301,1,89.9999976158143,8|0,1:0|0:0,0:0:0:0:
501,367,41462,2,0,P|506:320|500:265,1,89.9999976158143,2|0,0:3|0:0,0:0:0:0:
512,93,41679,6,0,L|332:113,1,179.999995231629,0|2,1:0|0:3,0:0:0:0:
247,228,42005,1,8,1:0:0:0:
247,228,42114,2,0,B|265:271|265:271|257:335,1,89.9999976158143,8|0,1:0|0:0,0:0:0:0:
110,361,42331,2,0,B|104:317|104:317|122:274,1,89.9999976158143,2|0,0:3|0:0,0:0:0:0:
1,133,42549,38,0,L|206:164,1,179.999995231629,4|2,1:0|0:3,0:0:0:0:
286,60,42875,1,8,1:0:0:0:
286,60,42983,2,0,L|178:81,1,89.9999976158143,8|0,1:0|0:0,0:0:0:0:
355,86,43201,2,0,L|463:65,1,89.9999976158143,2|8,0:3|1:0,0:0:0:0:
304,145,43418,5,0,0:0:0:0:
278,170,43527,1,8,1:0:0:0:
268,204,43636,1,2,0:3:0:0:
273,239,43744,1,0,0:0:0:0:
382,166,43853,5,8,1:0:0:0:
453,181,43962,1,8,1:0:0:0:
493,247,44070,1,8,1:0:0:0:
481,321,44179,1,8,1:0:0:0:
339,360,44288,5,4,3:3:0:0:
234,330,44723,1,4,3:3:0:0:
129,301,45157,1,4,3:3:0:0:
26,267,45592,1,4,3:3:0:0:
127,229,46027,1,4,3:3:0:0:
228,192,46462,1,4,3:3:0:0:
330,158,46896,1,4,3:3:0:0:
330,158,47005,2,0,B|359:157|359:157|382:169|382:169|424:171,1,89.9999976158143,2|0,1:0|0:0,0:0:0:0:
489,167,47331,1,2,1:0:0:0:
242,71,47549,37,8,1:0:0:0:
242,71,47657,1,8,1:0:0:0:
242,71,47766,2,0,L|142:87,1,80.9999953823091,6|0,1:0|0:0,0:0:0:0:
235,159,47983,1,8,1:0:0:0:
253,185,48092,2,0,L|60:162,1,161.999990764618,2|0,1:0|1:0,0:0:0:0:
24,276,48418,6,0,B|63:285|63:285|115:273,1,80.9999953823091,10|0,1:0|0:0,0:0:0:0:
230,325,48636,1,2,1:0:0:0:
247,339,48744,2,0,B|208:348|208:348|156:336,1,80.9999953823091,2|8,1:0|1:0,0:0:0:0:
293,259,48962,1,2,1:0:0:0:
293,259,49070,2,0,L|382:272,1,80.9999953823091,2|0,1:0|0:0,0:0:0:0:
386,283,49288,2,0,L|305:271,1,80.9999953823091,10|0,1:0|0:0,0:0:0:0:
389,176,49505,70,0,L|488:167,1,80.9999953823091,6|0,1:0|0:0,0:0:0:0:
380,48,49723,1,8,1:0:0:0:
363,22,49831,2,0,L|525:45,1,161.999990764618,2|0,1:0|1:0,0:0:0:0:
201,106,50157,6,0,L|121:117,1,80.9999953823091,10|0,1:0|0:0,0:0:0:0:
230,33,50375,1,2,1:0:0:0:
279,93,50483,1,8,1:0:0:0:
251,167,50592,1,8,1:0:0:0:
186,209,50701,1,0,1:0:0:0:
178,287,50809,2,0,L|268:309,1,80.9999953823091,2|0,1:0|0:0,0:0:0:0:
256,306,51027,2,0,L|177:325,1,80.9999953823091,10|0,1:0|0:0,0:0:0:0:
48,122,51244,70,0,P|123:100|192:138,1,161.999990764618,6|10,1:0|1:0,0:0:0:0:
30,131,51570,2,0,P|100:93|180:111,1,161.999990764618,2|2,1:0|1:0,0:0:0:0:
20,157,51896,2,0,P|36:120|67:94,1,80.9999953823091,10|0,1:0|0:0,0:0:0:0:
233,235,52114,5,2,1:0:0:0:
218,241,52223,1,2,1:0:0:0:
202,237,52331,1,8,1:0:0:0:
184,237,52440,1,2,1:0:0:0:
268,165,52549,69,2,1:0:0:0:
323,189,52657,1,0,0:0:0:0:
369,164,52766,1,10,1:0:0:0:
423,185,52875,1,0,0:0:0:0:
423,185,52983,6,0,B|427:145|427:145|413:80,1,80.9999953823091,6|0,1:0|0:0,0:0:0:0:
219,33,53201,1,8,1:0:0:0:
219,33,53309,2,0,B|210:72|210:72|214:112,1,80.9999953823091,2|0,1:0|0:0,0:0:0:0:
393,33,53527,1,0,1:0:0:0:
405,17,53636,2,0,B|312:33,1,80.9999953823091,10|0,1:0|0:0,0:0:0:0:
111,112,53853,69,2,1:0:0:0:
38,149,53962,1,8,1:0:0:0:
97,231,54070,1,8,1:0:0:0:
55,168,54179,1,0,1:0:0:0:
174,177,54288,6,0,B|247:167|227:212|327:200,1,134.999996423721,8|0,1:3|0:0,0:0:0:0:
448,173,54723,70,0,B|436:212|436:212|443:254,1,80.9999953823091,6|0,1:0|0:0,0:0:0:0:
305,361,54940,1,8,1:0:0:0:
350,302,55049,2,0,P|283:287|228:355,1,161.999990764618,2|0,1:0|1:0,0:0:0:0:
147,348,55375,6,0,L|245:353,1,80.9999953823091,10|0,1:0|0:0,0:0:0:0:
0,316,55592,1,2,1:0:0:0:
61,267,55701,2,0,P|75:308|65:360,1,80.9999953823091,2|8,1:0|1:0,0:0:0:0:
217,210,55918,1,2,1:0:0:0:
156,161,56027,2,0,P|143:196|152:254,1,80.9999953823091,2|0,1:0|0:0,0:0:0:0:
134,240,56244,2,0,P|130:199|144:162,1,80.9999953823091,10|0,1:0|0:0,0:0:0:0:
81,15,56462,70,0,L|92:124,1,80.9999953823091,6|0,1:0|0:0,0:0:0:0:
237,26,56679,1,8,1:0:0:0:
315,26,56788,2,0,P|280:91|180:82,1,161.999990764618,2|0,1:0|1:0,0:0:0:0:
378,120,57114,6,0,B|417:118|417:118|470:132,1,80.9999953823091,10|0,1:0|0:0,0:0:0:0:
328,181,57331,1,2,1:0:0:0:
373,256,57440,1,8,1:0:0:0:
455,253,57549,1,8,1:0:0:0:
379,235,57657,1,0,1:0:0:0:
341,302,57766,2,0,B|303:293|303:293|255:300,1,80.9999953823091,2|0,1:0|0:0,0:0:0:0:
181,302,57983,2,0,B|219:293|219:293|260:299,1,80.9999953823091,10|0,1:0|0:0,0:0:0:0:
63,203,58201,70,0,L|48:20,1,161.999990764618,6|10,1:0|1:0,0:0:0:0:
43,256,58527,2,0,L|58:73,1,161.999990764618,2|2,1:0|1:0,0:0:0:0:
61,307,58853,2,0,L|43:211,1,80.9999953823091,10|0,1:0|0:0,0:0:0:0:
173,103,59070,5,2,1:0:0:0:
196,108,59179,1,2,1:0:0:0:
219,113,59288,1,8,1:0:0:0:
242,118,59396,1,2,1:0:0:0:
359,151,59505,69,2,1:0:0:0:
291,178,59614,1,0,0:0:0:0:
221,201,59723,1,10,1:0:0:0:
153,226,59831,1,0,0:0:0:0:
308,256,59940,5,6,1:0:0:0:
345,267,60049,1,0,0:0:0:0:
380,279,60157,1,8,1:0:0:0:
309,275,60266,5,2,1:0:0:0:
345,267,60375,1,0,0:0:0:0:
384,257,60483,1,0,1:0:0:0:
436,204,60592,69,10,1:0:0:0:
465,278,60701,1,0,0:0:0:0:
405,337,60809,1,2,1:0:0:0:
335,317,60918,1,8,1:0:0:0:
306,243,61027,1,8,1:0:0:0:
363,191,61136,1,0,1:0:0:0:
436,204,61244,2,0,B|445:164|445:164|436:99,1,80.9999953823091,8|8,1:3|1:0,0:0:0:0:
354,29,61462,69,8,1:0:0:0:
255,78,61570,5,8,1:0:0:0:
157,31,61679,69,8,1:3:0:0:
157,31,61788,1,8,1:3:0:0:
157,31,62005,1,8,1:0:0:0:
22,178,62223,1,8,1:0:0:0:
22,178,62331,1,8,1:0:0:0:
26,199,62440,1,4,3:0:0:0:
26,199,62549,1,4,3:0:0:0:
320,130,62875,5,8,1:0:0:0:
450,209,63092,2,0,L|500:203,4,40.4999976911546,8|8|8|0|4,1:0|1:0|1:0|0:0|3:0,0:0:0:0:
306,265,63418,69,4,3:0:0:0:
258,320,63527,1,4,3:2:0:0:
185,324,63636,1,0,0:0:0:0:
139,267,63744,1,4,3:2:0:0:
137,193,63853,1,0,0:0:0:0:
191,144,63962,1,4,1:2:0:0:
263,151,64070,1,8,1:0:0:0:
333,130,64179,1,8,1:0:0:0:
364,64,64288,1,4,1:3:0:0:
323,90,64396,1,4,1:3:0:0:
312,137,64505,1,8,1:0:0:0:
332,181,64614,5,2,1:0:0:0:
397,226,64723,2,0,L|455:217,1,40.4999976911546,10|0,1:0|0:0,0:0:0:0:
400,234,64831,2,0,L|446:226,1,40.4999976911546,8|0,1:0|0:0,0:0:0:0:
402,241,64940,2,0,L|448:233,1,40.4999976911546,10|0,1:0|0:0,0:0:0:0:
403,247,65049,2,0,L|449:239,1,40.4999976911546,10|0,1:0|0:0,0:0:0:0:
405,255,65157,6,2,P|475:232|440:68,1,269.999992847443,8|0,1:3|0:0,1:0:0:0:
299,25,65592,2,0,B|292:70|292:70|304:132,1,89.9999976158143,8|0,1:0|1:0,0:0:0:0:
299,202,65809,2,0,B|307:158|307:158|300:113,1,89.9999976158143,8|0,1:0|0:0,0:0:0:0:
174,84,66027,2,0,P|117:194|218:267,1,269.999992847443,4|0,1:3|0:0,0:0:0:0:
217,247,66462,5,10,1:0:0:0:
174,253,66570,69,2,1:0:0:0:
144,293,66679,5,10,1:0:0:0:
148,346,66788,69,2,1:0:0:0:
345,315,66896,6,2,P|359:252|154:216,1,269.999992847443,8|0,1:3|0:0,1:0:0:0:
263,340,67331,2,0,P|267:297|253:251,1,89.9999976158143,0|0,0:0|1:0,0:0:0:0:
79,208,67549,2,0,P|66:250|69:295,1,89.9999976158143,8|0,1:0|0:0,0:0:0:0:
224,142,67766,70,2,P|347:168|360:294,1,269.999992847443,6|2,1:2|1:0,1:0:0:0:
82,352,68201,2,0,P|78:309|92:263,1,89.9999976158143,10|4,1:0|1:2,0:0:0:0:
266,220,68419,2,0,P|278:262|275:307,1,89.9999976158143,8|8,1:0|1:0,0:0:0:0:
26,232,68636,6,2,B|161:218|117:331|291:305,1,269.999992847443,6|2,1:2|1:0,1:0:0:0:
368,355,69070,2,0,B|410:349|410:349|466:365,1,89.9999976158143,0|0,0:0|1:0,0:0:0:0:
372,268,69288,1,8,1:0:0:0:
417,208,69396,1,0,0:0:0:0:
495,216,69505,2,0,P|509:263|495:319,1,89.9999976158143,4|0,1:3|0:0,0:0:0:0:
323,106,69723,70,0,L|513:120,1,179.999995231629,10|0,1:0|1:0,0:0:0:0:
507,133,70049,2,0,L|306:116,1,179.999995231629,2|2,1:0|1:0,0:0:0:0:
74,22,70375,6,0,B|57:76|57:76|71:146,1,116.999991544724,8|0,1:3|0:0,0:0:0:0:
108,199,70592,1,2,1:0:0:0:
189,190,70701,1,8,1:0:0:0:
113,187,70810,1,0,1:3:0:0:
92,269,70918,1,8,1:0:0:0:
329,360,71027,70,0,B|340:300|340:300|323:246,1,116.999991544724,2|0,1:0|0:0,0:0:0:0:
281,174,71244,1,8,1:3:0:0:
245,250,71353,1,2,1:0:0:0:
402,251,71462,1,10,1:0:0:0:
370,176,71570,1,10,1:0:0:0:
138,67,71679,6,0,P|68:59|9:3,1,134.999996423721,8|0,1:3|0:0,0:0:0:0:
211,35,72114,70,0,P|111:73|136:216,1,269.999992847443,8|0,1:3|0:0,0:0:0:0:
219,329,72549,2,0,P|256:322|325:331,1,89.9999976158143,0|0,0:0|1:0,0:0:0:0:
438,272,72766,1,8,1:0:0:0:
473,256,72875,1,0,0:0:0:0:
501,277,72983,2,0,P|420:297|348:237,1,179.999995231629,2|8,1:0|1:0,0:0:0:0:
343,96,73309,2,0,P|409:40|494:59,1,179.999995231629,2|8,1:0|1:0,0:0:0:0:
299,171,73636,2,0,L|194:164,1,89.9999976158143,10|0,1:0|0:0,0:0:0:0:
345,257,73853,6,2,P|411:312|496:293,1,179.999995231629,8|8,1:3|1:0,1:0:0:0:
492,39,74179,2,0,P|407:19|340:75,1,179.999995231629,2|8,1:0|1:0,0:0:0:0:
207,187,74505,2,0,L|312:180,1,89.9999976158143,10|8,1:0|1:0,0:0:0:0:
60,61,74723,2,0,B|74:134|74:134|108:154|108:154|126:227,1,179.999995231629,8|4,1:3|1:2,0:0:0:0:
53,333,75049,1,0,0:0:0:0:
40,318,75157,2,0,B|26:277|26:277|37:227,1,89.9999976158143,8|0,1:3|0:0,0:0:0:0:
210,270,75375,2,0,B|220:315|220:315|206:356,1,89.9999976158143,4|0,1:2|0:0,0:0:0:0:
260,170,75592,70,0,L|268:32,1,116.999991544724,8|0,1:3|0:0,0:0:0:0:
378,150,75809,1,10,1:0:0:0:
442,105,75918,1,8,1:0:0:0:
489,169,76027,1,4,1:2:0:0:
477,183,76136,2,0,L|484:320,1,116.999991544724,8|10,1:0|1:0,0:0:0:0:
309,284,76353,1,2,1:0:0:0:
309,284,76462,2,0,B|197:256|197:256|68:305,1,233.999983089448,8|10,1:3|1:0,0:0:0:0:
186,138,76788,1,8,1:3:0:0:
186,138,76896,2,0,B|173:80|173:80|182:7,1,116.999991544724,0|2,0:0|1:0,0:0:0:0:
91,94,77114,1,8,1:3:0:0:
26,54,77223,1,8,1:0:0:0:
76,111,77331,6,0,B|86:170|86:170|72:239,1,116.999991544724,8|0,1:3|0:0,0:0:0:0:
327,341,77549,2,0,B|315:284|315:284|325:225,1,116.999991544724,10|0,1:0|0:0,0:0:0:0:
474,173,77766,70,0,B|484:232|484:232|472:288,1,116.999991544724,4|0,1:2|0:0,0:0:0:0:
209,87,77983,2,0,B|199:146|199:146|210:202,1,116.999991544724,10|8,1:0|1:0,0:0:0:0:
272,25,78201,6,0,B|400:2|364:94|503:70,1,233.999983089448,4|10,1:2|1:0,0:0:0:0:
209,87,78527,2,0,B|116:87|116:87|63:124|63:124|-31:134,1,233.999983089448,2|2,1:0|1:0,0:0:0:0:
284,163,78853,1,10,1:0:0:0:
239,228,78962,1,8,1:0:0:0:
463,344,79070,70,2,P|520:259|401:177,1,269.999992847443,8|0,1:3|0:0,1:0:0:0:
414,88,79505,2,0,P|368:78|307:96,1,89.9999976158143,0|0,1:0|1:0,0:0:0:0:
336,258,79723,2,0,P|382:268|443:250,1,89.9999976158143,8|0,1:0|0:0,0:0:0:0:
326,178,79940,2,0,P|218:236|271:347,1,269.999992847443,4|0,1:3|0:0,0:0:0:0:
300,360,80375,5,10,1:0:0:0:
338,352,80483,69,2,1:0:0:0:
369,314,80592,5,10,1:0:0:0:
362,263,80701,69,2,1:0:0:0:
302,169,80809,6,2,P|194:227|247:338,1,269.999992847443,8|0,1:3|0:0,1:0:0:0:
415,189,81244,2,0,B|418:142|418:142|404:91,1,89.9999976158143,0|0,0:0|1:0,0:0:0:0:
331,35,81462,1,8,1:0:0:0:
322,75,81570,1,0,0:0:0:0:
279,81,81679,2,0,B|131:118|186:0|-7:34,1,269.999992847443,4|0,1:2|0:0,0:0:0:0:
5,120,82114,2,0,P|49:111|103:124,1,89.9999976158143,10|4,1:0|1:2,0:0:0:0:
96,272,82331,2,0,P|52:281|-2:268,1,89.9999976158143,8|8,1:0|1:0,0:0:0:0:
177,194,82549,70,0,B|272:191|272:191|330:243|330:243|473:235,1,269.999992847443,4|0,1:2|0:0,0:0:0:0:
491,157,82983,2,0,L|401:165,1,89.9999976158143,0|0,1:0|1:0,0:0:0:0:
251,26,83201,1,8,1:0:0:0:
324,41,83309,1,8,1:0:0:0:
395,53,83418,5,8,1:3:0:0:
395,53,83744,1,8,1:3:0:0:
395,53,84070,1,8,1:3:0:0:
395,53,84288,70,0,L|293:69,1,89.9999976158143,8|0,1:3|0:0,0:0:0:0:
107,120,84505,2,0,L|195:133,1,89.9999976158143,8|0,1:0|0:0,0:0:0:0:
362,252,84723,2,0,B|370:205|370:205|352:147,1,89.9999976158143,4|0,1:2|0:0,0:0:0:0:
160,232,84940,2,0,B|147:272|147:272|155:319,1,89.9999976158143,8|8,1:0|1:0,0:0:0:0:
260,257,85157,2,0,B|231:163|287:179|260:65,1,179.999995231629,4|8,1:2|1:0,0:0:0:0:
192,27,85483,5,8,1:0:0:0:
164,82,85592,1,8,1:0:0:0:
188,133,85701,1,8,1:0:0:0:
332,185,85809,69,8,1:0:0:0:
364,253,85918,1,8,1:0:0:0:
329,323,86027,6,0,P|230:350|146:213,1,269.999992847443,8|0,1:3|0:0,0:0:0:0:
4,178,86462,2,0,L|116:167,1,89.9999976158143,0|0,0:0|1:0,0:0:0:0:
254,155,86679,1,10,1:0:0:0:
325,194,86788,1,0,0:0:0:0:
379,137,86896,2,0,P|318:25|193:42,1,269.999992847443,2|0,1:0|0:0,0:0:0:0:
78,30,87331,2,0,B|68:76|68:76|85:142,1,89.9999976158143,4|0,1:2|0:0,0:0:0:0:
253,242,87549,2,0,B|263:200|263:200|253:154,1,89.9999976158143,10|0,1:0|0:0,0:0:0:0:
110,222,87766,70,0,P|30:251|31:356,1,179.999995231629,6|8,1:0|1:0,0:0:0:0:
30,348,88092,2,0,P|40:263|121:233,1,179.999995231629,2|0,1:0|0:0,0:0:0:0:
278,352,88418,2,0,B|233:342|233:342|166:360,1,89.9999976158143,10|8,1:0|1:0,0:0:0:0:
335,193,88636,2,0,P|446:221|451:374,1,269.999992847443,4|0,1:2|0:0,0:0:0:0:
253,242,89070,2,0,P|243:199|253:146,1,89.9999976158143,4|0,1:2|0:0,0:0:0:0:
405,26,89288,2,0,P|415:69|408:113,1,89.9999976158143,10|0,1:0|0:0,0:0:0:0:
198,52,89505,6,0,B|93:37|132:119|7:96,1,179.999995231629,6|8,1:0|1:0,0:0:0:0:
160,183,89831,1,8,1:0:0:0:
160,183,89940,2,0,B|250:166|250:166|348:217,1,179.999995231629,2|10,1:0|1:0,0:0:0:0:
504,246,90266,1,8,1:0:0:0:
504,246,90375,2,0,L|194:324,1,269.999992847443,2|0,1:0|0:0,0:0:0:0:
355,360,90809,2,0,B|399:362|399:362|455:330,1,89.9999976158143,2|0,1:0|0:0,0:0:0:0:
391,184,91027,2,0,B|342:180|342:180|287:209,1,89.9999976158143,8|0,1:0|0:0,0:0:0:0:
298,23,91244,70,0,P|281:107|179:115,1,179.999995231629,6|8,1:0|1:0,0:0:0:0:
130,102,91570,1,4,1:3:0:0:
59,118,91679,1,0,0:0:0:0:
19,179,91788,1,4,1:3:0:0:
35,248,91896,1,8,1:0:0:0:
91,292,92005,1,8,1:0:0:0:
162,284,92114,2,0,L|265:276,1,89.9999976158143,2|8,1:0|1:0,0:0:0:0:
347,215,92331,2,0,L|404:224,3,44.9999988079071,8|0|8|0,1:0|0:0|1:0|0:0,0:0:0:0:
305,206,92549,5,8,1:3:0:0:
277,139,92657,1,8,1:0:0:0:
313,76,92766,1,10,1:0:0:0:
385,75,92875,1,8,1:0:0:0:
456,120,92983,22,0,B|465:80|465:80|458:28,1,80.9999953823091,8|0,1:3|0:0,0:0:0:0:
468,40,93201,2,0,B|474:80|474:80|465:120,1,80.9999953823091,2|2,1:2|1:2,0:0:0:0:
472,121,93418,2,0,B|481:81|481:81|475:41,1,80.9999953823091,2|0,1:2|0:0,0:0:0:0:
366,25,93636,70,0,L|271:42,1,80.9999953823091,2|0,1:2|0:0,0:0:0:0:
223,84,93853,2,0,L|47:57,1,161.999990764618,4|2,1:2|1:2,0:0:0:0:
21,122,94179,1,2,1:2:0:0:
21,122,94288,2,0,B|11:163|11:163|20:209,1,80.9999953823091,2|2,1:2|1:2,0:0:0:0:
86,239,94505,2,0,L|185:224,1,80.9999953823091,8|0,1:0|0:0,0:0:0:0:
341,167,94723,6,0,P|433:183|417:320,1,242.999986146927,4|0,1:0|0:0,0:0:0:0:
347,336,95157,2,0,P|271:254|340:166,1,242.999986146927,2|0,1:2|0:0,0:0:0:0:
358,76,95592,1,4,1:2:0:0:
358,76,95701,2,0,B|324:96|324:96|266:95,1,80.9999953823091,8|0,1:0|0:0,0:0:0:0:
217,51,95918,1,8,1:0:0:0:
217,51,96027,2,0,L|131:69,1,80.9999953823091,4|0,1:2|0:0,0:0:0:0:
60,84,96244,1,4,1:2:0:0:
485,186,96462,70,0,B|272:133|341:342|85:260,1,404.999976911546,8|0,1:3|1:2,0:0:0:0:
75,246,97114,2,0,P|114:235|173:256,1,80.9999953823091,2|2,1:2|1:2,0:0:0:0:
148,349,97331,2,0,P|109:360|50:339,1,80.9999953823091,4|0,1:2|0:0,0:0:0:0:
74,235,97549,2,0,P|113:224|172:245,1,80.9999953823091,2|2,1:2|1:2,0:0:0:0:
152,361,97766,2,0,P|113:372|54:351,1,80.9999953823091,8|8,1:0|1:0,0:0:0:0:
206,284,97983,2,0,L|298:295,1,80.9999953823091,4|0,1:2|0:0,0:0:0:0:
364,201,98201,5,8,1:3:0:0:
413,180,98309,1,0,0:0:0:0:
464,201,98418,1,8,1:0:0:0:
411,222,98527,1,8,1:0:0:0:
364,201,98636,1,0,0:0:0:0:
318,167,98744,1,8,1:0:0:0:
250,141,98853,1,8,1:3:0:0:
172,171,98962,1,8,1:0:0:0:
124,243,99070,2,0,L|370:199,1,242.999986146927,4|0,1:2|0:0,0:0:0:0:
261,116,99505,69,10,1:0:0:0:
183,143,99614,5,8,1:0:0:0:
96,129,99723,69,10,1:0:0:0:
36,43,99831,5,10,1:0:0:0:
242,30,99940,70,0,B|344:11|306:84|438:55,1,179.999995231629,6|2,1:0|0:3,0:0:0:0:
414,59,100592,1,4,0:3:0:0:
341,152,100809,2,0,P|339:206|348:309,1,134.999996423721,8|0,1:0|0:0,0:0:0:0:
344,286,101244,2,0,L|235:288,1,89.9999976158143,2|8,1:3|1:0,0:0:0:0:
14,106,101679,6,0,L|177:99,2,134.999996423721,6|2|2,1:0|1:0|1:0,0:0:0:0:
73,179,102549,1,8,1:0:0:0:
73,179,102766,1,2,1:0:0:0:
149,171,102983,1,8,1:0:0:0:
149,171,103201,1,2,1:0:0:0:
177,363,103418,69,8,1:3:0:0:
177,363,103853,1,4,1:3:0:0:
247,326,104070,1,4,1:3:0:0:
410,254,104288,5,4,1:3:0:0:
276,205,104505,1,4,1:3:0:0:
74,178,104723,69,8,1:0:0:0:
252,74,104940,1,8,1:0:0:0:
462,37,105157,5,8,1:3:0:0:
391,106,108636,6,0,P|361:203|246:198,1,198.000000797272,6|8,1:0|1:0,0:0:0:0:
172,199,108962,1,8,1:0:0:0:
286,229,109070,2,0,P|377:209|401:118,1,198.000000797272,2|8,1:0|1:0,0:0:0:0:
410,34,109396,1,8,1:0:0:0:
414,127,109505,2,0,P|390:218|298:237,1,198.000000797272,2|10,1:0|1:0,0:0:0:0:
213,99,109831,1,0,0:0:0:0:
292,47,109940,2,0,P|305:101|293:148,1,99.0000003986359,4|0,1:2|0:0,0:0:0:0:
131,132,110157,2,0,P|121:83|134:36,1,99.0000003986359,10|0,1:0|0:0,0:0:0:0:
18,163,110375,6,0,P|129:172|152:275,1,198.000000797272,6|8,1:0|1:0,0:0:0:0:
63,254,110701,1,8,1:0:0:0:
14,175,110809,2,0,P|125:184|148:287,1,198.000000797272,2|8,1:0|1:0,0:0:0:0:
55,277,111136,1,0,0:0:0:0:
8,191,111244,2,0,P|119:200|142:303,1,198.000000797272,2|8,1:0|1:0,0:0:0:0:
308,326,111570,1,8,1:0:0:0:
229,369,111679,2,0,B|220:323|220:323|227:265,1,99.0000003986359,2|0,1:0|0:0,0:0:0:0:
394,269,111896,2,0,B|400:320|400:320|391:366,1,99.0000003986359,10|0,1:0|0:0,0:0:0:0:
305,221,112114,6,0,L|308:9,1,198.000000797272,6|8,1:0|1:0,0:0:0:0:
199,126,112440,1,8,1:0:0:0:
291,224,112549,2,0,L|294:12,1,198.000000797272,2|8,1:0|1:0,0:0:0:0:
182,129,112875,1,8,1:0:0:0:
274,227,112984,2,0,L|277:15,1,198.000000797272,2|10,1:0|1:0,0:0:0:0:
380,117,113309,5,0,0:0:0:0:
380,117,113418,2,0,B|428:109|428:109|493:125,1,99.0000003986359,4|0,1:2|0:0,0:0:0:0:
152,199,113636,2,0,B|104:191|104:191|39:207,1,99.0000003986359,10|0,1:0|0:0,0:0:0:0:
324,362,113853,6,0,P|418:360|424:238,1,198.000000797272,6|8,1:0|1:0,0:0:0:0:
253,320,114179,1,8,1:0:0:0:
181,292,114288,2,0,P|136:303|76:276,1,99.0000003986359,2|8,1:0|1:0,0:0:0:0:
89,277,114505,2,0,P|134:293|182:282,1,99.0000003986359,8|0,1:0|0:0,0:0:0:0:
137,213,114723,2,0,B|109:99|173:136|143:2,1,198.000000797272,2|8,1:0|1:0,0:0:0:0:
36,26,115049,1,8,1:0:0:0:
123,19,115157,2,0,B|106:137|170:100|157:212,1,198.000000797272,2|10,1:0|1:0,0:0:0:0:
244,205,115483,1,0,0:0:0:0:
133,330,115592,6,0,P|45:321|46:199,1,198.000000797272,6|8,1:0|1:0,0:0:0:0:
200,274,115918,1,8,1:0:0:0:
139,321,116027,2,0,P|51:312|52:190,1,198.000000797272,2|8,1:0|1:0,0:0:0:0:
207,266,116353,1,8,1:0:0:0:
146,314,116462,2,0,P|58:305|59:183,1,198.000000797272,2|10,1:0|1:0,0:0:0:0:
80,147,116788,1,0,0:0:0:0:
149,124,116896,1,4,1:2:0:0:
223,149,117005,1,0,0:0:0:0:
277,199,117114,1,10,1:0:0:0:
351,204,117223,1,0,0:0:0:0:
414,163,117331,6,0,L|183:208,1,198.000000797272,6|8,1:0|1:0,0:0:0:0:
142,218,117657,1,8,1:0:0:0:
220,209,117766,2,0,L|414:171,1,198.000000797272,2|8,1:0|1:0,0:0:0:0:
488,153,118092,1,0,0:0:0:0:
390,100,118201,6,0,B|377:53|377:53|384:-2,1,99.0000003986359,2|0,1:0|0:0,0:0:0:0:
376,103,118418,2,0,B|363:56|363:56|370:1,1,99.0000003986359,8|8,1:0|1:0,0:0:0:0:
488,239,118636,2,0,B|494:288|494:288|481:335,1,99.0000003986359,2|0,1:0|0:0,0:0:0:0:
474,236,118853,2,0,B|480:285|480:285|467:332,1,99.0000003986359,10|0,1:0|0:0,0:0:0:0:
161,348,119070,6,0,P|109:271|156:184,1,198.000000797272,6|10,1:0|1:0,0:0:0:0:
226,270,119396,1,8,1:0:0:0:
335,238,119505,2,0,P|326:327|223:359,1,198.000000797272,2|8,1:0|1:0,0:0:0:0:
217,242,119831,1,8,1:0:0:0:
159,106,119940,2,0,B|254:94|241:164|352:149,1,198.000000797272,2|10,1:0|1:0,0:0:0:0:
97,154,120266,5,0,0:0:0:0:
97,154,120375,2,0,B|83:105|83:105|99:49,1,99.0000003986359,4|0,1:2|0:0,0:0:0:0:
348,54,120592,2,0,B|361:100|361:100|347:149,1,99.0000003986359,10|0,1:0|0:0,0:0:0:0:
210,136,120809,6,0,L|202:32,1,99.0000003986359,6|0,1:0|0:0,0:0:0:0:
230,232,121027,2,0,L|222:128,1,99.0000003986359,8|8,1:0|1:0,0:0:0:0:
248,329,121244,2,0,L|240:225,1,99.0000003986359,2|8,1:0|1:0,0:0:0:0:
411,272,121462,5,8,1:0:0:0:
347,206,121570,5,0,0:0:0:0:
255,230,121679,6,0,L|247:328,1,99.0000003986359,2|0,1:0|0:0,0:0:0:0:
273,132,121896,2,0,L|265:230,1,99.0000003986359,8|8,1:0|1:0,0:0:0:0:
293,36,122114,2,0,L|285:134,1,99.0000003986359,2|0,1:0|0:0,0:0:0:0:
62,70,122331,5,10,1:0:0:0:
127,32,122440,5,0,0:0:0:0:
181,83,122549,6,0,P|185:175|98:208,1,198.000000797272,6|8,1:0|1:0,0:0:0:0:
19,189,122875,1,8,1:0:0:0:
95,179,122983,2,0,P|181:212|177:304,1,198.000000797272,2|8,1:0|1:0,0:0:0:0:
75,364,123309,1,8,1:0:0:0:
75,364,123418,2,0,P|65:319|79:254,1,99.0000003986359,2|0,1:0|0:0,0:0:0:0:
278,271,123636,2,0,P|286:319|276:367,1,99.0000003986359,10|0,1:0|0:0,0:0:0:0:
226,153,123853,2,0,B|321:182|312:91|438:132,1,198.000000797272,4|10,1:2|1:0,0:0:0:0:
497,224,124179,5,0,0:0:0:0:
497,224,124288,2,0,P|408:216|379:321,1,198.000000797272,6|8,1:0|1:0,0:0:0:0:
331,373,124614,1,8,1:0:0:0:
388,327,124723,2,0,P|355:240|263:246,1,198.000000797272,2|8,1:0|1:0,0:0:0:0:
185,353,125049,5,0,0:0:0:0:
137,367,125157,1,2,1:0:0:0:
95,355,125266,1,0,0:0:0:0:
68,315,125375,1,8,1:0:0:0:
74,266,125483,1,8,1:0:0:0:
24,157,125592,5,2,1:0:0:0:
87,194,125701,1,0,0:0:0:0:
161,178,125809,1,10,1:0:0:0:
189,107,125918,1,0,0:0:0:0:
287,80,126027,6,0,L|88:59,1,198.000000797272,6|8,1:0|1:0,0:0:0:0:
17,74,126353,1,8,1:0:0:0:
94,77,126462,2,0,L|290:56,1,198.000000797272,2|8,1:0|1:0,0:0:0:0:
340,125,126788,5,8,1:0:0:0:
402,90,126896,1,2,1:0:0:0:
467,126,127005,1,0,0:0:0:0:
474,199,127114,1,10,1:0:0:0:
406,234,127223,1,0,0:0:0:0:
284,186,127331,5,4,1:2:0:0:
236,186,127440,1,0,0:0:0:0:
205,218,127549,1,10,1:0:0:0:
215,263,127657,1,0,0:0:0:0:
122,324,127766,6,0,B|215:291|215:291|323:332,1,198.000000797272,6|8,1:0|1:0,0:0:0:0:
446,352,128092,1,8,1:0:0:0:
446,352,128201,2,0,B|353:319|353:319|245:360,1,198.000000797272,2|8,1:0|1:0,0:0:0:0:
340,239,128527,1,0,0:0:0:0:
340,239,128636,2,0,P|329:199|338:141,1,99.0000003986359,2|0,1:0|0:0,0:0:0:0:
276,51,128853,1,8,1:0:0:0:
214,101,128962,1,8,1:0:0:0:
121,28,129070,2,0,P|129:76|118:124,1,99.0000003986359,2|0,1:0|0:0,0:0:0:0:
49,161,129288,1,10,1:0:0:0:
49,161,129396,1,0,0:0:0:0:
6,262,129505,6,0,P|60:340|238:210,1,323.999981529237,4|0,1:0|1:0,0:0:0:0:
291,102,130049,1,0,0:0:0:0:
291,102,130157,2,0,P|242:93|187:108,1,80.9999953823091,8|8,1:0|1:0,0:0:0:0:
341,174,130375,2,0,P|374:98|339:10,1,161.999990764618,0|8,1:0|1:0,0:0:0:0:
115,25,130701,1,0,0:0:0:0:
115,25,130809,2,0,B|106:66|106:66|115:124,1,80.9999953823091,4|0,1:2|0:0,0:0:0:0:
34,220,131027,2,0,B|42:179|42:179|32:128,1,80.9999953823091,8|0,1:0|0:0,0:0:0:0:
110,214,131244,5,4,1:0:0:0:
155,278,131353,1,0,0:0:0:0:
234,285,131462,1,8,1:0:0:0:
297,238,131570,1,8,1:0:0:0:
373,217,131679,1,0,1:0:0:0:
444,250,131788,1,8,1:0:0:0:
458,327,131896,1,8,1:0:0:0:
394,374,132005,1,0,0:0:0:0:
366,362,132114,5,8,1:0:0:0:
336,357,132223,1,8,1:0:0:0:
306,361,132331,1,0,1:0:0:0:
277,368,132440,1,8,1:0:0:0:
197,328,132549,5,8,1:0:0:0:
127,310,132657,5,0,0:0:0:0:
78,238,132766,5,8,1:0:0:0:
68,147,132875,5,0,0:0:0:0:
163,53,132983,69,4,3:3:0:0:
277,83,133418,1,4,3:3:0:0:
392,112,133853,1,4,3:3:0:0:
505,147,134288,1,4,3:3:0:0:
393,188,134723,1,4,3:3:0:0:
278,218,135157,1,4,3:3:0:0:
166,258,135592,1,4,3:3:0:0:
243,290,135809,1,2,1:0:0:0:
319,318,136027,1,2,1:0:0:0:
253,106,136244,69,2,1:0:0:0:
253,106,136353,1,0,1:0:0:0:
253,106,136462,2,0,L|252:8,1,89.9999976158143,2|0,1:0|0:0,0:0:0:0:
253,191,136679,38,2,B|130:175|163:45|163:45|71:67|38:206|45:326|115:356|115:356|132:274|154:255|154:255|162:340|224:358,1,809.999978542328,2|0,1:0|0:0,1:0:0:0:
255,100,137766,54,0,L|254:2,1,89.9999976158143,2|0,1:0|0:0,0:0:0:0:
253,191,137983,38,2,B|376:175|343:45|343:45|435:67|468:206|461:326|391:356|391:356|374:274|352:255|352:255|344:340|282:358,1,809.999978542328,2|0,1:0|0:0,1:0:0:0:
214,257,139070,54,0,B|170:243|170:243|112:259,1,89.9999976158143,2|0,1:0|0:0,0:0:0:0:
99,352,139288,2,0,B|141:363|141:363|185:349,1,89.9999976158143,8|0,1:0|0:0,0:0:0:0:
100,175,139505,2,0,L|-12:181,1,89.9999976158143,2|0,1:0|0:0,0:0:0:0:
114,104,139723,1,10,1:0:0:0:
114,104,139831,6,0,B|222:91|171:179|307:155,1,179.999995231629,2|2,1:0|1:0,0:0:0:0:
395,203,140157,2,0,B|438:203|438:203|483:219,1,89.9999976158143,8|0,1:0|0:0,0:0:0:0:
219,280,140375,2,0,B|259:266|259:266|340:274,1,89.9999976158143,2|0,1:0|0:0,0:0:0:0:
39,335,140592,2,0,B|80:329|80:329|151:344,1,89.9999976158143,8|0,1:0|0:0,0:0:0:0:
200,199,140809,2,0,L|4:229,1,179.999995231629,2|8,1:0|1:0,0:0:0:0:
124,3,141136,2,0,B|163:85|163:85|262:147,1,179.999995231629,2|8,1:0|1:0,0:0:0:0:
8,131,141462,2,0,L|57:35,1,89.9999976158143,10|0,1:0|0:0,0:0:0:0:
265,272,141679,6,0,B|202:267|202:267|162:296|162:296|78:283,1,179.999995231629,6|8,1:0|1:0,0:0:0:0:
394,357,142005,1,0,0:0:0:0:
394,357,142114,2,0,B|349:357|349:357|304:389,1,89.9999976158143,4|0,1:2|0:0,0:0:0:0:
390,193,142331,2,0,B|345:193|345:193|300:161,1,89.9999976158143,8|8,1:0|1:0,0:0:0:0:
512,292,142549,2,0,L|416:286,1,89.9999976158143,6|0,1:0|0:0,0:0:0:0:
211,183,142766,2,2,P|231:70|480:148,1,449.999988079071,10|0,1:0|1:0,1:0:0:0:
274,259,143418,6,0,P|203:282|122:125,1,269.999992847443,6|0,1:0|0:0,0:0:0:0:
309,173,143853,2,0,P|351:203|367:250,1,89.9999976158143,2|0,1:0|0:0,0:0:0:0:
354,374,144070,2,0,P|373:333|410:309,1,89.9999976158143,8|0,1:0|0:0,0:0:0:0:
510,286,144288,2,0,P|479:250|428:234,1,89.9999976158143,2|0,1:0|0:0,0:0:0:0:
301,182,144505,2,0,P|343:212|359:259,1,89.9999976158143,10|10,1:0|1:0,0:0:0:0:
365,380,144723,2,0,P|384:339|421:315,1,89.9999976158143,2|0,1:0|0:0,0:0:0:0:
469,84,144940,38,2,B|311:154|311:154|128:70,1,359.999990463257,10|10,1:0|1:0,1:0:0:0:
55,212,145483,1,8,1:0:0:0:
55,212,145592,2,0,L|144:186,1,89.9999976158143,2|0,1:0|0:0,0:0:0:0:
292,298,145809,2,0,L|205:272,1,89.9999976158143,10|10,1:0|1:0,0:0:0:0:
2,384,146027,6,0,B|-15:320|-15:320|4:247,1,125.999992816925,8|0,1:3|0:0,0:0:0:0:
294,210,146244,6,0,B|302:252|302:252|291:297,1,89.9999976158143,10|0,1:0|0:0,0:0:0:0:
209,149,146462,2,0,L|196:40,1,89.9999976158143,2|0,1:0|0:0,0:0:0:0:
312,28,146679,5,8,1:0:0:0:
364,107,146788,37,8,1:0:0:0:
417,49,146896,6,0,L|520:71,1,89.9999976158143,8|0,1:3|0:0,0:0:0:0:
388,186,147114,2,0,L|491:208,1,89.9999976158143,10|0,1:0|0:0,0:0:0:0:
413,56,147331,2,0,L|516:78,1,89.9999976158143,4|0,1:2|0:0,0:0:0:0:
384,193,147549,2,0,L|487:215,1,89.9999976158143,4|0,1:2|0:0,0:0:0:0:
212,194,147766,6,0,L|123:212,1,89.9999976158143,8|0,1:3|0:0,0:0:0:0:
242,346,147983,2,0,L|153:364,1,89.9999976158143,10|0,1:0|0:0,0:0:0:0:
208,202,148201,2,0,L|119:220,1,89.9999976158143,4|0,1:2|0:0,0:0:0:0:
238,354,148418,2,0,L|149:372,1,89.9999976158143,4|0,1:2|0:0,0:0:0:0:
321,251,148636,6,0,L|435:263,1,89.9999976158143,8|0,1:3|0:0,0:0:0:0:
490,229,148853,37,10,1:0:0:0:
488,313,148962,1,10,1:0:0:0:
409,270,149070,6,0,L|319:260,1,89.9999976158143,4|0,1:2|0:0,0:0:0:0:
229,208,149288,5,10,1:0:0:0:
231,310,149396,1,0,0:0:0:0:
321,269,149505,6,0,L|410:278,1,89.9999976158143,2|0,1:0|0:0,0:0:0:0:
478,154,149723,38,0,B|485:109|485:109|473:46,1,89.9999976158143,10|10,1:0|1:0,0:0:0:0:
295,23,149940,2,0,B|286:66|286:66|293:111,1,89.9999976158143,2|8,1:0|1:0,0:0:0:0:
210,89,150157,5,8,1:0:0:0:
184,158,150266,1,8,1:0:0:0:
254,184,150375,2,0,L|257:380,1,179.999995231629,6|8,1:0|1:0,0:0:0:0:
254,184,150701,6,2,B|363:211|485:84|485:84|489:130|353:245|353:245|500:200|500:200|449:268|449:268|408:285|408:285|482:284|482:284|291:367|395:369,1,935.999932357792,2|0,1:0|0:0,1:0:0:0:
262,355,151679,22,0,L|259:245,1,89.9999976158143,2|0,1:0|0:0,0:0:0:0:
254,184,151896,22,2,B|145:211|23:84|23:84|19:130|155:245|155:245|8:200|8:200|59:268|59:268|100:285|100:285|26:284|26:284|217:367|113:369,1,935.999932357792,10|8,1:0|1:0,1:0:0:0:
374,345,152875,5,8,1:0:0:0:
374,345,152983,2,0,B|387:304|387:304|376:258,1,89.9999976158143,2|0,1:0|0:0,0:0:0:0:
254,184,153201,2,0,B|241:143|241:143|252:97,1,89.9999976158143,8|8,1:0|1:0,0:0:0:0:
349,10,153418,2,0,B|360:56|360:56|347:97,1,89.9999976158143,10|0,1:0|0:0,0:0:0:0:
205,265,153636,2,0,B|192:306|192:306|203:352,1,89.9999976158143,10|0,1:0|0:0,0:0:0:0:
444,178,153853,6,0,L|336:184,1,89.9999976158143,6|0,1:0|0:0,0:0:0:0:
68,178,154070,2,0,L|176:184,1,89.9999976158143,10|0,1:0|0:0,0:0:0:0:
342,215,154288,2,0,B|258:191|258:191|142:220,1,179.999995231629,4|10,1:2|1:0,0:0:0:0:
27,147,154614,5,10,1:0:0:0:
27,147,154723,2,0,L|157:162,1,89.9999976158143,6|0,1:0|0:0,0:0:0:0:
484,143,154940,2,0,L|380:155,1,89.9999976158143,10|0,1:0|0:0,0:0:0:0:
168,213,155157,2,0,B|257:190|257:190|341:214,1,179.999995231629,4|8,1:2|1:0,0:0:0:0:
458,242,155483,37,8,1:0:0:0:
458,242,155592,2,0,P|351:284|354:362,1,179.999995231629,8|8,1:3|1:0,0:0:0:0:
112,220,155918,1,8,1:0:0:0:
112,220,156027,2,0,P|219:262|216:340,1,179.999995231629,8|8,1:3|1:0,0:0:0:0:
488,375,156353,5,8,1:0:0:0:
488,375,156462,2,0,P|381:333|384:255,1,179.999995231629,8|8,1:3|1:0,0:0:0:0:
73,347,156788,1,8,1:0:0:0:
73,347,156897,2,0,P|233:304|230:226,1,269.999992847443,8|0,1:3|0:0,0:0:0:0:
512,23,157331,6,0,B|364:5|405:119|247:91,1,269.999992847443,4|0,1:2|0:0,0:0:0:0:
161,40,157766,2,0,B|119:50|119:50|67:39,1,89.9999976158143,2|0,1:0|0:0,0:0:0:0:
15,149,157983,2,0,B|60:139|60:139|102:149,1,89.9999976158143,10|8,1:0|1:0,0:0:0:0:
361,211,158201,2,0,L|257:199,1,89.9999976158143,2|0,1:0|0:0,0:0:0:0:
182,210,158418,2,0,L|286:198,1,89.9999976158143,10|0,1:0|0:0,0:0:0:0:
316,299,158636,2,0,B|271:286|271:286|221:302,1,89.9999976158143,2|0,1:0|0:0,0:0:0:0:
410,362,158853,2,2,P|497:290|414:163,1,269.999992847443,10|0,1:0|0:0,1:0:0:0:
331,28,159288,2,0,L|190:60,1,89.9999976158143,10|8,1:0|1:0,0:0:0:0:
167,155,159505,2,0,B|180:195|180:195|178:252,1,89.9999976158143,4|8,1:2|1:0,0:0:0:0:
262,312,159723,5,10,1:0:0:0:
290,332,159831,1,8,1:0:0:0:
327,330,159940,1,8,1:3:0:0:
358,304,160049,1,2,1:0:0:0:
253,123,160157,37,8,1:0:0:0:
189,75,160266,1,10,1:0:0:0:
110,84,160375,1,8,1:3:0:0:
65,142,160483,1,0,0:0:0:0:
74,220,160592,1,4,1:2:0:0:
129,274,160701,1,0,0:0:0:0:
302,207,160809,5,8,1:3:0:0:
256,192,160864,12,4,162549,3:2:0:0:
302,207,162983,69,4,3:2:0:0:
426,55,163201,2,0,L|356:60,3,44.9999988079071,2|0|0|0,1:0|1:0|1:0|1:0,0:0:0:0:
439,64,163418,2,0,L|245:81,1,179.999995231629,8|8,1:3|1:0,0:0:0:0:
176,38,163744,1,10,1:0:0:0:
176,38,163853,2,0,L|67:48,1,89.9999976158143,8|8,1:0|1:0,0:0:0:0:
25,96,164070,1,10,1:0:0:0:
93,134,164179,1,10,1:0:0:0:
24,191,164288,6,0,B|14:243|14:243|25:300,1,107.999993843079,8|0,1:3|0:0,0:0:0:0:
110,343,164505,1,4,1:2:0:0:
170,285,164614,1,0,0:0:0:0:
232,334,164723,2,0,L|354:356,1,107.999993843079,10|2,1:0|1:0,0:0:0:0:
432,283,164940,1,4,1:2:0:0:
432,283,165049,2,0,P|438:211|306:182,1,215.999987686158,6|2,1:0|1:0,0:0:0:0:
259,212,165375,1,4,1:2:0:0:
207,146,165483,1,0,0:0:0:0:
117,173,165592,2,0,P|108:129|119:61,1,107.999993843079,10|0,1:0|0:0,0:0:0:0:
331,23,165809,69,4,1:2:0:0:
408,44,165918,1,0,1:0:0:0:
365,106,166027,2,0,L|251:120,1,107.999993843079,6|0,1:0|0:0,0:0:0:0:
181,269,166244,2,0,L|193:338,2,53.9999969215394,4|0|0,1:2|0:0|1:0,0:0:0:0:
253,248,166462,2,0,L|370:259,1,107.999993843079,10|0,1:0|0:0,0:0:0:0:
428,215,166679,2,0,L|434:157,2,53.9999969215394,4|0|2,1:2|0:0|1:0,0:0:0:0:
496,343,166896,2,0,B|445:356|445:356|390:340,1,107.999993843079,6|0,1:0|0:0,0:0:0:0:
213,165,167114,2,0,B|266:149|266:149|317:162,1,107.999993843079,10|0,1:0|0:0,0:0:0:0:
66,238,167331,2,2,P|8:145|167:58,1,323.999981529237,10|8,1:0|1:0,1:0:0:0:
152,236,167766,6,0,B|164:285|164:285|151:357,1,107.999993843079,6|0,1:0|0:0,0:0:0:0:
229,349,167983,1,4,1:2:0:0:
302,375,168092,1,0,0:0:0:0:
371,336,168201,1,10,1:0:0:0:
438,301,168309,1,10,1:0:0:0:
501,337,168418,1,4,1:2:0:0:
435,377,168527,2,0,L|215:334,1,215.999987686158,6|2,1:0|1:0,0:0:0:0:
176,267,168853,69,4,1:2:0:0:
243,221,168962,1,2,1:0:0:0:
177,161,169070,2,0,B|165:212|165:212|176:268,1,107.999993843079,10|2,1:0|1:0,0:0:0:0:
68,233,169288,5,4,1:2:0:0:
1,187,169397,1,8,1:0:0:0:
66,127,169505,2,0,B|78:179|78:179|67:235,1,107.999993843079,6|2,1:0|1:0,0:0:0:0:
164,282,169723,69,4,1:2:0:0:
231,236,169832,1,2,1:0:0:0:
165,176,169940,2,0,B|153:227|153:227|164:283,1,107.999993843079,10|2,1:0|1:0,0:0:0:0:
82,209,170157,5,4,1:2:0:0:
15,163,170266,1,8,1:0:0:0:
112,91,170375,70,0,L|250:107,1,107.999993843079,10|10,1:0|1:0,0:0:0:0:
353,71,170592,2,0,L|421:59,2,53.9999969215394,4|0|10,1:2|0:0|1:0,0:0:0:0:
311,130,170809,1,10,1:0:0:0:
377,158,170918,1,10,1:0:0:0:
408,223,171027,1,4,1:2:0:0:
379,289,171136,1,4,1:2:0:0:
227,359,171244,6,2,P|129:366|200:83,1,539.999969215394,8|2,1:3|1:0,1:0:0:0:
320,13,171896,2,0,B|305:69|305:69|323:129,1,107.999993843079,4|2,1:2|1:0,0:0:0:0:
512,232,172114,2,2,B|446:173|446:173|326:192,1,215.999987686158,10|6,1:0|1:2,1:0:0:0:
192,236,172440,2,2,B|283:184|283:184|398:211,1,215.999987686158,2|0,1:0|0:0,1:0:0:0:
330,381,172766,2,0,B|343:331|343:331|328:273,1,107.999993843079,4|0,1:2|0:0,0:0:0:0:
113,153,172983,69,8,1:3:0:0:
57,201,173092,1,2,1:0:0:0:
73,276,173201,1,4,1:2:0:0:
146,292,173309,1,2,1:0:0:0:
287,194,173418,5,8,1:0:0:0:
343,146,173527,1,2,1:0:0:0:
327,71,173636,1,4,1:2:0:0:
254,55,173744,1,2,1:0:0:0:
190,210,173853,69,2,1:0:0:0:
246,265,173962,1,2,1:0:0:0:
304,314,174070,1,4,1:2:0:0:
370,351,174179,1,0,1:0:0:0:
493,288,174288,6,2,L|169:361,1,323.999981529237,10|10,1:0|1:0,1:0:0:0:
31,178,174723,70,0,B|86:187|86:187|136:169,1,107.999993843079,8|0,1:3|0:0,0:0:0:0:
218,31,174940,2,0,L|356:48,1,107.999993843079,4|0,1:2|0:0,0:0:0:0:
427,42,175157,2,0,L|490:29,2,53.9999969215394,10|0|2,1:0|0:0|1:0,0:0:0:0:
368,117,175375,2,0,P|358:176|374:235,1,107.999993843079,4|0,1:2|0:0,0:0:0:0:
491,357,175592,2,0,P|501:304|490:251,1,107.999993843079,8|0,1:3|0:0,0:0:0:0:
292,305,175809,2,0,L|297:378,2,53.9999969215394,4|0|2,1:2|0:0|1:0,0:0:0:0:
228,256,176027,2,0,B|110:242|132:326|-5:296,1,215.999987686158,10|4,1:0|1:2,0:0:0:0:
64,220,176353,5,0,0:0:0:0:
122,170,176462,1,8,1:3:0:0:
105,92,176570,1,0,0:0:0:0:
46,37,176679,69,4,1:2:0:0:
29,115,176787,1,10,1:0:0:0:
87,165,176896,1,10,1:0:0:0:
165,151,177005,1,2,1:0:0:0:
230,77,177114,5,4,1:2:0:0:
312,42,177223,1,10,1:0:0:0:
394,81,177331,69,8,1:3:0:0:
457,130,177440,1,2,1:0:0:0:
446,205,177549,1,4,1:2:0:0:
371,225,177657,1,2,1:0:0:0:
260,250,177766,5,8,1:0:0:0:
216,270,177875,1,8,1:0:0:0:
200,316,177983,1,4,1:2:0:0:
227,357,178092,1,8,1:0:0:0:
335,282,178201,6,2,P|428:297|442:377,1,179.999995231629,8|10,1:3|1:0,1:0:0:0:
492,250,178527,1,8,1:0:0:0:
492,250,178636,2,0,B|482:205|482:205|493:145,1,89.9999976158143,2|0,1:0|0:0,0:0:0:0:
435,59,178853,1,10,1:0:0:0:
389,121,178962,1,0,0:0:0:0:
312,142,179070,2,0,L|198:131,1,89.9999976158143,8|0,1:3|0:0,0:0:0:0:
63,170,179288,1,8,1:0:0:0:
109,232,179397,1,8,1:0:0:0:
186,253,179505,2,0,L|300:242,1,89.9999976158143,2|0,1:0|0:0,0:0:0:0:
280,260,179723,2,0,L|162:272,1,89.9999976158143,10|0,1:0|0:0,0:0:0:0:
457,373,179940,6,2,P|483:315|327:227,1,269.999992847443,8|0,1:3|0:0,1:0:0:0:
475,356,180375,2,2,P|482:231|362:199,1,269.999992847443,10|0,1:0|0:0,1:0:0:0:
226,18,180809,70,2,P|100:93|207:329,1,449.999988079071,8|2,1:3|1:0,1:0:0:0:
265,249,181462,1,10,1:0:0:0:
181,228,181570,1,0,0:0:0:0:
199,327,181679,6,2,P|312:325|395:191,1,269.999992847443,8|10,1:3|1:0,1:0:0:0:
309,74,182114,2,0,P|302:122|315:184,1,89.9999976158143,2|0,1:0|0:0,0:0:0:0:
479,160,182331,2,0,P|484:115|477:71,1,89.9999976158143,10|0,1:0|0:0,0:0:0:0:
394,204,182549,1,8,1:3:0:0:
401,238,182657,1,10,1:0:0:0:
388,270,182766,1,10,1:0:0:0:
395,306,182875,1,8,1:0:0:0:
308,352,182983,69,2,1:0:0:0:
249,298,183092,5,10,1:0:0:0:
161,277,183201,69,10,1:0:0:0:
58,286,183309,5,8,1:0:0:0:
7,166,183418,70,0,P|7:90|97:43,1,179.999995231629,8|10,1:3|1:0,0:0:0:0:
296,226,183744,1,8,1:0:0:0:
296,226,183853,2,0,P|295:152|183:117,1,179.999995231629,4|4,1:2|1:2,0:0:0:0:
152,211,184179,1,0,0:0:0:0:
205,320,184288,2,2,P|309:323|384:112,1,359.999990463257,8|2,1:3|1:0,1:0:0:0:
437,42,184831,1,0,0:0:0:0:
437,42,184940,2,0,B|483:50|483:50|528:41,1,89.9999976158143,10|0,1:0|0:0,0:0:0:0:
299,20,185157,6,0,L|199:31,1,89.9999976158143,8|2,1:3|1:0,0:0:0:0:
301,166,185375,2,0,L|211:156,1,89.9999976158143,8|8,1:0|1:0,0:0:0:0:
18,196,185592,70,0,L|118:207,1,89.9999976158143,2|0,1:0|0:0,0:0:0:0:
14,302,185810,2,0,L|103:292,1,89.9999976158143,10|0,1:0|0:0,0:0:0:0:
209,49,186027,6,0,L|309:60,1,89.9999976158143,8|2,1:3|1:0,0:0:0:0:
207,195,186245,2,0,L|296:185,1,89.9999976158143,0|0,1:0|0:0,0:0:0:0:
490,225,186462,70,0,L|390:236,1,89.9999976158143,2|2,1:0|1:0,0:0:0:0:
494,331,186680,2,0,L|404:321,1,89.9999976158143,0|8,0:0|1:0,0:0:0:0:
299,68,186896,6,0,L|199:79,1,89.9999976158143,8|2,1:3|1:0,0:0:0:0:
301,214,187114,2,0,L|211:204,1,89.9999976158143,8|8,1:0|1:0,0:0:0:0:
76,306,187331,69,2,1:0:0:0:
168,358,187440,5,2,1:0:0:0:
247,300,187549,69,10,1:0:0:0:
356,345,187657,5,0,0:0:0:0:
450,257,187766,70,2,B|272:59|272:59|-5:135,1,539.999985694885,8|0,1:3|0:0,1:0:0:0:
57,245,188527,5,8,1:0:0:0:
57,245,188636,2,2,B|265:207|143:398|383:364,1,359.999990463257,8|2,1:3|1:0,1:0:0:0:
253,224,189179,1,0,0:0:0:0:
253,224,189288,2,0,B|244:180|244:180|254:125,1,89.9999976158143,10|0,1:0|0:0,0:0:0:0:
271,47,189505,69,8,1:3:0:0:
341,23,189614,1,10,1:0:0:0:
401,68,189723,1,8,1:0:0:0:
395,81,189831,1,8,1:0:0:0:
505,177,189940,5,2,1:0:0:0:
434,159,190049,1,2,1:0:0:0:
376,201,190158,1,10,1:0:0:0:
382,214,190266,1,2,1:0:0:0:
178,317,190375,69,8,1:3:0:0:
252,347,190483,1,0,0:0:0:0:
321,305,190592,1,8,1:0:0:0:
303,225,190701,1,0,0:0:0:0:
228,194,190809,1,8,1:3:0:0:
158,235,190918,1,0,0:0:0:0:
84,200,191027,1,4,1:2:0:0:
89,118,191136,1,0,0:0:0:0:
241,63,191244,5,8,1:3:0:0:
285,72,191353,1,10,1:0:0:0:
309,110,191462,1,8,1:0:0:0:
300,153,191570,1,10,1:0:0:0:
264,180,191679,69,4,1:2:0:0:
248,202,191788,1,8,1:0:0:0:
239,227,191896,1,10,1:0:0:0:
244,253,192005,1,10,1:0:0:0:
253,344,192114,21,4,1:2:0:0:
482,193,192549,5,2,3:2:0:0:
253,40,192983,69,2,3:2:0:0:
30,193,193418,5,2,3:2:0:0:
253,344,193853,69,2,3:2:0:0:
482,193,194288,5,2,3:2:0:0:
253,40,194722,69,2,3:2:0:0:
30,193,195157,5,2,3:2:0:0:
253,344,195592,69,2,3:2:0:0:
482,193,196027,5,2,3:2:0:0:
253,40,196461,69,2,3:2:0:0:
30,193,196896,5,2,3:2:0:0:
255,196,197331,69,2,0:2:0:0:
255,196,197766,1,2,0:2:0:0:
255,196,198201,1,2,0:2:0:0:
255,196,198636,22,0,B|344:220|344:220|367:308|367:308|461:334,1,269.999992847443,8|0,0:3|0:0,0:0:0:0:
157,310,199070,5,8,1:3:0:0:
162,238,199288,1,2,0:0:0:0:
162,238,199397,1,2,0:0:0:0:
166,166,199614,1,2,0:0:0:0:
166,166,199723,1,2,0:0:0:0:
166,166,199831,1,0,0:0:0:0:
51,228,200049,69,2,0:0:0:0:
58,156,200266,1,2,0:0:0:0:
58,156,200375,1,2,0:0:0:0:
67,82,200592,1,2,0:0:0:0:
219,342,200809,5,2,0:0:0:0:
219,342,200918,1,2,0:0:0:0:
206,268,201136,1,2,0:0:0:0:
191,193,201353,1,0,0:0:0:0:
191,193,201462,1,2,0:0:0:0:
0,333,201679,69,2,0:0:0:0:
0,333,201788,1,2,0:0:0:0:
0,333,201896,1,0,0:0:0:0:
0,333,202005,1,2,0:0:0:0:
0,333,202114,1,2,0:0:0:0:
15,259,202331,1,2,0:0:0:0:
152,261,202549,5,2,0:0:0:0:
152,261,202875,1,2,0:0:0:0:
152,261,203201,1,2,0:0:0:0:
152,261,203527,1,2,0:0:0:0:
152,261,203636,1,0,0:0:0:0:
137,184,203853,1,2,0:0:0:0:
121,111,204070,1,2,0:0:0:0:
20,178,204288,69,2,0:0:0:0:
20,178,204614,1,2,0:0:0:0:
20,178,204940,1,2,0:0:0:0:
45,116,205157,1,2,0:0:0:0:
45,116,205266,1,2,0:0:0:0:
45,116,205375,1,0,0:0:0:0:
45,116,205483,1,2,0:0:0:0:
45,116,205592,2,0,B|178:143|178:143|321:56,1,269.999992847443,8|0,1:3|0:0,0:0:0:0:
434,31,206027,5,8,1:3:0:0:
485,93,206136,1,8,1:0:0:0:
464,170,206244,1,8,1:0:0:0:
451,166,206679,1,8,1:3:0:0:
384,203,206788,1,8,1:0:0:0:
310,174,206896,1,8,1:0:0:0:
296,179,207331,69,8,1:3:0:0:
229,150,207440,1,8,1:0:0:0:
157,159,207549,1,8,1:0:0:0:
109,212,207657,1,8,1:0:0:0:
109,284,207766,5,8,1:3:0:0:
149,344,207875,1,8,1:0:0:0:
219,357,207983,1,8,1:0:0:0:
222,347,208418,1,8,1:3:0:0:
287,317,208527,1,8,1:0:0:0:
297,245,208636,1,4,1:2:0:0:
297,245,208744,70,0,L|360:240,1,44.9999988079071,0|0,0:0|0:0,0:0:0:0:
501,57,208962,2,0,L|438:52,1,44.9999988079071,4|0,1:2|0:0,0:0:0:0:
227,25,209179,5,4,1:2:0:0:
227,25,209288,2,0,B|213:70|213:70|227:130,1,89.9999976158143,4|0,1:2|0:0,0:0:0:0:
90,28,209505,69,8,1:3:0:0:
101,99,209614,1,8,1:0:0:0:
115,169,209723,1,8,1:0:0:0:
360,312,210157,1,8,1:3:0:0:
374,242,210266,1,8,1:0:0:0:
391,172,210375,1,8,1:0:0:0:
245,25,210809,5,8,1:3:0:0:
198,79,210918,1,8,1:0:0:0:
202,151,211027,1,8,1:0:0:0:
254,200,211136,1,8,1:0:0:0:
315,237,211244,69,8,1:3:0:0:
325,308,211353,1,8,1:0:0:0:
280,364,211462,1,8,1:0:0:0:
267,370,211896,1,8,1:3:0:0:
198,348,212005,1,8,1:0:0:0:
174,276,212114,1,4,1:2:0:0:
228,221,212223,1,4,1:3:0:0:
153,268,212331,5,8,1:0:0:0:
149,272,212404,1,4,1:3:0:0:
144,267,212476,1,4,1:3:0:0:
139,271,212549,1,4,1:2:0:0:
134,267,212621,1,4,1:3:0:0:
130,271,212694,1,4,1:3:0:0:
126,266,212766,2,0,B|84:256|84:256|27:272,1,89.9999976158143,4|0,1:2|0:0,0:0:0:0:
149,177,212983,70,0,L|242:170,1,89.9999976158143,6|0,1:0|0:0,0:0:0:0:
443,123,213201,1,8,1:0:0:0:
478,117,213309,2,0,L|295:101,1,179.999995231629,2|0,1:0|1:0,0:0:0:0:
420,217,213636,2,0,B|413:258|413:258|428:316,1,89.9999976158143,10|0,1:0|0:0,0:0:0:0:
213,281,213853,1,2,1:0:0:0:
230,257,213962,2,0,B|241:304|241:304|234:356,1,89.9999976158143,2|8,1:0|1:0,0:0:0:0:
337,198,214179,1,2,1:0:0:0:
323,225,214288,2,0,L|327:125,1,89.9999976158143,2|0,1:0|0:0,0:0:0:0:
323,45,214505,2,0,L|326:134,1,89.9999976158143,10|0,1:0|0:0,0:0:0:0:
227,46,214723,6,0,P|179:65|156:119,1,89.9999976158143,6|0,1:0|0:0,0:0:0:0:
42,175,214940,1,8,1:0:0:0:
11,181,215049,2,0,P|92:199|120:304,1,179.999995231629,2|0,1:0|0:0,0:0:0:0:
264,362,215375,2,0,L|151:348,1,89.9999976158143,10|0,1:0|0:0,0:0:0:0:
324,280,215592,1,2,1:0:0:0:
429,325,215701,1,8,1:0:0:0:
355,346,215809,1,8,1:0:0:0:
401,259,215918,1,0,1:0:0:0:
281,133,216027,2,0,B|234:125|234:125|178:142,1,89.9999976158143,2|0,1:0|0:0,0:0:0:0:
105,132,216244,2,0,B|146:125|146:125|208:141,1,89.9999976158143,10|0,1:0|0:0,0:0:0:0:
337,32,216462,70,0,P|439:55|462:143,1,179.999995231629,6|0,1:0|0:0,0:0:0:0:
152,38,216788,2,0,P|50:61|27:149,1,179.999995231629,2|0,1:0|0:0,0:0:0:0:
251,54,217114,1,10,1:0:0:0:
304,111,217223,1,0,0:0:0:0:
250,160,217331,1,2,1:0:0:0:
277,232,217440,1,2,1:0:0:0:
209,267,217549,1,8,1:0:0:0:
189,344,217657,1,2,1:0:0:0:
114,328,217766,2,0,P|103:286|117:226,1,89.9999976158143,2|0,1:0|0:0,0:0:0:0:
356,268,217983,2,0,P|363:312|352:355,1,89.9999976158143,10|0,1:0|0:0,0:0:0:0:
142,180,218201,5,6,1:0:0:0:
127,135,218309,1,10,1:0:0:0:
141,93,218418,1,10,1:0:0:0:
175,64,218527,1,8,1:0:0:0:
270,14,218636,69,6,1:0:0:0:
344,28,218744,1,10,1:0:0:0:
390,88,218853,1,10,1:0:0:0:
386,162,218962,1,8,1:0:0:0:
490,225,219070,5,6,1:0:0:0:
435,296,219179,69,10,1:0:0:0:
345,310,219288,5,10,1:0:0:0:
269,261,219396,5,8,1:0:0:0:
205,197,219505,5,10,1:0:0:0:
117,175,219614,69,8,1:0:0:0:
36,215,219723,6,0,L|40:316,1,89.9999976158143,8|8,1:0|1:0,0:0:0:0:
287,167,219940,70,0,P|265:100|151:88,1,179.999995231629,6|2,1:0|1:3,0:0:0:0:
205,197,220266,1,0,0:0:0:0:
205,197,220375,2,0,P|204:242|211:294,1,89.9999976158143,10|0,1:0|0:0,0:0:0:0:
405,244,220592,2,0,L|315:244,1,89.9999976158143,2|10,1:3|1:0,0:0:0:0:
410,156,220809,2,0,B|454:150|454:150|507:171,1,89.9999976158143,2|0,1:0|0:0,0:0:0:0:
500,319,221027,2,0,B|457:335|457:335|413:329,1,89.9999976158143,2|0,1:3|0:0,0:0:0:0:
313,236,221244,2,0,L|402:235,1,89.9999976158143,2|0,1:0|0:0,0:0:0:0:
307,153,221462,2,0,B|263:147|263:147|210:168,1,89.9999976158143,2|0,1:3|0:0,0:0:0:0:
224,37,221679,6,0,P|144:112|60:86,1,179.999995231629,6|2,1:0|1:3,0:0:0:0:
323,19,222005,1,0,0:0:0:0:
323,19,222114,2,0,P|403:94|487:68,1,179.999995231629,10|2,1:0|1:3,0:0:0:0:
307,153,222440,1,8,1:0:0:0:
307,153,222549,2,0,P|302:203|310:255,1,89.9999976158143,2|0,1:0|0:0,0:0:0:0:
447,334,222766,2,0,P|451:289|446:244,1,89.9999976158143,2|8,1:3|1:0,0:0:0:0:
300,339,222983,2,0,L|205:334,1,89.9999976158143,2|8,1:0|1:0,0:0:0:0:
153,249,223201,2,0,L|63:253,1,89.9999976158143,2|0,1:0|0:0,0:0:0:0:
182,82,223418,70,0,P|80:83|47:172,1,179.999995231629,6|2,1:0|1:3,0:0:0:0:
239,151,223744,1,0,0:0:0:0:
239,151,223853,2,0,L|245:242,1,89.9999976158143,10|0,1:0|0:0,0:0:0:0:
326,357,224070,2,0,L|331:267,1,89.9999976158143,2|10,1:3|1:0,0:0:0:0:
422,225,224288,2,0,B|432:182|432:182|416:129,1,89.9999976158143,2|0,1:0|0:0,0:0:0:0:
299,17,224505,2,0,B|285:60|285:60|295:103,1,89.9999976158143,2|0,1:3|0:0,0:0:0:0:
467,43,224723,2,0,L|362:64,1,89.9999976158143,2|0,1:0|0:0,0:0:0:0:
210,88,224940,1,2,1:3:0:0:
142,61,225049,1,0,0:0:0:0:
28,141,225157,6,2,B|189:116|105:260|305:227,1,269.999992847443,6|8,1:0|1:0,1:0:0:0:
340,200,225592,1,8,1:3:0:0:
391,250,225701,1,8,1:0:0:0:
432,234,225809,1,4,1:2:0:0:
465,248,225918,1,8,1:0:0:0:
490,239,226027,2,2,B|329:214|413:358|213:325,1,269.999992847443,4|0,1:2|1:0,1:0:0:0:
130,290,226462,69,2,1:0:0:0:
121,215,226570,1,2,1:0:0:0:
173,160,226679,1,2,1:3:0:0:
250,166,226788,1,8,1:0:0:0:
337,32,226896,6,0,P|417:54|414:165,1,179.999995231629,6|2,1:0|1:3,0:0:0:0:
256,60,227223,1,0,0:0:0:0:
256,60,227331,2,0,P|209:62|148:100,1,89.9999976158143,10|0,1:0|0:0,0:0:0:0:
335,215,227549,2,0,P|344:168|325:117,1,89.9999976158143,2|10,1:3|1:0,0:0:0:0:
169,186,227766,2,0,B|211:200|211:200|245:242,1,89.9999976158143,2|0,1:0|0:0,0:0:0:0:
57,290,227983,2,0,B|57:244|57:244|82:207,1,89.9999976158143,2|0,1:3|0:0,0:0:0:0:
214,325,228201,2,0,L|118:350,1,89.9999976158143,2|0,1:0|0:0,0:0:0:0:
129,357,228418,2,0,L|216:334,1,89.9999976158143,2|0,1:3|0:0,0:0:0:0:
483,345,228636,70,2,P|435:264|335:261,1,179.999995231629,6|0,1:0|0:0,1:0:0:0:
366,232,228962,2,2,P|451:247|493:324,1,179.999995231629,2|0,1:0|0:0,1:0:0:0:
285,286,229288,2,0,B|274:247|274:247|284:187,1,89.9999976158143,2|0,1:0|0:0,0:0:0:0:
218,27,229505,1,8,1:3:0:0:
239,105,229614,1,8,1:0:0:0:
183,164,229723,1,8,1:0:0:0:
103,175,229831,1,8,1:0:0:0:
97,252,229940,5,8,1:3:0:0:
35,266,230049,1,8,1:0:0:0:
9,322,230157,1,8,1:0:0:0:
40,376,230266,1,8,1:0:0:0:
158,367,230375,6,0,L|331:348,1,161.999990764618,8|0,1:3|0:0,0:0:0:0:
371,295,230809,1,4,1:3:0:0:
361,216,231027,1,4,1:3:0:0:
163,221,231244,5,4,1:3:0:0:
185,109,231462,1,4,1:3:0:0:
455,314,231679,69,8,1:0:0:0:
419,147,231896,1,8,1:0:0:0:
63,175,232114,5,8,1:3:0:0:
63,175,233418,1,4,1:3:0:0:
257,219,233636,1,8,1:0:0:0:
449,175,233853,1,8,1:3:0:0:
417,213,237331,6,0,P|390:87|291:82,1,233.999983089448,6|8,1:0|1:0,0:0:0:0:
337,165,237657,1,8,1:0:0:0:
243,172,237766,2,0,P|339:256|422:200,1,233.999983089448,2|8,1:0|1:0,0:0:0:0:
337,165,238092,1,8,1:0:0:0:
223,87,238201,2,0,B|169:97|169:97|97:83,1,116.999991544724,2|0,1:0|0:0,0:0:0:0:
25,172,238418,1,10,1:0:0:0:
74,228,238527,1,0,0:0:0:0:
151,204,238636,2,0,P|160:294|285:317,1,233.999983089448,4|10,1:2|1:0,0:0:0:0:
361,357,238962,1,0,0:0:0:0:
488,276,239070,6,0,L|491:26,1,233.999983089448,6|8,1:0|1:0,0:0:0:0:
390,214,239396,1,8,1:0:0:0:
296,258,239505,2,0,L|283:5,1,233.999983089448,2|8,1:0|1:0,0:0:0:0:
198,216,239831,1,0,0:0:0:0:
106,261,239940,2,0,L|121:3,1,233.999983089448,2|8,1:0|1:0,0:0:0:0:
18,180,240266,1,8,1:0:0:0:
18,180,240375,2,0,B|1:242|1:242|23:328,1,116.999991544724,2|0,1:0|0:0,0:0:0:0:
203,377,240592,2,0,B|216:325|216:325|199:263,1,116.999991544724,10|0,1:0|0:0,0:0:0:0:
404,119,240809,6,0,P|496:166|460:284,1,233.999983089448,6|8,1:0|1:0,0:0:0:0:
387,209,241136,1,8,1:0:0:0:
323,138,241244,2,0,P|268:225|359:308,1,233.999983089448,2|8,1:0|1:0,0:0:0:0:
387,209,241570,1,8,1:0:0:0:
404,119,241679,2,0,P|496:166|460:284,1,233.999983089448,2|10,1:0|1:0,0:0:0:0:
387,209,242005,1,0,0:0:0:0:
263,73,242114,2,0,B|203:85|203:85|135:68,1,116.999991544724,4|0,1:2|0:0,0:0:0:0:
5,198,242331,2,0,B|59:184|59:184|119:196,1,116.999991544724,10|0,1:0|0:0,0:0:0:0:
223,294,242549,6,0,B|354:279|294:383|468:350,1,233.999983089448,6|8,1:0|1:0,0:0:0:0:
336,232,242875,1,8,1:0:0:0:
336,232,242983,2,0,P|318:167|335:110,1,116.999991544724,2|8,1:0|1:0,0:0:0:0:
510,30,243201,2,0,P|521:86|503:141,1,116.999991544724,8|0,1:0|0:0,0:0:0:0:
276,25,243418,2,0,L|23:38,1,233.999983089448,2|8,1:0|1:0,0:0:0:0:
159,136,243744,1,8,1:0:0:0:
41,60,243853,2,0,L|274:47,1,233.999983089448,2|10,1:0|1:0,0:0:0:0:
233,201,244179,1,0,0:0:0:0:
371,266,244288,6,0,P|383:200|228:136,1,233.999983089448,6|8,1:0|1:0,0:0:0:0:
174,288,244614,1,8,1:0:0:0:
52,317,244723,2,0,P|40:251|195:187,1,233.999983089448,2|8,1:0|1:0,0:0:0:0:
253,364,245049,1,8,1:0:0:0:
333,356,245157,2,0,P|299:299|219:284,1,116.999991544724,2|0,1:0|0:0,0:0:0:0:
263,271,245375,2,0,P|315:296|342:347,1,116.999991544724,10|0,1:0|0:0,0:0:0:0:
164,272,245592,2,0,P|190:221|242:196,1,116.999991544724,4|0,1:2|0:0,0:0:0:0:
212,353,245809,2,0,B|153:344|153:344|95:357,1,116.999991544724,10|0,1:0|0:0,0:0:0:0:
9,39,246027,6,0,L|251:61,1,233.999983089448,6|8,1:0|1:0,0:0:0:0:
379,90,246353,1,8,1:0:0:0:
490,118,246462,2,0,L|248:140,1,233.999983089448,2|8,1:0|1:0,0:0:0:0:
104,178,246788,1,0,0:0:0:0:
25,194,246896,2,0,B|14:252|14:252|31:317,1,116.999991544724,2|0,1:0|0:0,0:0:0:0:
245,352,247114,2,0,B|259:295|259:295|248:237,1,116.999991544724,8|8,1:0|1:0,0:0:0:0:
273,240,247331,6,0,B|284:298|284:298|267:363,1,116.999991544724,2|0,1:0|0:0,0:0:0:0:
42,306,247549,2,0,B|27:249|27:249|38:191,1,116.999991544724,10|0,1:0|0:0,0:0:0:0:
299,147,247766,6,0,P|403:224|368:305,1,233.999983089448,6|10,1:0|1:0,0:0:0:0:
201,164,248092,1,8,1:0:0:0:
323,131,248201,2,0,P|419:181|394:286,1,233.999983089448,2|8,1:0|1:0,0:0:0:0:
177,162,248527,1,8,1:0:0:0:
349,114,248636,2,0,P|445:164|420:269,1,233.999983089448,2|10,1:0|1:0,0:0:0:0:
93,263,248962,1,0,0:0:0:0:
93,263,249070,2,2,P|69:149|260:58,1,350.999974634172,4|0,1:2|0:0,1:0:0:0:
199,327,249505,6,0,L|46:351,1,116.999991544724,6|0,1:0|0:0,0:0:0:0:
328,327,249723,2,0,L|175:351,1,116.999991544724,8|8,1:0|1:0,0:0:0:0:
455,328,249940,2,0,L|302:352,1,116.999991544724,2|8,1:0|1:0,0:0:0:0:
393,244,250157,5,8,1:0:0:0:
306,209,250266,5,0,0:0:0:0:
355,116,250375,6,0,L|508:140,1,116.999991544724,2|0,1:0|0:0,0:0:0:0:
226,116,250593,2,0,L|379:140,1,116.999991544724,8|0,1:0|0:0,0:0:0:0:
99,117,250810,2,0,L|252:141,1,116.999991544724,2|0,1:0|0:0,0:0:0:0:
62,189,251027,5,10,1:0:0:0:
4,233,251136,5,0,0:0:0:0:
54,290,251244,6,0,B|192:268|122:377|308:335,1,233.999983089448,6|8,1:0|1:0,0:0:0:0:
419,259,251570,1,8,1:0:0:0:
349,203,251679,2,0,B|338:258|338:258|355:319,1,116.999991544724,2|0,1:0|0:0,0:0:0:0:
491,316,251896,2,0,B|507:257|507:257|496:202,1,116.999991544724,8|8,1:0|1:0,0:0:0:0:
372,99,252114,2,0,P|303:210|208:171,1,233.999983089448,2|10,1:0|1:0,0:0:0:0:
277,84,252440,1,0,0:0:0:0:
214,39,252549,2,0,L|70:48,1,116.999991544724,4|0,1:2|0:0,0:0:0:0:
0,130,252766,2,0,L|144:139,1,116.999991544724,10|0,1:0|0:0,0:0:0:0:
10,279,252983,6,0,B|120:230|120:230|263:301,1,233.999983089448,6|8,1:0|1:0,0:0:0:0:
137,345,253309,1,8,1:0:0:0:
226,307,253418,2,0,B|327:256|327:256|437:305,1,233.999983089448,2|8,1:0|1:0,0:0:0:0:
495,222,253744,1,0,0:0:0:0:
432,182,253853,2,0,P|426:123|437:64,1,116.999991544724,2|0,1:0|0:0,0:0:0:0:
255,0,254070,2,0,P|265:57|259:115,1,116.999991544724,8|8,1:0|1:0,0:0:0:0:
179,61,254288,2,0,P|78:117|106:239,1,233.999983089448,2|10,1:0|1:0,0:0:0:0:
264,244,254614,1,0,0:0:0:0:
320,192,254723,6,0,P|421:248|393:370,1,233.999983089448,6|8,1:0|1:0,0:0:0:0:
342,286,255049,1,8,1:0:0:0:
336,179,255157,2,0,P|437:235|409:357,1,233.999983089448,2|8,1:0|1:0,0:0:0:0:
247,211,255483,1,8,1:0:0:0:
247,211,255592,2,0,L|252:92,1,116.999991544724,2|0,1:0|0:0,0:0:0:0:
169,163,255809,1,10,1:0:0:0:
104,196,255918,1,0,0:0:0:0:
37,156,256027,2,0,B|25:213|25:213|37:273,1,116.999991544724,4|0,1:2|0:0,0:0:0:0:
166,361,256244,2,0,B|177:303|177:303|165:246,1,116.999991544724,10|0,1:0|0:0,0:0:0:0:
390,215,256462,6,0,B|260:191|298:285|141:240,1,233.999983089448,6|8,1:0|1:0,0:0:0:0:
89,230,256788,1,8,1:0:0:0:
163,218,256896,2,0,B|293:194|255:288|412:243,1,233.999983089448,2|8,1:0|1:0,0:0:0:0:
500,254,257223,1,0,0:0:0:0:
423,211,257331,2,0,B|293:187|331:281|174:236,1,233.999983089448,2|8,1:0|1:0,0:0:0:0:
23,262,257657,1,8,1:0:0:0:
132,215,257766,2,0,B|262:191|224:285|381:240,1,233.999983089448,2|10,1:0|1:0,0:0:0:0:
131,99,258092,5,0,0:0:0:0:
131,99,258201,2,2,P|37:124|118:344,1,396.000001594544,4|4,1:0|1:2,1:0:0:0:
215,137,258744,1,0,0:0:0:0:
215,137,258853,2,0,B|205:88|205:88|215:35,1,99.0000003986359,4|0,1:2|0:0,0:0:0:0:
310,100,259070,2,0,B|422:86|374:168|520:150,1,198.000000797272,8|0,1:0|0:0,0:0:0:0:
366,200,259396,1,8,1:0:0:0:
366,200,259505,2,0,P|353:251|365:319,1,99.0000003986359,8|0,1:0|0:0,0:0:0:0:
478,351,259723,2,0,P|481:301|469:254,1,99.0000003986359,8|0,1:0|0:0,0:0:0:0:
245,216,259940,6,0,L|255:343,1,116.999991544724,4|0,1:0|0:0,0:0:0:0:
60,215,260157,2,0,L|50:342,1,116.999991544724,4|0,1:2|0:0,0:0:0:0:
263,125,260375,2,0,L|273:252,1,116.999991544724,4|0,1:2|0:0,0:0:0:0:
41,118,260592,2,0,L|31:245,1,116.999991544724,4|0,1:2|0:0,0:0:0:0:
152,46,260809,1,10,1:0:0:0:
135,114,260918,1,8,1:0:0:0:
152,182,261027,1,8,1:0:0:0:
179,246,261136,1,8,1:0:0:0:
158,325,261244,5,10,1:0:0:0:
249,293,261353,5,8,1:0:0:0:
235,195,261462,5,8,1:0:0:0:
139,171,261570,5,8,1:0:0:0:
83,245,261679,6,0,P|72:308|96:388,1,125.999992816925,6|0,1:0|0:0,0:0:0:0:
323,374,261896,2,0,P|336:312|325:251,1,125.999992816925,4|0,1:2|0:0,0:0:0:0:
266,191,262114,6,0,L|121:183,1,125.999992816925,14|0,1:0|0:0,0:0:0:0:
271,27,262331,2,0,L|331:158,1,125.999992816925,4|0,1:2|0:0,0:0:0:0:
100,112,262549,2,0,L|190:-3,1,125.999992816925,14|8,1:0|1:0,0:0:0:0:
464,178,262766,6,0,B|482:237|482:237|470:317,1,125.999992816925,4|0,1:2|0:0,0:0:0:0:
206,380,262983,2,0,B|191:317|191:317|204:257,1,125.999992816925,10|0,1:0|0:0,0:0:0:0:
331,361,263201,2,0,L|482:376,1,125.999992816925,4|0,1:2|0:0,0:0:0:0:
339,200,263418,6,0,P|240:175|247:35,1,251.999985633851,8|4,1:3|1:2,0:0:0:0:
349,29,263744,1,0,0:0:0:0:
229,15,263853,2,0,P|238:131|128:171,1,251.999985633851,14|4,1:0|1:2,0:0:0:0:
26,99,264179,1,0,0:0:0:0:
26,99,264288,2,0,B|85:83|85:83|154:99,1,125.999992816925,8|10,1:3|1:0,0:0:0:0:
242,333,264505,2,0,B|183:349|183:349|114:333,1,125.999992816925,4|0,1:2|0:0,0:0:0:0:
269,209,264723,2,0,B|395:182|357:297|506:268,1,251.999985633851,10|8,1:0|1:3,0:0:0:0:
333,92,265049,5,0,0:0:0:0:
333,92,265157,2,2,P|189:72|165:274,1,377.999978450776,6|0,1:0|0:0,1:0:0:0:
0,358,265592,2,0,B|58:345|58:345|132:360,1,125.999992816925,14|0,1:0|0:0,0:0:0:0:
373,330,265809,2,0,B|315:317|315:317|241:332,1,125.999992816925,4|0,1:2|0:0,0:0:0:0:
132,246,266027,6,2,P|140:74|311:75,1,377.999978450776,14|0,1:0|0:0,1:0:0:0:
477,59,266462,2,0,B|496:117|496:117|476:204,1,125.999992816925,10|0,1:0|0:0,0:0:0:0:
227,243,266679,2,0,B|212:179|212:179|231:121,1,125.999992816925,4|0,1:2|0:0,0:0:0:0:
360,144,266896,6,2,P|351:315|180:314,1,377.999978450776,8|0,1:3|0:0,1:0:0:0:
16,205,267331,2,0,L|155:187,1,125.999992816925,14|0,1:0|0:0,0:0:0:0:
329,64,267549,1,4,1:2:0:0:
256,12,267657,1,0,0:0:0:0:
203,85,267766,2,0,L|502:130,1,251.999985633851,8|4,1:3|1:2,0:0:0:0:
313,214,268092,1,0,0:0:0:0:
199,102,268201,2,0,L|498:147,1,251.999985633851,10|2,1:0|1:0,0:0:0:0:
217,201,268527,5,0,0:0:0:0:
217,201,268636,2,0,B|204:258|204:258|225:335,1,125.999992816925,6|0,1:0|0:0,0:0:0:0:
400,333,268853,2,0,B|417:267|417:267|404:210,1,125.999992816925,4|0,1:2|0:0,0:0:0:0:
167,40,269070,2,0,P|48:66|21:184,1,251.999985633851,14|4,1:0|1:2,0:0:0:0:
260,75,269396,1,0,0:0:0:0:
260,75,269505,2,0,P|406:52|476:255,1,377.999978450776,14|0,1:0|0:0,0:0:0:0:
354,190,269940,2,0,P|348:242|368:341,1,125.999992816925,10|0,1:0|0:0,0:0:0:0:
230,353,270157,2,0,P|240:291|234:228,1,125.999992816925,4|0,1:2|0:0,0:0:0:0:
8,65,270375,6,0,P|143:64|144:205,1,251.999985633851,8|4,1:3|1:2,0:0:0:0:
474,76,270701,1,0,0:0:0:0:
474,76,270809,2,0,P|339:75|338:216,1,251.999985633851,14|4,1:0|1:2,0:0:0:0:
417,354,271136,5,0,0:0:0:0:
417,354,271244,2,0,P|432:290|407:222,1,125.999992816925,8|10,1:3|1:0,0:0:0:0:
225,240,271462,2,0,P|207:299|222:360,1,125.999992816925,4|0,1:2|0:0,0:0:0:0:
319,293,271679,2,0,B|273:147|372:195|313:27,1,251.999985633851,10|8,1:0|1:3,0:0:0:0:
180,139,272005,5,0,0:0:0:0:
180,139,272114,2,0,P|52:162|81:374,1,377.999978450776,6|0,1:0|0:0,0:0:0:0:
110,246,272549,2,0,P|147:232|236:243,1,125.999992816925,14|0,1:0|0:0,0:0:0:0:
385,348,272766,2,0,P|445:364|506:353,1,125.999992816925,4|0,1:2|0:0,0:0:0:0:
477,191,272983,2,0,B|289:195|357:343|137:369,1,377.999978450776,14|0,1:0|0:0,0:0:0:0:
30,75,273418,2,2,P|263:115|265:216,1,377.999978450776,10|0,1:0|0:0,1:0:0:0:
148,148,273853,6,0,L|12:170,1,125.999992816925,8|0,1:3|0:0,0:0:0:0:
327,310,274070,2,0,L|191:332,1,125.999992816925,4|0,1:2|0:0,0:0:0:0:
492,116,274288,2,0,L|356:138,1,125.999992816925,4|0,1:2|0:0,0:0:0:0:
192,220,274505,5,4,1:2:0:0:
91,266,274614,5,0,0:0:0:0:
23,168,274723,6,0,L|148:148,1,125.999992816925,8|10,1:3|1:0,0:0:0:0:
327,310,274940,2,0,L|202:330,1,125.999992816925,4|0,1:2|0:0,0:0:0:0:
367,136,275157,2,0,L|492:116,1,125.999992816925,10|0,1:0|0:0,0:0:0:0:
428,249,275375,5,8,1:3:0:0:
317,211,275483,5,8,1:0:0:0:
254,33,275592,6,0,B|306:183|191:129|256:303,1,251.999985633851,6|4,1:0|1:2,0:0:0:0:
137,296,275918,1,0,0:0:0:0:
259,323,276027,2,0,B|293:182|178:236|222:82,1,251.999985633851,14|4,1:0|1:2,0:0:0:0:
332,31,276353,5,0,0:0:0:0:
345,108,276462,1,14,1:0:0:0:
424,138,276570,1,8,1:0:0:0:
353,99,276679,1,4,1:2:0:0:
294,156,276788,1,0,0:0:0:0:
367,204,276896,2,0,L|507:221,1,125.999992816925,10|0,1:0|0:0,0:0:0:0:
357,281,277114,2,0,L|224:317,1,125.999992816925,4|0,1:2|0:0,0:0:0:0:
0,109,277331,6,0,P|151:90|187:174,1,251.999985633851,8|4,1:3|1:2,0:0:0:0:
277,211,277657,1,0,0:0:0:0:
361,149,277766,2,0,P|210:130|174:214,1,251.999985633851,14|4,1:0|1:2,0:0:0:0:
59,214,278092,5,0,0:0:0:0:
92,288,278201,1,8,1:3:0:0:
175,288,278309,1,10,1:0:0:0:
101,276,278418,1,4,1:2:0:0:
64,356,278527,1,0,0:0:0:0:
151,366,278636,2,0,L|315:351,1,125.999992816925,10|0,1:0|0:0,0:0:0:0:
491,362,278853,2,0,L|327:347,1,125.999992816925,2|0,1:0|0:0,0:0:0:0:
202,200,279070,6,0,B|306:146|306:146|441:214,1,251.999985633851,6|4,1:0|1:2,0:0:0:0:
502,153,279396,1,0,0:0:0:0:
425,221,279505,2,0,B|304:160|304:160|200:214,1,251.999985633851,14|4,1:0|1:2,0:0:0:0:
119,130,279831,1,0,0:0:0:0:
65,184,279940,2,0,P|59:232|71:319,1,125.999992816925,14|8,1:0|1:0,0:0:0:0:
302,384,280157,2,0,P|311:321|304:259,1,125.999992816925,4|0,1:2|0:0,0:0:0:0:
398,55,280375,2,0,L|123:33,1,251.999985633851,10|4,1:0|1:2,0:0:0:0:
280,138,280701,5,0,0:0:0:0:
280,138,280809,2,0,P|182:162|179:299,1,251.999985633851,8|4,1:3|1:2,0:0:0:0:
491,347,281136,1,0,0:0:0:0:
491,347,281244,2,0,P|497:229|386:190,1,251.999985633851,14|4,1:0|1:2,0:0:0:0:
244,322,281570,1,0,0:0:0:0:
311,355,281679,1,8,1:3:0:0:
384,336,281788,1,10,1:0:0:0:
408,265,281896,5,4,1:2:0:0:
361,324,282005,1,0,0:0:0:0:
285,331,282114,1,10,1:0:0:0:
229,279,282223,1,0,0:0:0:0:
215,205,282331,1,8,1:3:0:0:
263,146,282440,1,0,0:0:0:0:
384,83,282549,69,8,1:3:0:0:
384,83,283418,1,0,0:0:0:0:
384,83,284288,1,0,0:0:0:0:
384,83,285157,1,0,0:0:0:0:
384,83,285809,1,8,0:1:0:0:
384,83,285918,1,8,0:1:0:0:
384,83,286027,6,0,B|281:72|303:126|183:106,1,179.999995231629,8|2,3:0|0:0,0:0:0:0:
208,109,286896,2,0,P|206:177|210:223,1,89.9999976158143,2|0,0:0|0:0,0:0:0:0:
285,186,287331,1,2,0:0:0:0:
285,186,287766,2,0,B|291:278|284:370,1,179.999995231629,8|2,3:0|0:0,0:0:0:0:
37,240,288636,2,0,B|30:152|36:60,1,179.999995231629,2|2,0:0|0:0,0:0:0:0:
492,56,289505,69,8,3:0:0:0:
492,56,289940,1,2,0:0:0:0:
20,56,290375,5,8,0:3:0:0:
20,56,290810,1,2,0:0:0:0:
492,56,291244,69,8,3:0:0:0:
492,56,292114,1,4,0:3:0:0:
492,56,292549,1,4,0:3:0:0:
492,56,292983,6,0,P|424:58|288:59,1,179.999995231629,8|2,3:0|0:0,0:0:0:0:
311,339,293853,2,0,P|251:340|197:343,1,89.9999976158143,6|0,0:0|0:0,0:0:0:0:
216,263,294288,1,2,0:0:0:0:
33,43,294723,69,8,3:0:0:0:
33,43,295592,1,4,0:3:0:0:
151,99,295918,1,8,0:1:0:0:
257,46,296244,1,8,0:1:0:0:
257,46,296462,6,0,P|254:110|264:235,1,179.999995231629,8|0,0:3|0:0,0:0:0:0:
487,224,297331,1,8,0:3:0:0:
487,224,297766,1,4,0:2:0:0:
487,224,298201,6,0,B|423:214|423:214|386:239|386:239|287:225,1,179.999995231629,8|0,0:3|0:0,0:0:0:0:
246,113,298527,1,8,1:0:0:0:
246,113,298636,2,0,B|239:66|239:66|250:11,1,89.9999976158143,8|0,1:0|0:0,0:0:0:0:
170,36,298853,1,8,1:0:0:0:
94,48,298962,1,0,1:0:0:0:
54,112,299070,1,8,1:0:0:0:
68,186,299179,1,8,1:0:0:0:
136,226,299288,1,0,1:0:0:0:
213,214,299396,1,0,1:0:0:0:
308,271,299505,5,0,1:3:0:0:
337,264,299614,1,0,1:0:0:0:
368,270,299723,1,0,1:0:0:0:
395,287,299831,1,0,1:0:0:0:
512,148,299940,6,0,B|395:127|428:202|287:172,1,198.000000797272,8|2,1:3|1:3,0:0:0:0:
261,70,300266,1,0,1:0:0:0:
261,70,300375,2,0,P|173:70|145:173,1,198.000000797272,10|2,1:0|1:3,0:0:0:0:
214,241,300701,1,0,1:0:0:0:
214,241,300809,2,0,P|220:292|210:347,1,99.0000003986359,10|0,1:0|0:0,0:0:0:0:
65,337,301027,2,0,P|57:288|63:239,1,99.0000003986359,2|0,1:3|0:0,0:0:0:0:
227,146,301244,2,0,P|298:176|288:309,1,198.000000797272,10|10,1:0|1:0,0:0:0:0:
133,180,301570,5,0,0:0:0:0:
133,180,301679,2,0,P|134:74|230:54,1,198.000000797272,8|2,1:3|1:3,0:0:0:0:
315,77,302005,1,0,1:0:0:0:
315,77,302114,2,0,B|402:47|402:47|513:81,1,198.000000797272,10|2,1:0|1:3,0:0:0:0:
473,180,302440,1,0,1:0:0:0:
400,192,302549,1,10,1:0:0:0:
371,259,302657,1,0,0:0:0:0:
324,347,302766,37,2,1:3:0:0:
295,280,302874,1,0,0:0:0:0:
222,268,302983,2,0,B|107:244|138:330|11:296,1,198.000000797272,10|10,1:0|1:0,0:0:0:0:
88,189,303309,5,0,0:0:0:0:
88,189,303418,2,0,P|96:71|185:56,1,198.000000797272,8|2,1:3|1:3,0:0:0:0:
356,121,303744,1,0,1:0:0:0:
356,121,303853,2,0,L|145:134,1,198.000000797272,10|2,1:0|1:3,0:0:0:0:
426,176,304179,5,0,1:0:0:0:
426,176,304288,2,0,P|418:58|329:43,1,198.000000797272,8|2,1:3|1:3,0:0:0:0:
158,108,304614,1,0,0:0:0:0:
158,108,304723,2,0,L|369:121,1,198.000000797272,10|10,1:0|1:3,0:0:0:0:
240,202,305049,5,0,0:0:0:0:
316,229,305157,1,8,1:3:0:0:
322,308,305266,1,0,0:0:0:0:
258,355,305375,1,2,1:3:0:0:
186,324,305483,1,0,1:0:0:0:
177,246,305592,1,10,1:0:0:0:
240,202,305701,1,0,0:0:0:0:
316,229,305809,1,2,1:3:0:0:
322,308,305918,1,0,1:0:0:0:
170,347,306027,37,10,1:0:0:0:
143,253,306136,5,0,0:0:0:0:
230,174,306244,5,2,1:3:0:0:
344,206,306353,5,0,0:0:0:0:
362,309,306462,37,10,1:0:0:0:
271,375,306570,5,0,1:0:0:0:
170,347,306679,5,10,1:0:0:0:
143,253,306788,5,8,1:0:0:0:
329,116,306896,38,0,P|443:148|447:230,1,198.000000797272,8|2,1:3|1:3,0:0:0:0:
261,45,307223,1,0,1:0:0:0:
261,45,307331,2,0,P|177:53|152:162,1,198.000000797272,10|2,1:0|1:3,0:0:0:0:
24,260,307657,1,0,1:0:0:0:
24,260,307766,2,0,P|69:243|139:257,1,99.0000003986359,10|0,1:0|0:0,0:0:0:0:
253,365,307983,2,0,P|208:348|138:362,1,99.0000003986359,2|0,1:3|0:0,0:0:0:0:
265,170,308201,2,0,P|353:226|310:324,1,198.000000797272,10|10,1:0|1:0,0:0:0:0:
176,194,308527,5,0,0:0:0:0:
176,194,308636,2,2,P|170:74|345:57,1,297.000001195908,8|0,1:3|0:0,1:0:0:0:
448,72,309070,2,0,B|443:122|443:122|452:177,1,99.0000003986359,10|0,1:0|0:0,0:0:0:0:
472,356,309288,2,0,B|479:307|479:307|474:257,1,99.0000003986359,2|0,1:3|1:0,0:0:0:0:
376,227,309505,2,0,B|267:214|297:292|178:271,1,198.000000797272,10|2,1:0|1:3,0:0:0:0:
169,203,309831,5,0,0:0:0:0:
106,248,309940,1,10,1:0:0:0:
112,327,310049,1,0,1:0:0:0:
178,363,310157,1,10,1:0:0:0:
247,342,310266,1,0,0:0:0:0:
273,155,310375,6,2,P|225:95|51:325,1,495.00000199318,8|0,1:3|0:0,1:0:0:0:
323,303,311027,2,0,L|426:317,1,99.0000003986359,2|0,1:3|1:0,0:0:0:0:
511,150,311244,2,0,P|397:156|402:245,1,198.000000797272,8|2,1:3|1:3,0:0:0:0:
113,318,311570,1,0,0:0:0:0:
113,317,311679,2,0,P|227:311|222:222,1,198.000000797272,10|10,1:0|1:3,0:0:0:0:
342,57,312005,37,0,0:0:0:0:
342,57,312114,2,0,B|266:45|266:45|225:80|225:80|136:67,1,198.000000797272,8|0,1:3|0:0,0:0:0:0:
30,25,312440,1,0,1:0:0:0:
30,25,312549,2,0,B|6:120|6:120|28:235,1,198.000000797272,10|0,1:0|0:0,0:0:0:0:
188,166,312875,1,0,1:0:0:0:
188,166,312983,2,0,L|311:182,1,99.0000003986359,10|0,1:0|1:0,0:0:0:0:
492,272,313201,2,0,L|369:288,1,99.0000003986359,2|10,1:0|1:0,0:0:0:0:
249,364,313418,5,10,1:0:0:0:
180,311,313527,69,0,1:0:0:0:
100,300,313636,5,10,1:0:0:0:
32,318,313744,5,8,1:0:0:0:
8,195,313853,6,0,P|108:174|109:61,1,198.000000797272,8|2,1:3|1:3,0:0:0:0:
389,164,314179,1,0,1:0:0:0:
389,164,314288,2,0,B|295:127|295:127|183:168,1,198.000000797272,10|2,1:0|1:3,0:0:0:0:
364,331,314614,1,0,1:0:0:0:
364,331,314723,2,0,B|373:279|373:279|354:216,1,99.0000003986359,10|0,1:0|0:0,0:0:0:0:
239,238,314940,2,0,B|225:282|225:282|234:334,1,99.0000003986359,2|0,1:3|0:0,0:0:0:0:
470,274,315157,2,0,L|479:66,1,198.000000797272,10|10,1:0|1:0,0:0:0:0:
342,24,315483,37,0,0:0:0:0:
342,24,315592,2,0,P|292:133|212:125,1,198.000000797272,8|2,1:3|1:3,0:0:0:0:
42,64,315918,1,0,1:0:0:0:
42,64,316027,2,0,P|92:173|172:165,1,198.000000797272,10|2,1:0|1:3,0:0:0:0:
239,238,316353,1,0,1:0:0:0:
306,266,316462,1,10,1:0:0:0:
365,230,316570,1,0,0:0:0:0:
429,199,316679,1,2,1:3:0:0:
495,232,316788,1,0,0:0:0:0:
495,232,316896,2,0,L|298:194,1,198.000000797272,10|10,1:0|1:0,0:0:0:0:
84,306,317223,5,0,0:0:0:0:
84,306,317331,2,0,P|178:363|239:295,1,198.000000797272,8|2,1:3|1:3,0:0:0:0:
318,110,317657,1,0,1:0:0:0:
318,110,317765,2,0,P|239:60|168:119,1,198.000000797272,10|2,1:0|1:3,0:0:0:0:
229,208,318092,1,0,1:0:0:0:
229,208,318201,2,0,L|342:199,1,99.0000003986359,8|0,1:3|0:0,0:0:0:0:
512,211,318418,2,0,L|399:202,1,99.0000003986359,2|0,1:3|0:0,0:0:0:0:
324,307,318636,2,0,B|370:318|370:318|437:302,1,99.0000003986359,10|0,1:0|1:0,0:0:0:0:
415,94,318853,2,0,B|364:81|364:81|318:92,1,99.0000003986359,10|0,1:3|0:0,0:0:0:0:
116,34,319070,70,0,B|142:143|67:120|110:248,1,198.000000797272,8|2,1:3|1:3,0:0:0:0:
215,164,319396,1,0,1:0:0:0:
215,164,319505,2,0,B|227:209|227:209|214:272,1,99.0000003986359,10|0,1:0|0:0,0:0:0:0:
2,320,319723,2,0,B|-8:268|-8:268|3:223,1,99.0000003986359,2|0,1:0|1:0,0:0:0:0:
195,349,319940,1,10,1:0:0:0:
268,363,320049,1,0,0:0:0:0:
326,309,320157,1,2,1:3:0:0:
306,233,320266,1,0,0:0:0:0:
456,190,320375,5,10,1:0:0:0:
383,204,320484,1,0,1:0:0:0:
325,150,320592,1,10,1:0:0:0:
345,74,320701,1,8,1:0:0:0:
485,105,320809,6,0,L|470:333,1,198.000000797272,8|2,1:3|1:3,0:0:0:0:
219,222,321136,1,0,1:0:0:0:
219,222,321244,2,0,L|206:24,1,198.000000797272,10|2,1:0|1:3,0:0:0:0:
320,223,321570,1,0,1:0:0:0:
320,223,321679,2,0,P|331:278|308:345,1,99.0000003986359,10|0,1:0|0:0,0:0:0:0:
117,315,321896,2,0,P|108:266|119:218,1,99.0000003986359,2|0,1:3|0:0,0:0:0:0:
306,126,322114,2,0,P|399:169|388:280,1,198.000000797272,10|10,1:0|1:0,0:0:0:0:
116,132,322440,5,0,0:0:0:0:
116,132,322549,2,0,B|108:83|108:83|117:28,1,99.0000003986359,8|0,1:3|0:0,0:0:0:0:
239,41,322766,1,2,1:3:0:0:
315,22,322875,1,0,1:0:0:0:
387,71,322983,2,0,L|488:94,1,99.0000003986359,10|0,1:0|0:0,0:0:0:0:
399,268,323201,2,0,L|495:246,1,99.0000003986359,2|0,1:3|1:0,0:0:0:0:
362,164,323418,1,10,1:0:0:0:
293,151,323527,1,0,0:0:0:0:
233,186,323636,1,2,1:3:0:0:
190,240,323744,1,0,0:0:0:0:
121,249,323853,6,0,B|111:197|111:197|122:140,1,99.0000003986359,10|0,1:0|1:0,0:0:0:0:
306,254,324070,2,0,B|314:299|314:299|304:351,1,99.0000003986359,10|0,1:0|0:0,0:0:0:0:
31,309,324288,1,8,1:3:0:0:
31,309,325157,1,8,1:3:0:0:
31,309,326027,5,8,1:3:0:0:
51,242,326136,1,8,1:0:0:0:
111,208,326244,1,0,0:0:0:0:
189,218,326353,1,8,1:0:0:0:
189,218,326462,2,0,P|194:166|186:106,1,99.0000003986359,10|0,1:0|1:0,0:0:0:0:
256,22,326679,1,10,1:0:0:0:
300,87,326788,1,0,0:0:0:0:
378,83,326896,1,8,1:3:0:0:
480,171,327005,69,0,0:0:0:0:
401,160,327114,1,10,1:0:0:0:
351,222,327223,1,8,1:0:0:0:
439,343,327331,6,0,P|447:285|434:236,1,99.0000003986359,10|0,1:0|0:0,0:0:0:0:
234,174,327549,2,0,P|224:222|233:270,1,99.0000003986359,10|0,1:0|0:0,0:0:0:0:
466,92,327766,1,8,1:3:0:0:
466,92,328636,1,8,1:3:0:0:
466,92,329505,1,8,1:3:0:0:
256,192,329559,12,0,332983,0:0:0:0:
