osu file format v14

[General]
AudioFilename: audio9.mp3
AudioLeadIn: 0
PreviewTime: 180579
Countdown: 0
SampleSet: Soft
StackLeniency: 0.5
Mode: 0
LetterboxInBreaks: 0
WidescreenStoryboard: 1

[Editor]
Bookmarks: 121621,146884,155568,197411,264779,311095,315305
DistanceSpacing: 0.7
BeatDivisor: 4
GridSize: 8
TimelineZoom: 3.199999

[Metadata]
Title:Lust Sin II
TitleUnicode:Lust Sin II
Artist:Daisuke Ishiwatari
ArtistUnicode:Daisuke Ishiwatari
Creator:Lazer
Version:Rengoku Hyoya
Source:BlazBlue: Chronophantasma
Tags:菊田 大介 daisuke kikuta ブレイブルー コンティニュアム シフト arc system works ツバキ=ヤヨイ 佐藤 ノリチカ norichika sato jounzan jin kisaragi ジン=キサラギ
BeatmapID:1589304
BeatmapSetID:754976

[Difficulty]
HPDrainRate:5
CircleSize:4
OverallDifficulty:9
ApproachRate:9.6
SliderMultiplier:2.2
SliderTickRate:1

[Events]
//Background and Video events
0,0,"rsers.jpg",0,0
//Break Periods
//Storyboard Layer 0 (Background)
//Storyboard Layer 1 (Fail)
//Storyboard Layer 2 (Pass)
//Storyboard Layer 3 (Foreground)
//Storyboard Layer 4 (Overlay)
//Storyboard Sound Samples

[TimingPoints]
569,263.157894736842,4,2,1,20,1,0
569,-200,4,2,1,20,0,0
707,387.096774193548,4,2,1,20,1,0
892,625,4,2,1,20,1,0
892,-181.818181818181,4,2,1,20,0,0
2142,-181.818181818181,4,2,1,5,0,0
2280,666.666666666667,4,2,1,25,1,0
2280,-166.666666666667,4,2,1,25,0,0
2926,750,4,2,1,20,1,0
2926,-133.333333333333,4,2,1,20,0,0
3301,750,4,2,1,5,1,0
3386,578.592092574735,4,2,1,20,1,0
3386,-133.333333333333,4,2,1,20,0,0
3967,594.059405940594,4,2,1,20,1,0
4115,-100,4,2,1,5,0,0
4264,-100,4,2,1,20,0,0
4412,-100,4,2,1,5,0,0
4415,-100,4,2,1,5,0,0
4561,582.52427184466,4,2,1,20,1,0
4706,582.52427184466,4,2,1,5,1,0
5143,560.747663551402,4,2,1,10,1,0
5413,560.747663551402,4,2,1,20,1,0
5833,-100,4,2,1,20,0,0
5973,-100,4,2,1,20,0,0
6534,-100,4,2,1,20,0,0
7669,571.428571428571,4,2,1,20,1,0
7669,-200,4,2,1,20,0,0
8802,566.037735849057,4,2,1,20,1,0
8802,-200,4,2,1,20,0,0
9960,566.037735849057,4,2,1,10,1,0
11086,547.945205479452,4,2,1,10,1,0
11635,582.52427184466,4,2,1,20,1,0
11937,582.52427184466,4,2,1,20,1,0
12519,-100,4,2,1,5,0,0
12767,566.037735849057,4,2,1,20,1,0
12767,-100,4,2,1,20,0,0
13191,-100,4,2,1,5,0,0
13333,576.923076923077,4,2,1,20,1,0
14465,561.797752808989,4,2,1,10,1,0
14465,-181.818181818181,4,2,1,10,0,0
16162,561.797752808989,4,2,1,10,1,0
16727,571.428571428571,4,2,1,20,1,0
17869,-133.333333333333,4,2,1,20,0,0
18062,566.037735849057,4,2,1,20,1,0
18203,480,4,2,1,5,1,0
18306,480,4,2,1,20,1,0
18306,-100,4,2,1,20,0,0
18426,-100,4,2,1,5,0,0
18546,545.454545454546,4,2,1,20,1,0
18546,-100,4,2,1,20,0,0
18825,600,4,2,1,5,1,0
19016,566.037735849057,4,2,1,20,1,0
20703,566.037735849057,4,2,1,20,1,0
21270,566.037735849057,4,2,1,20,1,0
22386,566.037735849057,4,2,1,20,1,0
22677,560.747663551402,4,2,1,20,1,0
22970,545.454545454546,4,2,1,20,1,0
23539,545.454545454546,4,2,1,20,1,0
24660,521.739130434783,4,2,1,20,1,0
24926,555.555555555556,4,2,1,20,1,0
25515,550.45871559633,4,2,1,20,1,0
25807,521.739130434783,4,2,1,20,1,0
25937,-100,4,2,1,5,0,0
26067,591.133004926108,4,2,1,20,1,0
26214,-100,4,2,1,5,0,0
26362,560.747663551402,4,2,1,20,1,0
26502,-100,4,2,1,5,0,0
26642,566.037735849057,4,2,1,20,1,0
26783,-100,4,2,1,5,0,0
26925,576.923076923077,4,2,1,20,1,0
27505,566.035294117646,4,2,1,20,1,0
28070,566.037735849057,4,2,1,20,1,0
28070,-200,4,2,1,20,0,0
29202,560.747663551402,4,2,1,5,1,0
29469,560.747663551402,4,2,1,20,1,0
29469,-100,4,2,1,20,0,0
30055,560.747663551402,4,2,1,20,1,0
30325,582.52427184466,4,2,1,20,1,0
31475,555.555555555556,4,2,1,20,1,0
32655,566.037735849057,4,2,1,20,1,0
32938,-100,4,2,1,5,0,0
33221,-100,4,2,1,20,0,0
33504,-100,4,2,1,5,0,0
33787,-100,4,2,1,20,0,0
34070,-100,4,2,1,5,0,0
34313,500,4,2,1,20,1,0
34438,-100,4,2,1,5,0,0
34563,545.454545454546,4,2,1,20,1,0
34699,-100,4,2,1,5,0,0
34894,560.747663551402,4,2,1,20,1,0
36017,555.555555555556,4,2,1,5,1,0
36017,-100,4,2,1,5,0,0
36246,545.454545454546,4,2,1,20,1,0
36382,-100,4,2,1,5,0,0
36518,-100,4,2,1,20,0,0
36655,-100,4,2,1,5,0,0
36791,-100,4,2,1,20,0,0
36927,-100,4,2,1,5,0,0
37103,-100,4,2,1,10,0,0
37146,545.454545454546,4,2,1,10,1,0
40064,-100,4,2,1,5,0,0
41632,263.157894736842,4,2,1,30,1,0
41632,-133.333333333333,4,2,1,30,0,0
45842,-100,4,2,1,40,0,0
52421,-83.3333333333333,4,2,1,40,0,0
54263,-100,4,2,1,40,0,0
57289,-76.9230769230769,4,2,1,40,0,0
58474,-83.3333333333333,4,2,1,40,0,0
61500,-76.9230769230769,4,2,1,40,0,0
62685,-66.6666666666667,4,1,1,40,0,0
64131,-76.9230769230769,4,1,1,40,0,0
64526,-66.6666666666667,4,1,1,40,0,0
69921,-76.9230769230769,4,1,1,40,0,0
71105,-86.9565217391304,4,1,1,40,0,0
74131,-66.6666666666667,4,1,1,40,0,0
75316,-80,4,1,1,40,0,0
86763,-76.9230769230769,4,1,1,50,0,0
87947,-80,4,1,1,50,0,0
91500,-90.9090909090909,4,1,1,50,0,0
92158,-80,4,1,1,50,0,0
104789,-74.0740740740741,4,1,1,55,0,1
109000,-80,4,1,1,50,0,0
113210,-74.0740740740741,4,1,1,55,0,1
117421,-80,4,1,1,50,0,0
121631,-100,4,1,1,50,0,0
130053,-100,4,1,1,40,0,0
145710,-83.3333333333333,4,1,1,40,0,0
146895,-83.3333333333333,4,1,1,50,0,0
148737,-200,4,1,1,60,0,0
149921,-100,4,1,1,50,0,0
150711,-50,4,1,1,50,0,0
151105,-83.3333333333333,4,1,1,50,0,0
154131,-66.6666666666667,4,1,1,50,0,0
155579,-83.3333333333333,4,1,1,40,0,0
161500,-80,4,1,1,50,0,0
163737,-100,4,1,1,50,0,0
170974,-66.6666666666667,4,2,1,50,0,0
171763,-83.3333333333333,4,1,1,50,0,0
180579,-74.0740740740741,4,1,1,50,0,1
184789,-80,4,1,1,50,0,0
189000,-74.0740740740741,4,1,1,50,0,1
193210,-80,4,1,1,50,0,0
197421,-133.333333333333,4,2,1,50,0,0
203672,-133.333333333333,4,1,1,50,0,0
205843,-133.333333333333,4,2,1,50,0,0
212158,-76.9230769230769,4,1,1,50,0,0
214263,-200,4,2,1,55,0,0
215974,-50,4,2,1,55,0,0
216369,-200,4,2,1,55,0,0
218079,-50,4,2,1,55,0,0
218474,-200,4,2,1,55,0,0
220184,-50,4,2,1,55,0,0
220579,-200,4,2,1,55,0,0
222289,-50,4,2,1,55,0,0
222684,-200,4,2,1,50,0,0
223474,-111.111111111111,4,2,1,50,0,0
231105,-111.111111111111,4,1,1,50,0,1
245843,-90.9090909090908,4,1,1,50,0,1
246895,-90.9090909090908,4,1,1,60,0,1
247947,-100,4,2,1,50,0,1
254131,-100,4,2,1,50,0,0
254263,-90.9090909090909,4,2,1,50,0,1
254789,-83.3333333333333,4,2,1,50,0,0
255316,-76.9230769230769,4,2,1,50,0,1
255842,-71.4285714285714,4,2,1,50,0,0
256368,-100,4,2,1,50,0,0
262684,-90.9090909090909,4,2,1,50,0,1
263210,-83.3333333333333,4,2,1,60,0,0
263737,-76.9230769230769,4,2,1,60,0,1
264263,-71.4285714285714,4,2,1,60,0,0
264789,-83.3333333333333,4,1,1,50,0,0
285843,-83.3333333333333,4,1,1,45,0,0
290053,-80,4,1,1,60,0,1
294263,-80,4,1,1,50,0,0
298474,-80,4,2,1,50,0,0
311106,-80,4,1,1,50,0,0
314131,-66.6666666666667,4,2,1,50,0,0

[Colours]
Combo1 : 162,162,162
Combo2 : 41,55,231
Combo3 : 57,202,255
Combo4 : 101,192,10
Combo5 : 237,240,94
Combo6 : 225,0,0

[HitObjects]
500,365,707,5,2,0:0:0:0:
478,341,803,1,2,0:0:0:0:
494,322,892,2,0,B|471:257|508:205|508:205|546:143|500:89,1,242.000007385254,2|0,0:0|0:0,0:0:0:0:
374,143,2280,6,0,P|408:145|438:153,1,65.9999979858399,2|0,0:0|0:0,0:0:0:0:
254,56,2926,2,0,P|210:58|172:73,1,82.5000031471254
141,53,3386,6,0,P|116:35|94:24,1,41.2500015735627,2|0,0:0|0:0,0:0:0:0:
44,137,3675,2,0,P|62:128|79:116,1,41.2500015735627,2|0,0:0|0:0,0:0:0:0:
4,132,3967,2,0,P|3:159|6:187,1,55,2|0,0:0|0:0,0:0:0:0:
0,276,4264,6,0,P|29:279|53:289,1,55,2|0,0:0|0:0,0:0:0:0:
117,241,4561,2,0,P|134:262|144:287,1,55,2|0,0:0|0:0,0:0:0:0:
223,298,4851,2,0,P|220:325|209:350,1,55,2|0,0:0|0:0,0:0:0:0:
196,376,5143,1,2,0:0:0:0:
199,194,5413,6,0,P|264:144|356:163,1,165
216,281,5973,2,0,P|141:262|116:174,1,165
279,371,6534,6,0,P|336:349|398:355,1,110,2|0,0:0|0:0,0:0:0:0:
407,367,7095,2,0,P|439:323|487:296,1,110,2|0,0:0|0:0,0:0:0:0:
300,332,7669,6,0,P|252:336|191:345,1,110,2|0,0:0|0:0,0:0:0:0:
107,195,8802,2,0,P|155:198|216:207,1,110,2|0,0:0|0:0,0:0:0:0:
99,372,9960,6,0,B|67:264|174:262|143:186|143:186|107:127|22:185|81:234,1,330
187,335,11086,2,0,P|242:335|304:342,2,110
325,122,11937,6,0,B|271:138|271:138|226:126|226:126|169:186|113:173,1,220
270,59,12767,2,0,P|336:18|423:47,1,165
350,111,13333,2,0,P|348:175|358:243,1,110,2|0,0:0|0:0,0:0:0:0:
261,135,13909,2,0,P|203:140|141:150,1,110,2|0,0:0|0:0,0:0:0:0:
324,295,14465,6,0,P|382:226|297:255,1,242.000007385254
84,384,16162,5,0,0:0:0:0:
6,217,16442,1,0,0:0:0:0:
84,384,16727,1,2,0:0:0:0:
102,163,17012,1,0,0:0:0:0:
84,384,17298,1,2,0:0:0:0:
167,282,17583,1,0,0:0:0:0:
320,221,17869,6,0,P|344:218|374:220,1,41.2500015735627
374,205,18062,6,0,P|369:177|360:151,1,55,2|0,0:0|0:0,0:0:0:0:
438,276,18306,2,0,P|454:254|465:229,1,55,2|0,0:0|0:0,0:0:0:0:
433,371,18546,2,0,P|460:367|485:357,1,55,2|0,0:0|0:0,0:0:0:0:
271,313,18825,5,2,0:0:0:0:
235,384,19016,2,0,B|274:310|228:182|113:271|161:197|144:89|252:89|306:176|258:220,1,385,2|0,0:0|0:0,0:0:0:0:
114,263,20148,2,0,P|93:213|109:133,1,110
129,81,20703,1,0,0:0:0:0:
63,31,20986,1,0,0:0:0:0:
96,208,21270,6,0,L|256:192,1,110,2|0,0:0|0:0,0:0:0:0:
112,32,21836,2,0,L|-48:16,1,110,2|0,0:0|0:0,0:0:0:0:
2,21,22386,1,0,0:0:0:0:
256,46,22677,5,0,0:0:0:0:
35,131,22970,1,0,0:0:0:0:
285,38,23242,1,0,0:0:0:0:
195,242,23539,6,0,P|192:297|212:348,1,110,2|0,0:0|0:0,0:0:0:0:
315,140,24084,2,0,P|318:85|299:35,1,110,2|0,0:0|0:0,0:0:0:0:
196,242,24660,5,2,0:0:0:0:
120,102,24926,1,0,0:0:0:0:
359,143,25203,1,2,0:0:0:0:
242,336,25515,1,0,0:0:0:0:
259,321,25807,6,0,P|263:281|280:242,1,55,2|0,0:0|0:0,0:0:0:0:
347,275,26067,2,0,P|378:249|417:233,1,55,2|0,0:0|0:0,0:0:0:0:
432,312,26362,2,0,P|472:316|511:333,1,55,2|0,0:0|0:0,0:0:0:0:
313,343,26642,2,0,P|286:335|259:334,1,55,2|0,0:0|0:0,0:0:0:0:
276,378,26925,6,0,L|145:359,1,110,2|0,0:0|0:0,0:0:0:0:
123,299,27505,1,0,0:0:0:0:
33,360,27788,1,0,0:0:0:0:
132,19,28070,6,0,B|192:9|229:53|229:53|271:98|338:78,1,220
172,186,29469,1,2,0:0:0:0:
137,113,29749,1,0,0:0:0:0:
72,66,30055,1,0,0:0:0:0:
298,85,30325,5,2,0:0:0:0:
356,33,30616,2,0,P|456:64|475:166,1,220
362,240,31475,6,0,P|367:185|379:132,1,110,2|0,0:0|0:0,0:0:0:0:
477,356,32030,2,0,P|488:302|494:248,1,110,2|0,0:0|0:0,0:0:0:0:
200,134,32655,6,0,L|207:243,1,110
214,118,33221,2,0,L|221:227,1,110
191,141,33787,2,0,L|198:250,1,110
110,47,34313,6,0,P|140:27|180:16,1,55,2|0,0:0|0:0,0:0:0:0:
282,33,34563,2,0,P|252:53|212:64,1,55,2|0,0:0|0:0,0:0:0:0:
89,143,34894,6,0,B|123:192|95:245|95:245|67:295|99:358,2,220
315,72,36246,6,0,P|309:45|301:20,1,55,2|0,0:0|0:0,0:0:0:0:
392,108,36518,2,0,P|407:85|420:60,1,55,2|0,0:0|0:0,0:0:0:0:
423,190,36791,2,0,P|450:185|475:174,1,55,2|0,0:0|0:0,0:0:0:0:
256,192,37146,12,0,41236,0:0:0:0:
384,88,41632,5,2,0:0:0:0:
306,129,41763,1,0,0:0:0:0:
381,177,41895,1,0,0:0:0:0:
392,96,42026,5,2,0:0:0:0:
301,210,42158,1,0,0:0:0:0:
168,80,42289,1,0,0:0:0:0:
341,11,42421,5,2,0:0:0:0:
255,43,42553,1,0,0:0:0:0:
176,88,42684,2,0,L|72:72,1,82.5000031471254,2|0,0:0|0:0,0:0:0:0:
80,152,42947,1,2,0:0:0:0:
247,34,43079,1,2,0:0:0:0:
240,183,43210,6,0,P|232:224|226:265,1,82.5000031471254,0|2,0:0|0:0,0:0:0:0:
312,136,43474,1,0,0:0:0:0:
368,224,43605,1,2,0:0:0:0:
468,169,43737,6,0,P|464:127|459:86,2,82.5000031471254
348,243,44132,1,0,0:0:0:0:
434,291,44263,2,0,P|429:332|426:374,1,82.5000031471254,2|0,0:0|0:0,0:0:0:0:
356,232,44526,1,2,0:0:0:0:
250,276,44658,1,2,0:0:0:0:
110,59,44921,6,0,L|214:65,1,82.5000031471254,2|2,0:0|0:0,0:0:0:0:
282,12,45184,1,2,0:0:0:0:
48,336,45447,5,2,0:0:0:0:
72,320,45579,1,2,0:0:0:0:
96,304,45710,1,2,0:0:0:0:
324,304,45842,6,0,L|432:328,1,110,4|0,1:0|0:0,0:0:0:0:
216,200,46105,1,2,1:0:0:0:
216,200,46237,1,0,0:0:0:0:
240,344,46368,1,2,1:0:0:0:
512,248,46500,2,0,B|419:231|419:231|386:241|386:241|291:222,1,220,2|0,1:0|0:0,0:0:0:0:
168,128,46895,6,0,L|60:104,1,110,2|0,1:0|0:0,0:0:0:0:
0,48,47158,1,2,1:0:0:0:
184,142,47289,2,0,L|403:96,1,220,2|0,1:0|0:0,0:0:0:0:
184,304,47684,2,0,L|293:280,1,110,4|0,1:3|0:0,0:0:0:0:
487,296,47947,5,4,1:0:0:0:
425,347,48079,1,0,0:0:0:0:
407,269,48210,1,2,1:0:0:0:
407,269,48342,1,0,0:0:0:0:
486,126,48474,1,2,1:0:0:0:
336,178,48605,2,0,B|309:255|309:255|332:315|332:315|305:384,1,220,2|0,1:0|0:0,0:0:0:0:
254,114,49000,6,0,L|296:-5,1,110,2|0,1:0|0:0,0:0:0:0:
184,158,49263,1,2,1:0:0:0:
248,313,49395,2,0,L|471:330,1,220,2|0,1:0|0:0,0:0:0:0:
190,229,49789,1,4,1:3:0:0:
170,239,49921,1,0,1:0:0:0:
365,196,50053,6,0,P|419:188|474:182,1,110,4|0,1:0|0:0,0:0:0:0:
240,384,50316,2,0,P|186:376|130:370,1,110,2|0,1:0|0:0,0:0:0:0:
21,384,50579,1,2,1:0:0:0:
164,239,50710,2,0,B|175:153|175:153|154:102|154:102|164:24,1,220,2|0,1:0|0:0,0:0:0:0:
421,107,51105,6,0,P|366:110|313:124,1,110,2|0,1:0|0:0,0:0:0:0:
238,83,51368,1,2,1:0:0:0:
452,177,51500,2,0,P|498:113|382:41,1,220,2|0,1:0|0:0,0:0:0:0:
6,71,51895,5,4,1:3:0:0:
82,0,52026,1,0,0:0:0:0:
129,94,52158,2,0,P|193:94|249:78,1,110,4|0,1:3|0:0,0:0:0:0:
61,274,52421,5,2,1:0:0:0:
61,274,52487,1,0,1:0:0:0:
61,274,52553,1,0,1:0:0:0:
61,274,52618,1,0,1:0:0:0:
61,274,52684,1,8,1:0:0:0:
173,384,52816,1,0,0:0:0:0:
248,328,52947,1,0,0:0:0:0:
400,48,53210,5,10,1:0:0:0:
240,144,53342,1,0,1:0:0:0:
400,128,53474,5,8,3:0:0:0:
512,195,53605,1,10,1:0:0:0:
400,200,53737,5,0,1:0:0:0:
321,246,53868,1,8,1:0:0:0:
400,272,54000,5,2,1:0:0:0:
463,308,54132,1,2,0:0:0:0:
192,48,54263,6,0,P|130:46|81:48,2,110,6|8|2,1:0|1:0|1:0,0:0:0:0:
272,0,54658,1,0,0:0:0:0:
376,80,54789,2,0,P|430:77|501:77,1,110,2|8,1:0|1:0,0:0:0:0:
268,32,55053,1,0,0:0:0:0:
207,143,55184,1,2,1:0:0:0:
23,66,55316,6,0,L|32:176,1,110,10|0,1:0|0:0,0:0:0:0:
74,1,55579,1,2,1:0:0:0:
214,134,55710,1,8,1:0:0:0:
108,194,55842,1,0,0:0:0:0:
108,194,55907,1,0,0:0:0:0:
108,194,55974,2,0,L|117:312,1,110,2|8,1:0|1:0,0:0:0:0:
187,356,56237,1,2,1:0:0:0:
177,89,56368,6,0,P|121:92|59:98,1,110,2|8,1:0|1:0,0:0:0:0:
334,162,56631,2,0,P|390:165|452:171,1,110,4|0,1:2|0:0,0:0:0:0:
189,70,56895,1,10,1:0:0:0:
314,42,57026,1,2,1:0:0:0:
232,234,57158,2,0,P|225:289|223:352,1,110,2|4,1:2|0:0,0:0:0:0:
416,119,57553,6,0,P|405:190|405:262,2,142.99999345398,10|2|0,1:0|1:0|0:0,0:0:0:0:
482,76,57947,1,10,1:0:0:0:
334,162,58079,1,0,1:0:0:0:
475,225,58210,1,10,1:0:0:0:
362,54,58342,1,2,1:0:0:0:
296,248,58474,6,0,P|312:320|312:392,1,131.99999597168,4|0,1:3|0:0,0:0:0:0:
475,189,58737,1,2,1:2:0:0:
485,171,58868,1,0,0:1:0:0:
495,152,59000,2,0,P|429:150|363:160,1,131.99999597168,0|0,0:1|0:0,0:0:0:0:
221,238,59263,5,2,1:2:0:0:
218,259,59395,1,0,0:0:0:0:
216,280,59526,2,0,P|150:284|81:298,1,131.99999597168,0|0,0:1|0:1,0:0:0:0:
147,43,59789,1,2,1:2:0:0:
163,57,59921,1,0,0:0:0:0:
179,70,60053,2,0,L|162:200,1,131.99999597168
222,359,60316,1,2,1:2:0:0:
222,359,60447,1,0,0:0:0:0:
271,132,60579,6,0,L|401:148,1,131.99999597168,4|0,1:3|0:0,0:0:0:0:
512,118,60842,1,2,1:2:0:0:
512,118,60974,1,0,0:0:0:0:
373,223,61105,5,4,1:2:0:0:
176,152,61237,1,0,0:0:0:0:
240,352,61368,1,8,1:0:0:0:
485,162,61500,6,0,B|361:147|361:147|316:173|316:173|208:154,1,285.99998690796,2|0,1:0|1:0,0:0:0:0:
270,358,61895,1,8,1:0:0:0:
345,381,62026,2,0,P|437:357|431:182,1,285.99998690796,6|10,1:0|1:0,0:0:0:0:
238,314,62421,1,0,1:0:0:0:
238,314,62553,1,2,1:0:0:0:
275,96,62684,5,2,1:0:0:0:
422,172,62816,1,2,1:0:0:0:
497,121,62947,2,0,B|421:87|421:87|349:123,1,165.000006294251,8|0,1:0|0:0,0:0:0:0:
319,279,63210,1,0,1:0:0:0:
255,179,63342,1,2,1:0:0:0:
347,219,63474,2,0,B|329:384,1,165.000006294251,10|0,1:0|0:0,0:0:0:0:
173,202,63737,6,0,P|153:124|194:55,1,165.000006294251,2|0,1:0|0:0,0:0:0:0:
304,11,64000,1,10,1:0:0:0:
244,137,64131,6,0,B|358:161|358:161|398:196|398:196|511:221,1,285.99998690796,2|2,1:0|1:0,0:0:0:0:
118,110,64526,5,8,1:0:0:0:
0,128,64658,1,2,1:0:0:0:
192,205,64789,6,0,B|177:263|177:263|194:309|194:309|182:363,1,165.000006294251,6|0,1:0|0:0,0:0:0:0:
256,264,65053,1,10,0:0:0:0:
68,381,65184,1,0,0:0:0:0:
35,306,65316,2,0,P|38:226|30:142,1,165.000006294251,2|0,0:0|0:0,0:0:0:0:
98,53,65579,1,10,0:0:0:0:
464,152,65710,6,0,P|472:280|288:344,1,330.000012588501,2|2,0:0|0:0,0:0:0:0:
256,264,66105,1,10,0:0:0:0:
120,292,66237,1,2,0:0:0:0:
205,359,66368,1,0,0:0:0:0:
171,197,66500,1,2,0:0:0:0:
40,232,66632,1,10,0:0:0:0:
40,232,66763,1,10,0:0:0:0:
216,128,66895,6,0,L|392:96,1,165.000006294251,4|0,1:2|0:0,0:0:0:0:
171,197,67158,1,8,1:0:0:0:
478,196,67289,6,0,L|302:228,1,165.000006294251,4|0,1:2|0:0,0:0:0:0:
243,280,67553,1,4,0:2:0:0:
440,320,67684,1,8,0:2:0:0:
440,320,67816,1,0,0:0:0:0:
226,127,67947,6,0,P|258:191|234:295,1,165.000006294251,4|0,0:2|0:0,0:0:0:0:
265,56,68210,1,8,0:0:0:0:
265,56,68342,1,4,0:2:0:0:
177,239,68474,2,0,P|99:265|39:213,1,165.000006294251
117,182,68737,1,8,0:0:0:0:
155,377,68868,1,4,0:2:0:0:
225,127,69000,6,0,L|388:156,1,165.000006294251,4|0,0:2|0:0,0:0:0:0:
467,233,69263,2,0,P|494:156|465:80,1,165.000006294251,8|0,0:0|0:0,0:0:0:0:
403,295,69526,5,2,0:0:0:0:
208,251,69657,1,2,0:0:0:0:
331,384,69789,1,8,0:0:0:0:
387,155,69921,6,0,B|290:176|290:176|212:153|212:153|93:179,1,285.99998690796,6|8,0:0|0:0,0:0:0:0:
442,72,70316,1,8,0:0:0:0:
224,278,70447,2,0,L|504:218,1,285.99998690796,10|8,0:0|0:0,0:0:0:0:
342,357,70842,5,10,0:0:0:0:
262,384,70974,1,2,0:0:0:0:
184,362,71105,2,2,P|137:313|140:246,1,126.500002412796,6|0,0:0|0:0,0:0:0:0:
205,189,71368,1,10,0:0:0:0:
205,189,71500,1,0,0:0:0:0:
512,281,71631,5,2,0:0:0:0:
388,192,71763,1,2,0:0:0:0:
412,276,71895,1,10,0:0:0:0:
446,356,72026,2,2,B|440:260|440:260|467:206|467:206|460:103,1,253.000004825592
395,32,72421,1,8,0:0:0:0:
395,32,72553,1,0,0:0:0:0:
388,192,72684,6,0,P|332:173|266:180,1,126.500002412796,2|0,0:0|0:0,0:0:0:0:
48,281,72947,1,10,0:0:0:0:
48,281,73210,6,0,P|105:276|168:300,1,126.500002412796,6|0,0:0|0:0,0:0:0:0:
242,249,73474,1,8,0:0:0:0:
176,305,73605,1,0,0:0:0:0:
146,164,73737,1,2,0:0:0:0:
379,237,73868,5,10,0:0:0:0:
301,369,74000,1,2,0:0:0:0:
309,172,74131,2,2,P|462:192|398:331,1,330.000012588501,6|2,1:3|1:3,0:0:0:0:
265,86,74526,1,0,0:0:0:0:
265,86,74658,2,2,P|418:107|354:245,1,330.000012588501,4|10,1:3|1:0,0:0:0:0:
168,384,75053,1,8,0:3:0:0:
100,339,75184,1,0,0:0:0:0:
25,374,75316,6,2,B|69:295|69:295|46:107,1,275,14|10,1:3|1:0,0:0:0:0:
80,22,75710,1,0,0:0:0:0:
156,82,75842,1,2,0:0:0:0:
159,289,75974,5,2,0:0:0:0:
261,249,76105,1,10,0:0:0:0:
303,351,76237,6,0,B|322:258|322:258|301:184|301:184|325:71,1,275,2|10,0:0|0:0,0:0:0:0:
246,21,76632,1,8,0:0:0:0:
154,48,76763,1,0,0:0:0:0:
373,269,76895,5,2,0:0:0:0:
216,222,77026,1,2,0:0:0:0:
336,384,77158,1,10,0:0:0:0:
279,303,77289,6,2,L|262:28,1,275,4|8,1:3|0:0,0:0:0:0:
345,79,77684,1,10,0:0:0:0:
193,229,77816,1,0,0:0:0:0:
361,99,77947,2,0,P|429:98|503:100,1,137.5,2|10,0:0|0:0,0:0:0:0:
348,174,78210,1,10,0:0:0:0:
138,44,78342,6,0,L|-7:54,1,137.5,4|0,1:3|0:0,0:0:0:0:
363,198,78605,2,0,L|508:208,2,137.5,2|0|10,1:2|0:0|1:3,0:0:0:0:
149,328,79000,5,2,0:0:0:0:
72,384,79131,1,2,0:0:0:0:
149,341,79263,1,10,0:0:0:0:
231,372,79395,6,2,P|366:355|416:228,1,275,12|0,1:3|0:0,0:0:0:0:
512,99,79789,2,0,L|368:120,1,137.5,8|0,0:0|0:0,0:0:0:0:
294,81,80053,1,2,0:0:0:0:
253,295,80184,5,2,0:0:0:0:
172,317,80316,1,10,0:0:0:0:
96,284,80447,2,2,P|50:167|160:107,1,275,6|2,0:3|1:0,0:0:0:0:
137,199,80842,2,0,L|278:175,1,137.5,8|2,0:0|0:0,0:0:0:0:
352,231,81105,1,2,0:0:0:0:
432,177,81237,1,0,0:0:0:0:
384,349,81368,1,10,0:0:0:0:
45,353,81631,6,0,P|114:345|205:341,1,137.5,12|0,0:3|0:0,0:0:0:0:
327,270,81895,2,0,P|344:198|311:136,1,137.5,10|0,0:0|0:0,0:0:0:0:
391,319,82158,1,2,0:0:0:0:
202,353,82289,1,2,0:0:0:0:
239,212,82421,1,8,0:0:0:0:
180,170,82553,6,2,B|255:141|309:200|309:200|365:256|442:227,1,275,6|2,0:3|0:3,0:0:0:0:
512,193,82947,1,8,0:0:0:0:
328,46,83079,2,0,P|200:80|64:48,1,275,2|12,0:3|0:3,0:0:0:0:
63,47,83408,1,0,0:0:0:0:
63,47,83474,1,2,0:0:0:0:
72,184,83605,5,10,0:0:0:0:
120,252,83737,2,0,L|256:267,1,137.5,12|0,1:3|0:0,0:0:0:0:
293,44,84000,1,10,0:0:0:0:
369,92,84131,1,0,0:0:0:0:
444,144,84263,2,0,L|459:4,1,137.5,2|2,0:0|0:0,0:0:0:0:
241,115,84526,1,10,0:0:0:0:
177,62,84658,6,2,P|23:63|2:166,1,275,4|0,0:3|0:0,0:0:0:0:
112,210,85053,2,0,P|187:196|260:193,1,137.5,8|0,0:0|0:0,0:0:0:0:
321,231,85316,1,2,0:0:0:0:
366,7,85447,1,2,0:3:0:0:
308,56,85579,1,10,0:0:0:0:
353,116,85710,6,0,B|399:176|368:252|368:252|338:323|370:381,1,275,12|2,0:3|0:0,0:0:0:0:
459,313,86105,1,8,0:0:0:0:
274,194,86237,1,0,0:0:0:0:
266,116,86368,2,0,P|300:45|379:32,1,137.5,10|10,0:0|0:0,0:0:0:0:
424,69,86631,1,10,0:0:0:0:
352,296,86763,6,0,B|253:282|253:282|188:234|188:234|67:217,1,285.99998690796,12|2,0:0|0:0,0:0:0:0:
267,141,87158,1,10,0:0:0:0:
168,75,87289,1,2,0:0:0:0:
103,143,87421,1,2,0:0:0:0:
185,154,87553,1,8,0:0:0:0:
87,60,87685,1,10,0:0:0:0:
249,60,87816,1,2,0:0:0:0:
197,177,87947,6,0,B|250:194|250:194|361:174,1,137.5,12|0,0:3|0:0,0:0:0:0:
256,338,88210,1,10,0:0:0:0:
205,262,88342,1,2,0:0:0:0:
126,303,88474,1,2,0:2:0:0:
195,188,88605,1,2,0:0:0:0:
3,248,88737,1,8,0:0:0:0:
45,52,88868,6,0,B|143:33|143:33|218:57|218:57|321:40,1,275,4|0,0:3|0:0,0:0:0:0:
206,197,89263,2,0,L|70:220,1,137.5,10|0,0:0|0:0,0:0:0:0:
329,293,89526,5,2,0:0:0:0:
298,204,89658,1,2,0:2:0:0:
421,226,89789,1,10,0:0:0:0:
421,226,89921,1,2,0:0:0:0:
137,248,90053,6,0,P|148:319|145:391,1,137.5,6|0,0:0|0:0,0:0:0:0:
217,194,90316,2,0,P|205:122|208:50,1,137.5,10|0,0:0|0:0,0:0:0:0:
475,324,90579,5,2,0:0:0:0:
215,384,90710,1,2,0:0:0:0:
278,339,90842,1,10,0:0:0:0:
340,384,90974,2,0,P|331:233|355:98,1,275,12|0,0:3|0:0,0:0:0:0:
387,23,91368,1,8,0:0:0:0:
238,139,91500,6,0,B|148:131|148:131|92:149|92:149|-10:139,1,242.000007385254,12|8,0:3|0:0,0:0:0:0:
158,219,91895,1,8,0:0:0:0:
158,219,92026,1,8,0:0:0:0:
314,96,92158,6,0,P|389:92|469:96,2,137.5,4|0|10,0:3|0:0|0:0,0:0:0:0:
62,185,92553,2,0,P|34:250|66:317,1,137.5,2|2,0:0|0:0,0:0:0:0:
148,147,92816,1,2,0:2:0:0:
66,95,92947,1,8,0:0:0:0:
127,249,93079,6,0,B|410:205,1,275,4|0,0:3|0:0,0:0:0:0:
403,290,93474,2,0,L|267:311,1,137.5,10|0,0:0|0:0,0:0:0:0:
453,355,93737,1,2,0:0:0:0:
500,272,93868,1,2,0:0:0:0:
358,153,94000,1,10,0:0:0:0:
281,151,94131,1,2,0:0:0:0:
410,211,94263,6,0,L|390:75,1,137.5,8|0,0:3|0:0,0:0:0:0:
365,374,94526,1,10,0:0:0:0:
233,335,94658,1,10,0:3:0:0:
496,282,94789,5,0,0:0:0:0:
247,343,94921,1,8,0:3:0:0:
127,149,95053,1,10,0:0:0:0:
145,373,95184,6,0,B|132:297|195:246|195:246|263:194|240:113,1,275,12|10,0:3|0:0,0:0:0:0:
331,85,95579,1,10,0:0:0:0:
136,152,95710,1,2,0:0:0:0:
392,296,95842,1,8,0:0:0:0:
445,212,95974,2,0,P|319:229|314:356,1,275,4|0,0:3|2:0,0:0:0:0:
389,384,96368,5,4,1:3:0:0:
217,332,96500,1,0,0:0:0:0:
217,332,96566,1,0,0:0:0:0:
217,332,96631,2,0,B|121:324|121:324|77:342,2,137.5,10|2|0,0:0|0:0|0:0,0:0:0:0:
280,384,97026,1,0,0:0:0:0:
450,98,97289,6,0,L|443:372,1,275,4|0,0:3|0:0,0:0:0:0:
236,249,97684,2,0,P|307:242|369:213,1,137.5,8|0,0:0|0:0,0:0:0:0:
169,174,97947,5,2,0:0:0:0:
239,100,98079,1,2,0:2:0:0:
178,307,98210,1,10,0:0:0:0:
0,217,98342,1,2,0:0:0:0:
199,103,98474,6,0,L|65:131,1,137.5,4|0,0:3|0:0,0:0:0:0:
343,108,98737,2,0,L|477:79,1,137.5,14|2,0:3|0:0,0:0:0:0:
177,191,99000,1,2,0:0:0:0:
417,384,99131,5,2,0:0:0:0:
358,308,99263,1,8,0:0:0:0:
450,277,99395,2,0,P|485:159|419:24,1,275,4|2,0:3|0:0,0:0:0:0:
325,210,99789,1,10,0:0:0:0:
400,176,99921,6,0,B|310:148|310:148|234:163|234:163|124:128,1,275,12|0,0:0|0:0,0:0:0:0:
311,230,100316,1,8,0:3:0:0:
231,79,100447,1,0,0:0:0:0:
324,241,100579,6,2,P|326:308|397:354,1,137.5,14|2,1:3|1:0,0:0:0:0:
179,226,100842,2,2,P|120:194|45:233,1,137.5,14|2,1:3|1:0,0:0:0:0:
421,259,101105,2,2,P|478:223|482:139,1,137.5,14|2,1:3|1:0,0:0:0:0:
431,95,101368,1,10,0:0:0:0:
431,95,101434,1,0,0:0:0:0:
431,95,101500,1,2,0:0:0:0:
176,85,101631,6,0,B|274:71|274:71|339:23|339:23|460:6,1,275,14|10,0:0|0:0,0:0:0:0:
271,170,102026,1,0,0:0:0:0:
102,27,102158,2,2,B|63:91|107:151|107:151|147:212|105:290,1,275,14|10,1:3|1:0,0:0:0:0:
141,361,102553,1,8,0:0:0:0:
352,243,102684,6,0,P|364:306|350:384,1,137.5,12|8,0:3|0:0,0:0:0:0:
480,237,102947,1,10,0:0:0:0:
328,171,103079,1,0,0:0:0:0:
281,329,103210,2,0,L|136:341,1,137.5,2|8,0:2|0:0,0:0:0:0:
66,292,103474,1,8,0:0:0:0:
66,292,103605,1,0,0:0:0:0:
427,75,103737,5,12,0:3:0:0:
272,93,103868,1,10,0:0:0:0:
364,220,104000,5,10,0:0:0:0:
256,87,104131,1,8,0:3:0:0:
443,81,104263,5,10,0:0:0:0:
303,265,104395,1,2,0:0:0:0:
352,57,104526,5,8,0:3:0:0:
377,148,104658,1,10,0:0:0:0:
57,48,104789,6,2,P|28:192|54:338,1,297.000001132965,12|10,0:3|1:0,0:0:0:0:
361,275,105316,5,2,1:0:0:0:
317,72,105447,1,2,1:0:0:0:
135,175,105579,1,10,0:0:0:0:
346,293,105710,6,0,B|384:318|384:318|492:309,1,148.500000566483,12|0,0:3|0:0,0:0:0:0:
224,304,105974,1,2,0:0:0:0:
496,136,106105,2,0,L|348:150,1,148.500000566483,12|0,0:3|0:0,0:0:0:0:
190,211,106368,2,0,L|22:228,1,148.500000566483,2|2,0:0|0:0,0:0:0:0:
247,40,106631,5,10,0:0:0:0:
351,30,106763,1,10,0:0:0:0:
432,96,106895,2,0,B|453:147|453:147|442:256,1,148.500000566483,12|0,0:3|0:0,0:0:0:0:
425,343,107158,1,10,0:0:0:0:
425,343,107421,1,2,0:0:0:0:
351,116,107553,5,2,0:0:0:0:
85,226,107684,1,10,0:0:0:0:
142,177,107816,2,0,B|207:146|277:197|277:197|344:249|420:200,1,297.000001132965,12|10,0:3|0:0,0:0:0:0:
345,346,108210,1,10,0:0:0:0:
266,279,108342,2,0,P|185:296|105:316,1,148.500000566483,10|4,0:0|0:3,0:0:0:0:
20,265,108605,1,0,0:0:0:0:
77,165,108737,1,10,0:0:0:0:
27,61,108868,1,10,0:0:0:0:
240,209,109000,6,0,B|336:188|336:188|415:211|415:211|533:185,1,275,12|8,0:0|0:0,0:0:0:0:
311,375,109395,1,0,0:0:0:0:
274,287,109526,1,2,0:0:0:0:
223,205,109658,2,0,P|167:166|97:176,1,137.5,2|10,0:0|0:0,0:0:0:0:
464,384,109921,6,0,P|469:226|482:109,1,275,12|0,0:3|0:0,0:0:0:0:
373,249,110316,2,0,P|301:249|224:261,1,137.5,12|0,0:3|0:0,0:0:0:0:
145,284,110579,5,0,0:0:0:0:
82,162,110710,1,2,0:0:0:0:
190,76,110842,1,10,0:0:0:0:
171,56,110974,1,10,0:0:0:0:
312,321,111105,6,0,P|379:307|447:311,1,137.5,12|0,0:3|0:0,0:0:0:0:
512,268,111368,1,10,0:0:0:0:
394,197,111500,1,0,0:0:0:0:
472,85,111631,1,2,0:0:0:0:
472,85,111763,5,2,0:0:0:0:
361,16,111895,1,10,0:0:0:0:
250,85,112026,1,10,0:0:0:0:
182,42,112158,6,0,L|44:53,1,137.5,14|10,0:0|0:0,0:0:0:0:
326,247,112421,5,12,0:3:0:0:
254,146,112553,1,10,0:0:0:0:
375,136,112684,1,10,0:0:0:0:
222,384,112816,5,12,0:3:0:0:
277,282,112947,1,10,0:0:0:0:
334,384,113079,1,10,0:0:0:0:
457,338,113210,6,2,P|484:192|455:48,1,297.000001132965,12|8,0:3|0:0,0:0:0:0:
352,224,113737,5,2,0:0:0:0:
176,100,113868,1,2,0:0:0:0:
76,291,114000,1,10,0:0:0:0:
166,91,114131,6,0,B|126:70|126:70|8:81,1,148.500000566483,12|0,0:3|0:0,0:0:0:0:
349,23,114395,1,2,0:0:0:0:
108,151,114526,2,0,B|148:172|148:172|266:161,1,148.500000566483,12|0,0:3|0:0,0:0:0:0:
512,22,114789,2,0,L|356:9,1,148.500000566483,2|10,0:0|0:0,0:0:0:0:
268,278,115053,5,2,0:0:0:0:
172,317,115184,1,2,0:0:0:0:
78,273,115316,2,0,B|68:207|68:207|100:98,1,148.500000566483,12|0,0:3|0:0,0:0:0:0:
129,26,115579,1,10,0:0:0:0:
129,26,115842,1,2,0:0:0:0:
376,160,115974,5,12,0:3:0:0:
376,51,116105,1,10,0:0:0:0:
471,108,116237,2,0,B|501:174|450:244|450:244|397:311|446:387,1,297.000001132965,12|10,0:3|0:0,0:0:0:0:
288,319,116631,1,10,0:0:0:0:
351,365,116763,2,0,P|280:368|171:378,1,148.500000566483,2|4,0:0|0:3,0:0:0:0:
106,333,117026,1,8,0:0:0:0:
166,241,117158,1,10,0:0:0:0:
104,150,117289,1,10,0:0:0:0:
364,292,117421,6,0,P|435:295|544:305,1,137.5,12|0,0:3|0:0,0:0:0:0:
280,225,117684,1,8,0:0:0:0:
373,384,117816,1,0,0:0:0:0:
421,163,117947,1,2,0:0:0:0:
297,226,118079,5,2,0:0:0:0:
165,296,118210,1,8,0:0:0:0:
252,361,118342,2,0,B|289:295|252:234|252:234|210:169|238:99,1,275,12|0,0:3|0:0,0:0:0:0:
295,22,118737,2,0,P|359:0|421:27,1,137.5,12|0,0:3|0:0,0:0:0:0:
512,140,119000,5,2,0:0:0:0:
348,141,119131,1,2,0:0:0:0:
469,254,119263,1,10,0:0:0:0:
372,149,119395,1,0,0:0:0:0:
269,248,119526,6,0,L|286:384,1,137.5,12|0,0:3|0:0,0:0:0:0:
138,217,119789,1,10,0:0:0:0:
159,297,119921,1,2,0:2:0:0:
135,376,120053,1,2,0:2:0:0:
129,371,120118,1,0,0:0:0:0:
122,368,120184,1,2,0:0:0:0:
115,365,120250,1,0,0:0:0:0:
108,362,120316,1,10,0:0:0:0:
48,279,120447,1,10,0:0:0:0:
166,218,120579,6,0,B|156:67,1,137.5,12|10,0:3|0:0,0:0:0:0:
341,176,120842,1,10,0:0:0:0:
380,84,120974,1,8,0:0:0:0:
304,271,121105,5,2,0:0:0:0:
236,132,121237,1,8,0:3:0:0:
198,301,121368,5,10,0:0:0:0:
412,256,121500,1,10,0:0:0:0:
156,372,121631,6,0,L|48:354,1,110,12|0,0:3|0:0,0:0:0:0:
312,277,121895,2,0,P|298:328|293:385,1,110,10|0,0:0|0:0,0:0:0:0:
337,151,122158,1,8,0:0:0:0:
256,184,122289,2,0,B|191:206|191:206|35:178,1,220
0,90,122684,5,8,0:0:0:0:
106,94,122816,1,0,0:0:0:0:
57,0,122947,1,8,0:0:0:0:
57,0,123013,1,0,0:0:0:0:
57,0,123079,1,0,0:0:0:0:
117,109,123210,1,2,0:3:0:0:
156,23,123342,1,8,0:3:0:0:
212,99,123474,1,8,0:0:0:0:
212,99,123605,1,0,0:0:0:0:
268,175,123737,5,0,0:0:0:0:
356,58,123868,1,0,0:0:0:0:
294,106,124000,2,0,B|280:63|280:63|299:-24,1,110,8|0,0:0|0:0,0:0:0:0:
356,58,124263,1,8,0:0:0:0:
464,106,124395,1,0,0:0:0:0:
404,207,124526,1,0,0:3:0:0:
406,195,124591,1,0,0:0:0:0:
409,182,124657,1,0,0:0:0:0:
412,169,124723,1,0,0:0:0:0:
414,157,124789,6,0,L|298:182,1,110,2|8,0:3|0:3,0:0:0:0:
237,154,125053,1,8,0:0:0:0:
294,106,125184,1,0,0:0:0:0:
345,246,125316,1,0,0:0:0:0:
473,171,125447,5,6,0:0:0:0:
433,189,125512,1,0,0:0:0:0:
390,186,125578,1,0,0:0:0:0:
354,162,125644,1,0,0:0:0:0:
335,123,125710,1,0,0:0:0:0:
338,79,125775,1,0,0:0:0:0:
348,74,125842,6,0,L|414:84,2,55,12|0|0,0:3|0:0|0:0,0:0:0:0:
255,124,126105,1,8,0:0:0:0:
247,144,126237,2,0,L|185:154,2,55
392,254,126500,1,8,0:0:0:0:
411,265,126631,2,0,L|423:329,2,55
239,367,126895,5,8,0:0:0:0:
218,373,127026,2,0,P|190:365|162:362,2,55
129,286,127289,1,8,0:0:0:0:
113,301,127421,2,0,P|96:323|87:349,3,55
68,235,127684,2,0,P|43:247|19:261,3,55
66,135,127947,5,0,0:0:0:0:
91,114,128013,1,0,0:0:0:0:
123,107,128079,1,0,0:0:0:0:
155,112,128145,1,0,0:0:0:0:
126,180,128210,6,0,P|132:197|163:228,2,55,8|0|0,0:0|0:0|0:0,0:0:0:0:
183,126,128474,1,8,0:0:0:0:
256,170,128605,2,0,B|311:142|361:175|361:175|415:211|467:173,1,220
306,251,129000,5,12,0:3:0:0:
255,349,129132,1,0,0:3:0:0:
334,85,129264,5,2,0:3:0:0:
296,16,129396,1,2,0:3:0:0:
360,309,129527,5,12,0:3:0:0:
398,378,129659,1,2,0:3:0:0:
413,112,129790,5,2,0:3:0:0:
389,5,129921,1,0,0:3:0:0:
376,302,130053,6,0,P|440:297|521:321,2,110,8|0|0,0:0|0:0|0:0,0:0:0:0:
306,251,130447,1,8,0:3:0:0:
505,231,130579,2,0,P|498:176|503:121,1,110,0|0,0:0|0:3,0:0:0:0:
474,47,130842,1,8,0:3:0:0:
405,86,130974,1,0,0:0:0:0:
299,33,131105,6,0,L|183:40,1,110,8|0,0:3|0:0,0:0:0:0:
98,5,131368,1,4,0:3:0:0:
98,5,131434,1,0,0:0:0:0:
98,5,131500,1,0,0:0:0:0:
191,221,131631,2,0,P|194:167|173:108,1,110,0|2,0:0|0:3,0:0:0:0:
75,232,131895,1,2,0:3:0:0:
113,305,132026,1,2,0:3:0:0:
139,384,132158,6,0,L|132:262,1,110,8|0,0:3|0:0,0:0:0:0:
56,350,132421,2,0,P|31:344|2:344,2,55,0|0|8,0:0|0:0|0:3,0:0:0:0:
237,375,132684,1,0,0:0:0:0:
293,316,132816,1,0,0:0:0:0:
349,371,132947,1,8,0:3:0:0:
401,311,133079,6,0,P|376:205|402:100,1,220,8|0,0:0|0:0,0:0:0:0:
453,36,133474,1,8,0:0:0:0:
453,36,133605,1,8,0:0:0:0:
285,71,133737,1,8,0:0:0:0:
454,177,133868,5,0,0:0:0:0:
391,86,134000,1,0,0:0:0:0:
297,73,134131,1,8,0:0:0:0:
350,205,134263,6,0,P|354:253|356:327,1,110,12|0,0:3|0:0,0:0:0:0:
307,377,134526,1,2,0:3:0:0:
280,250,134658,2,0,B|170:256,1,110,0|8,0:0|0:0,0:0:0:0:
94,259,134921,1,0,0:0:0:0:
223,168,135053,2,0,L|207:40,1,110,2|0,0:3|0:0,0:0:0:0:
269,6,135316,5,0,0:0:0:0:
402,149,135447,1,0,0:0:0:0:
315,113,135579,1,2,0:3:0:0:
375,42,135710,1,0,0:0:0:0:
375,42,135842,2,0,B|504:23,1,110,8|0,0:0|0:0,0:0:0:0:
417,235,136105,1,2,0:3:0:0:
348,196,136237,1,0,0:0:0:0:
271,215,136368,6,0,B|245:248|245:248|254:315,1,110,2|0,0:3|0:0,0:0:0:0:
307,374,136631,1,12,0:3:0:0:
180,340,136763,1,0,0:0:0:0:
354,283,136895,2,0,L|463:297,1,110,10|0,0:0|0:0,0:0:0:0:
194,188,137158,1,4,0:0:0:0:
84,202,137289,1,0,0:3:0:0:
421,6,137421,5,12,0:3:0:0:
352,40,137553,1,8,0:0:0:0:
347,120,137684,1,8,0:0:0:0:
416,86,137816,1,8,0:0:0:0:
251,27,137947,5,8,0:0:0:0:
338,126,138079,1,8,0:0:0:0:
170,52,138210,1,8,0:0:0:0:
212,239,138342,1,8,0:0:0:0:
51,150,138474,6,0,P|53:100|44:28,1,110,12|0,0:3|0:0,0:0:0:0:
0,210,138737,1,8,0:0:0:0:
160,187,138868,2,0,P|146:243|147:306,1,110,0|2,0:3|0:0,0:0:0:0:
98,354,139131,1,0,0:0:0:0:
272,384,139263,2,0,B|290:348|290:348|283:258,1,110,8|0,0:0|0:0,0:0:0:0:
360,254,139526,5,0,0:0:0:0:
210,336,139658,1,0,0:0:0:0:
397,384,139789,2,0,B|386:258,1,110,8|0,0:0|0:0,0:0:0:0:
440,214,140053,1,2,0:3:0:0:
440,214,140184,1,0,0:0:0:0:
234,186,140316,5,8,0:0:0:0:
189,0,140447,1,0,0:0:0:0:
168,120,140579,2,0,B|37:106,1,110,12|0,0:3|0:0,0:0:0:0:
328,320,140842,5,8,0:0:0:0:
272,256,140974,1,0,0:0:0:0:
432,224,141105,1,2,0:3:0:0:
416,352,141237,1,0,0:0:0:0:
448,208,141368,1,8,0:0:0:0:
317,368,141500,6,0,P|238:369|87:386,1,220
0,347,141895,1,8,0:0:0:0:
66,267,142026,1,0,0:0:0:0:
164,304,142158,1,2,0:3:0:0:
83,253,142289,1,0,0:0:0:0:
256,213,142421,2,0,B|364:198,1,110,8|0,0:0|0:0,0:0:0:0:
92,163,142684,6,0,P|87:106|86:41,1,110,12|0,0:3|0:0,0:0:0:0:
29,0,142947,1,8,0:0:0:0:
166,132,143079,1,0,0:0:0:0:
238,100,143210,2,0,L|347:109,1,110,2|0,0:3|0:0,0:0:0:0:
453,70,143474,1,8,0:0:0:0:
453,70,143605,1,0,0:0:0:0:
298,384,143737,6,0,L|288:274,1,110,0|0,0:3|0:0,0:0:0:0:
356,242,144000,1,8,0:0:0:0:
200,369,144131,2,0,P|142:373|81:383,2,110,0|2|0,0:0|0:3|0:0,0:0:0:0:
39,326,144526,1,8,0:0:0:0:
39,326,144658,1,0,0:0:0:0:
296,336,144789,5,12,0:3:0:0:
392,280,144921,1,0,0:0:0:0:
264,240,145053,1,8,0:0:0:0:
264,240,145184,1,0,0:0:0:0:
448,355,145316,2,0,L|456:227,1,110,2|0,0:3|0:0,0:0:0:0:
263,222,145579,1,8,0:0:0:0:
115,320,145710,6,0,B|207:300|207:300|281:321|281:321|394:297,1,263.99999194336,12|2,0:0|0:0,0:0:0:0:
448,355,146105,1,8,0:0:0:0:
411,106,146237,2,0,P|290:90|260:208,1,263.99999194336,12|0,0:3|0:0,0:0:0:0:
335,378,146631,1,8,0:0:0:0:
335,378,146763,1,0,0:0:0:0:
263,222,146895,1,8,0:0:0:0:
482,149,147026,5,8,0:0:0:0:
365,298,147158,1,8,0:0:0:0:
196,145,147289,1,8,0:0:0:0:
75,45,147816,5,2,2:0:0:0:
75,45,148079,5,2,2:0:0:0:
491,105,148605,5,4,0:0:0:0:
326,40,148737,6,0,P|365:53|376:92,1,82.5,4|0,0:3|0:0,0:0:0:0:
440,28,149000,2,0,B|392:62|400:117|400:117|411:178|353:221,1,220,12|8,0:3|0:0,0:0:0:0:
356,218,149592,1,0,0:0:0:0:
356,218,149658,1,8,0:0:0:0:
280,46,149789,1,10,0:0:0:0:
215,9,149921,6,0,P|255:78|256:171,1,165,4|0,1:3|2:0,0:0:0:0:
216,256,150184,6,0,P|247:206|162:153,1,165,2|0,0:0|2:0,0:0:0:0:
145,236,150447,6,0,P|176:286|147:390,1,165,4|0,0:3|2:0,0:0:0:0:
80,314,150710,5,10,0:0:0:0:
69,187,150842,1,10,0:0:0:0:
60,328,150974,1,10,0:0:0:0:
300,301,151105,6,0,P|366:301|431:306,1,131.99999597168,8|8,0:0|0:0,0:0:0:0:
235,355,151368,1,8,0:0:0:0:
235,355,151500,1,8,0:0:0:0:
307,187,151763,5,6,0:0:0:0:
427,285,151895,1,2,0:0:0:0:
509,103,152026,1,10,0:0:0:0:
274,182,152289,5,4,0:2:0:0:
242,178,152553,5,4,0:3:0:0:
210,174,152816,2,0,L|134:191,2,65.9999979858399
255,9,153210,5,12,0:3:0:0:
321,62,153342,1,2,0:0:0:0:
45,58,153605,5,2,0:0:0:0:
34,38,153671,1,0,0:0:0:0:
20,19,153737,2,0,B|55:39|55:39|144:59,1,131.99999597168,2|10,0:0|0:0,0:0:0:0:
215,10,154000,1,10,0:0:0:0:
87,178,154131,6,2,B|17:187|17:187|214:235,1,247.500009441376,14|0,1:3|2:0,0:0:0:0:
300,304,154395,2,2,B|356:261|356:261|161:318,1,247.500009441376,2|0,0:0|2:0,0:0:0:0:
107,289,154658,5,2,0:0:0:0:
68,106,154789,1,8,0:0:0:0:
68,361,154921,5,12,0:3:0:0:
135,80,155053,1,8,0:0:0:0:
310,266,155184,6,0,B|353:282|353:282|468:256,1,165.000006294251,14|0,0:3|0:0,0:0:0:0:
216,309,155447,1,0,0:0:0:0:
354,142,155579,2,0,B|81:204,1,263.99999194336,8|0,0:0|0:0,0:0:0:0:
291,37,155974,5,8,0:3:0:0:
402,217,156105,1,8,0:0:0:0:
402,217,156237,2,0,B|352:197|352:197|257:219,1,131.99999597168,4|2,0:0|0:3,0:0:0:0:
450,37,156500,2,0,B|483:100|443:162|443:162|409:222|450:300,1,263.99999194336,8|0,0:3|0:0,0:0:0:0:
153,367,156895,5,2,0:3:0:0:
243,338,157026,1,0,0:0:0:0:
326,384,157158,2,0,P|332:319|319:249,1,131.99999597168,8|0,0:0|0:0,0:0:0:0:
93,137,157421,5,14,0:3:0:0:
26,194,157553,1,0,0:0:0:0:
76,7,157684,1,2,0:3:0:0:
76,7,157816,1,0,0:0:0:0:
173,163,157947,5,14,0:3:0:0:
131,300,158079,1,2,0:0:0:0:
272,314,158210,1,2,0:0:0:0:
214,370,158342,2,0,P|358:361|480:364,1,263.99999194336,10|0,0:3|0:0,0:0:0:0:
385,269,158737,5,8,0:0:0:0:
451,205,158868,2,0,P|489:117|348:42,1,263.99999194336,10|0,0:3|0:0,0:0:0:0:
298,91,159263,1,8,0:0:0:0:
228,151,159395,1,0,0:0:0:0:
215,161,159526,5,14,0:3:0:0:
303,232,159658,1,0,0:0:0:0:
350,144,159789,1,8,0:0:0:0:
276,80,159921,1,0,0:0:0:0:
166,95,160053,2,0,P|181:159|171:227,1,131.99999597168,2|0,0:3|0:0,0:0:0:0:
276,160,160316,5,8,0:0:0:0:
276,160,160447,2,0,B|169:172|169:172|124:154|124:154|5:167,1,263.99999194336,8|0,0:3|0:0,0:0:0:0:
112,30,160842,1,10,0:0:0:0:
27,61,160974,1,0,0:0:0:0:
181,87,161105,2,0,L|326:69,1,131.99999597168
410,83,161368,1,8,0:0:0:0:
267,209,161500,6,0,B|198:180|198:180|-9:204,1,275,12|0,0:3|0:0,0:0:0:0:
260,315,161895,1,8,0:0:0:0:
344,179,162026,1,0,0:0:0:0:
325,382,162158,5,8,0:0:0:0:
330,171,162289,1,8,0:0:0:0:
509,217,162421,1,0,0:0:0:0:
411,346,162553,6,0,B|389:245|389:245|411:173|411:173|374:50,1,275,12|0,0:3|0:0,0:0:0:0:
204,66,162947,1,8,0:0:0:0:
279,114,163079,2,0,B|315:283,1,137.5,0|8,0:0|0:3,0:0:0:0:
222,356,163342,1,0,0:0:0:0:
222,356,163474,1,8,0:0:0:0:
53,127,163605,1,8,0:0:0:0:
129,172,163737,6,0,P|131:224|133:300,1,110,12|0,0:3|0:0,0:0:0:0:
224,344,164000,1,8,0:0:0:0:
224,344,164066,1,0,0:0:0:0:
224,344,164131,1,0,0:0:0:0:
304,384,164263,1,0,0:0:0:0:
344,304,164395,2,0,P|352:248|334:195,1,110
145,59,164658,6,0,P|254:51|364:50,1,220,4|0,0:3|0:0,0:0:0:0:
403,119,165053,2,0,P|469:117|541:119,1,110,8|0,0:0|0:0,0:0:0:0:
343,175,165316,1,0,0:0:0:0:
343,175,165447,1,2,0:3:0:0:
290,363,165579,1,10,0:0:0:0:
475,305,165710,1,2,0:3:0:0:
350,201,165842,6,0,P|349:257|352:326,1,110,12|0,0:3|0:0,0:0:0:0:
248,146,166105,1,10,0:0:0:0:
318,106,166237,1,2,0:3:0:0:
466,146,166368,1,8,0:0:0:0:
248,66,166500,1,8,0:0:0:0:
64,163,166631,1,8,0:0:0:0:
8,88,166763,6,0,B|63:54|115:84|115:84|169:113|230:73,1,220,12|0,0:3|0:0,0:0:0:0:
160,4,167158,1,8,0:0:0:0:
64,163,167289,2,0,B|73:248|73:248|109:279|109:279|119:386,1,220,12|0,0:3|0:0,0:0:0:0:
36,323,167684,1,2,0:3:0:0:
267,327,167816,1,2,0:3:0:0:
206,279,167947,6,0,B|188:312|188:312|199:415,2,110,4|0|8,0:0|0:0|0:0,0:0:0:0:
249,212,168342,1,0,0:0:0:0:
249,212,168474,2,0,L|238:90,1,110,8|8,0:3|0:0,0:0:0:0:
512,221,168737,1,8,0:0:0:0:
481,151,168868,6,0,P|376:159|338:256,1,220,4|0,0:3|0:0,0:0:0:0:
436,240,169263,1,10,0:0:0:0:
327,33,169395,1,2,0:3:0:0:
304,122,169526,1,0,0:0:0:0:
183,147,169658,1,0,0:0:0:0:
256,195,169789,1,8,0:0:0:0:
231,74,169921,1,8,0:0:0:0:
137,237,170053,6,0,P|81:238|27:244,1,110,2|0,0:3|0:0,0:0:0:0:
262,291,170316,1,8,0:3:0:0:
262,291,170447,1,8,0:3:0:0:
154,249,170579,5,8,0:0:0:0:
232,384,170710,1,8,0:0:0:0:
373,278,170842,1,8,0:0:0:0:
409,351,170974,6,0,B|417:229|417:229|467:159|467:159|469:35,1,330.000012588501,12|0,0:3|0:0,0:0:0:0:
339,268,171368,2,0,B|170:289,1,165.000006294251
93,252,171631,5,0,0:0:0:0:
306,187,171763,2,0,P|391:101|316:7,1,263.99999194336,12|0,0:3|0:0,0:0:0:0:
109,70,172158,5,12,0:3:0:0:
53,20,172289,1,0,0:0:0:0:
53,20,172355,1,0,0:0:0:0:
53,20,172421,2,0,P|74:80|66:172,1,131.99999597168,2|0,0:3|0:0,0:0:0:0:
127,228,172684,2,0,P|61:229|8:264,1,131.99999597168
188,175,172947,1,8,0:0:0:0:
31,341,173079,6,0,B|95:363|155:324|155:324|221:283|292:318,1,263.99999194336,12|0,0:3|0:0,0:0:0:0:
367,338,173474,2,0,P|431:351|493:329,1,131.99999597168,8|0,0:0|0:0,0:0:0:0:
404,119,173737,5,8,0:0:0:0:
232,73,173868,1,2,0:3:0:0:
312,124,174000,5,0,0:0:0:0:
150,114,174131,1,0,0:3:0:0:
348,15,174263,5,12,0:3:0:0:
348,15,174395,1,0,0:0:0:0:
423,53,174526,2,0,P|420:118|425:184,1,131.99999597168
316,378,174789,5,8,0:0:0:0:
359,222,174921,1,8,0:0:0:0:
512,273,175053,1,8,0:0:0:0:
268,315,175184,6,0,B|171:305|171:305|116:331|116:331|10:321,1,263.99999194336,12|0,0:3|0:0,0:0:0:0:
285,161,175579,1,8,0:0:0:0:
383,250,175710,2,0,L|95:221,1,263.99999194336,12|0,0:3|0:0,0:0:0:0:
86,217,176039,1,2,0:3:0:0:
86,217,176105,1,2,0:3:0:0:
256,336,176237,1,0,0:0:0:0:
427,333,176368,6,0,P|474:274|464:207,1,131.99999597168,12|0,0:3|0:0,0:0:0:0:
417,141,176631,1,8,0:0:0:0:
417,141,176763,1,0,0:0:0:0:
352,367,176895,2,0,B|216:364,1,131.99999597168,2|0,0:3|0:0,0:0:0:0:
139,312,177158,1,8,0:0:0:0:
139,312,177289,1,0,0:0:0:0:
372,9,177421,6,0,B|362:61|362:61|395:163,1,131.99999597168,4|0,0:0|0:0,0:0:0:0:
313,249,177684,2,0,B|323:197|323:197|290:95,1,131.99999597168,8|0,0:0|0:0,0:0:0:0:
442,55,177947,1,2,0:3:0:0:
242,201,178079,1,0,0:0:0:0:
92,54,178210,1,8,0:0:0:0:
92,54,178276,1,0,0:0:0:0:
92,54,178342,1,0,0:0:0:0:
37,122,178474,6,0,P|155:84|242:175,1,263.99999194336,12|0,0:3|0:0,0:0:0:0:
318,264,178868,1,8,0:0:0:0:
118,330,179000,2,0,P|111:265|124:201,1,131.99999597168,2|0,0:3|0:0,0:0:0:0:
198,351,179263,1,8,0:0:0:0:
39,310,179395,1,2,0:3:0:0:
155,125,179526,5,8,0:0:0:0:
109,70,179658,1,8,0:0:0:0:
57,160,179789,5,8,0:3:0:0:
206,34,179921,1,8,0:3:0:0:
281,220,180053,5,8,0:0:0:0:
155,125,180184,1,8,0:0:0:0:
118,330,180316,5,8,0:0:0:0:
289,228,180447,1,8,0:0:0:0:
457,338,180579,6,0,P|484:192|455:48,1,297.000001132965,12|8,0:3|0:0,0:0:0:0:
80,96,181105,5,8,0:0:0:0:
185,235,181237,1,8,0:0:0:0:
330,142,181368,1,8,0:0:0:0:
92,350,181500,6,0,B|60:293|60:293|74:157,1,148.500000566483,12|0,0:3|0:0,0:0:0:0:
99,104,181763,1,0,0:0:0:0:
153,274,181895,2,0,L|321:291,1,148.500000566483,12|0,0:0|0:0,0:0:0:0:
451,247,182158,1,2,0:3:0:0:
451,247,182289,1,2,0:3:0:0:
275,7,182421,5,8,0:0:0:0:
214,158,182553,1,8,0:0:0:0:
157,47,182684,2,0,B|121:27|121:27|5:42,1,148.500000566483,12|0,0:3|0:0,0:0:0:0:
213,176,182947,1,2,0:3:0:0:
213,176,183210,1,8,0:0:0:0:
375,118,183342,5,0,0:0:0:0:
451,190,183473,1,8,0:0:0:0:
478,14,183605,2,0,B|409:-10|344:45|344:45|282:103|203:61,1,297.000001132965,12|0,0:3|0:0,0:0:0:0:
123,26,184000,1,8,0:0:0:0:
267,258,184131,2,0,P|339:254|415:255,1,148.500000566483,8|0,0:0|0:0,0:0:0:0:
138,101,184395,1,8,0:0:0:0:
250,246,184526,1,8,0:0:0:0:
349,90,184658,1,0,0:0:0:0:
189,185,184789,6,0,B|304:150|304:150|347:165|347:165|452:134,1,275,12|8,0:3|0:0,0:0:0:0:
133,127,185184,1,0,0:0:0:0:
16,96,185316,1,0,0:0:0:0:
124,135,185447,2,0,P|129:66|117:0,1,137.5,0|8,0:0|0:0,0:0:0:0:
37,313,185710,6,0,L|301:237,1,275,8|0,0:1|0:0,0:0:0:0:
132,149,186105,2,0,L|-15:190,1,137.5,8|0,0:0|0:0,0:0:0:0:
307,220,186368,1,0,0:0:0:0:
307,58,186500,5,8,0:0:0:0:
418,231,186631,1,0,0:0:0:0:
500,41,186763,1,8,0:0:0:0:
440,98,186895,6,0,P|434:165|435:235,1,137.5,12|0,0:3|0:0,0:0:0:0:
369,383,187158,1,2,0:3:0:0:
326,291,187289,1,2,0:3:0:0:
268,375,187421,1,8,0:0:0:0:
231,255,187553,1,8,0:0:0:0:
278,370,187684,1,0,0:0:0:0:
353,282,187816,1,0,0:0:0:0:
155,218,187947,6,0,L|17:229,1,137.5,12|0,0:3|0:0,0:0:0:0:
262,85,188210,1,8,0:0:0:0:
399,183,188342,1,8,0:0:0:0:
312,166,188474,5,2,0:3:0:0:
475,141,188605,1,2,0:3:0:0:
270,237,188737,5,8,0:0:0:0:
329,15,188868,1,8,0:0:0:0:
69,50,189000,6,0,P|32:192|70:333,1,297.000001132965,12|8,0:3|0:0,0:0:0:0:
348,326,189526,5,8,0:0:0:0:
256,224,189658,1,8,0:0:0:0:
177,353,189789,1,8,0:0:0:0:
346,81,189921,6,0,B|420:93|420:93|507:70,1,148.500000566483,12|0,0:3|0:0,0:0:0:0:
417,16,190184,1,8,0:0:0:0:
216,147,190316,2,0,L|383:177,1,148.500000566483,8|0,0:0|0:0,0:0:0:0:
418,365,190579,2,2,L|251:335,1,148.500000566483,2|2,0:3|0:0,0:0:0:0:
163,384,190842,5,8,0:0:0:0:
255,213,190974,1,8,0:0:0:0:
432,288,191105,2,0,B|441:227|441:227|411:125,1,148.500000566483,12|0,0:3|0:0,0:0:0:0:
366,17,191368,1,8,0:0:0:0:
366,17,191631,1,8,0:0:0:0:
154,290,191763,5,0,0:0:0:0:
308,136,191894,1,8,0:0:0:0:
365,231,192026,2,0,B|292:262|228:212|228:212|161:158|86:206,1,297.000001132965,12|0,0:3|0:0,0:0:0:0:
1,263,192421,1,8,0:0:0:0:
137,361,192553,2,0,P|210:351|285:359,1,148.500000566483,8|0,0:0|0:0,0:0:0:0:
69,312,192816,1,2,0:3:0:0:
189,184,192947,2,0,P|198:110|191:36,1,148.500000566483,8|0,0:0|0:0,0:0:0:0:
389,246,193210,6,0,P|394:313|393:389,1,137.5,12|0,0:0|0:0,0:0:0:0:
436,184,193474,1,2,0:3:0:0:
350,163,193605,1,2,0:3:0:0:
273,208,193737,1,8,0:0:0:0:
142,36,193868,5,0,0:0:0:0:
68,18,194000,1,8,0:0:0:0:
0,47,194131,2,0,B|-21:122|29:174|29:174|84:229|56:310,1,275,12|0,0:3|0:0,0:0:0:0:
121,166,194526,2,0,P|187:145|255:140,1,137.5,8|0,0:0|0:0,0:0:0:0:
337,151,194789,1,2,0:3:0:0:
303,76,194921,1,2,0:3:0:0:
332,252,195053,2,0,P|266:231|197:226,1,137.5,8|8,0:0|0:0,0:0:0:0:
0,357,195316,6,0,L|136:339,1,137.5,8|0,0:3|0:0,0:0:0:0:
273,382,195579,1,2,0:3:0:0:
356,334,195710,1,2,0:3:0:0:
199,176,195842,1,8,0:0:0:0:
199,271,195973,1,8,0:0:0:0:
414,214,196105,1,0,0:0:0:0:
332,167,196237,1,8,0:0:0:0:
180,283,196368,6,0,P|112:281|43:285,1,137.5,12|0,0:3|0:0,0:0:0:0:
262,382,196631,1,8,0:0:0:0:
366,292,196763,1,8,0:0:0:0:
265,310,196895,5,0,0:0:0:0:
436,282,197026,1,8,0:0:0:0:
408,111,197158,1,8,0:0:0:0:
237,139,197289,1,8,0:0:0:0:
102,278,197421,6,0,B|113:362,2,82.5000031471254,4|0|2,0:3|0:0|0:0,0:0:0:0:
10,323,197816,2,0,B|-1:239,2,82.5000031471254,0|0|2,0:0|0:0|0:0,0:0:0:0:
109,175,198210,2,0,B|98:93,1,82.5000031471254,2|0,0:0|0:0,0:0:0:0:
240,244,198474,6,0,B|295:249|295:249|323:267,2,82.5000031471254,2|0|2,0:0|0:0|0:0,0:0:0:0:
235,148,198868,2,0,B|180:143|180:143|152:125,2,82.5000031471254,2|0|2,0:0|0:0|0:0,0:0:0:0:
447,61,199263,5,0,0:0:0:0:
433,52,199526,2,0,B|332:63,2,82.5000031471254,4|0|0,1:3|0:0|0:0,0:0:0:0:
195,27,199921,2,0,B|278:36,2,82.5000031471254,2|0|0,1:2|0:0|0:0,0:0:0:0:
117,67,200316,2,0,B|35:76,1,82.5000031471254,2|0,1:2|0:0,0:0:0:0:
29,217,200579,2,0,B|13:270|13:270|49:391,1,165.000006294251,8|0,0:3|0:0,0:0:0:0:
97,269,200974,2,0,B|128:164|128:164|112:110,1,165.000006294251,2|2,0:0|0:0,0:0:0:0:
112,110,201368,1,0,0:0:0:0:
208,313,201631,6,0,P|231:214|301:288,2,247.500009441376,12|0|0,1:3|1:0|1:0,0:0:0:0:
468,273,202684,6,0,P|444:371|374:297,2,247.500009441376,12|0|0,1:3|1:0|1:0,0:0:0:0:
496,122,203737,5,12,0:3:0:0:
400,85,203868,1,0,0:0:0:0:
299,107,204000,1,10,0:0:0:0:
299,107,204066,1,0,0:0:0:0:
299,107,204131,1,0,0:0:0:0:
213,0,204263,5,2,0:0:0:0:
175,83,204395,2,0,P|124:50|62:57,1,123.750004720688,2|0,0:0|2:0,0:0:0:0:
102,142,204658,2,0,P|93:222|104:330,1,165.000006294251,12|10,1:3|0:0,0:0:0:0:
126,384,205053,1,10,0:0:0:0:
173,291,205184,2,0,L|278:308,1,82.5000031471254,12|0,0:3|0:0,0:0:0:0:
379,360,205447,2,0,L|297:373,2,82.5000031471254,10|10|2,0:0|0:0|0:0,0:0:0:0:
465,249,205842,6,0,P|466:205|471:160,1,82.5000031471254,4|0,1:3|0:0,0:0:0:0:
293,15,206237,1,0,0:0:0:0:
308,127,206368,1,8,1:0:0:0:
12,259,206631,5,2,0:0:0:0:
110,197,206763,2,0,L|208:210,1,82.5000031471254,0|0,1:0|0:0,0:0:0:0:
81,120,207026,2,0,L|-17:133,1,82.5000031471254,0|8,1:0|1:0,0:0:0:0:
216,199,207289,1,2,0:0:0:0:
181,84,207421,1,8,1:0:0:0:
179,223,207553,1,2,0:0:0:0:
217,59,207684,1,0,1:0:0:0:
302,149,207816,1,0,1:0:0:0:
316,166,207947,5,4,1:3:0:0:
401,77,208079,1,0,0:0:0:0:
216,313,208342,5,2,0:0:0:0:
287,271,208474,2,0,L|396:280,1,82.5000031471254,8|0,1:0|0:0,0:0:0:0:
160,98,208737,5,0,1:0:0:0:
182,177,208868,1,0,1:0:0:0:
336,92,209131,1,2,1:2:0:0:
227,307,209395,5,0,1:0:0:0:
276,200,209526,1,8,1:0:0:0:
257,272,209658,1,2,0:0:0:0:
306,165,209789,1,8,1:0:0:0:
227,307,209921,1,8,1:0:0:0:
458,280,210053,6,0,P|419:266|379:274,1,82.5000031471254,4|0,1:3|0:0,0:0:0:0:
266,134,210447,5,0,0:0:0:0:
245,54,210579,1,8,1:0:0:0:
133,274,210842,6,0,P|123:229|123:174,1,82.5000031471254
97,346,211105,2,0,L|8:336,2,82.5000031471254,8|0|0,0:3|0:0|0:0,0:0:0:0:
176,384,211500,1,2,0:0:0:0:
232,336,211631,1,8,1:0:0:0:
305,321,211763,5,0,0:0:0:0:
201,215,211895,1,8,1:0:0:0:
342,139,212026,1,8,1:0:0:0:
168,74,212158,6,0,P|104:102|35:141,1,142.99999345398,12|0,0:3|0:0,0:0:0:0:
344,310,212421,2,0,P|408:282|477:243,1,142.99999345398,4|0,0:3|0:0,0:0:0:0:
363,87,212684,1,2,1:0:0:0:
223,171,212816,1,2,0:0:0:0:
223,171,212947,1,10,0:0:0:0:
168,74,213079,6,0,B|266:101|266:101|322:155|322:155|450:197,1,285.99998690796,12|10,0:3|0:0,0:0:0:0:
363,87,213474,1,10,0:0:0:0:
223,171,213605,2,0,B|236:325,1,142.99999345398,2|0,0:0|0:0,0:0:0:0:
99,93,213868,5,10,1:0:0:0:
76,77,214000,5,10,1:0:0:0:
143,54,214131,5,10,1:0:0:0:
88,170,214263,5,6,1:0:0:0:
253,51,214395,2,0,L|331:63,1,55,2|0,1:0|0:0,0:0:0:0:
162,123,214658,1,0,1:0:0:0:
327,242,214789,2,0,L|381:233,1,55,0|2,1:0|0:1,0:0:0:0:
190,239,215053,1,2,1:0:0:0:
355,120,215184,2,0,L|409:128,1,55,2|0,1:0|0:0,0:0:0:0:
251,186,215447,1,2,1:0:0:0:
416,305,215579,2,0,L|470:296,1,55,10|0,1:0|0:0,0:0:0:0:
269,86,215842,1,8,1:0:0:0:
306,367,215974,6,0,B|229:242|329:139|539:174|493:379|333:409|368:254,1,440,8|0,0:3|0:3,0:0:0:0:
437,164,216368,5,4,0:3:0:0:
259,51,216500,2,0,L|181:63,1,55
350,123,216763,1,2,1:0:0:0:
185,242,216895,2,0,L|130:233,1,55,2|0,1:0|0:0,0:0:0:0:
322,239,217158,1,2,1:0:0:0:
157,120,217289,2,0,L|102:128,1,55,2|0,1:0|0:0,0:0:0:0:
261,186,217553,1,2,1:0:0:0:
96,305,217684,2,0,L|41:296,1,55,10|2,1:0|0:1,0:0:0:0:
243,86,217947,1,8,1:0:0:0:
206,367,218079,6,0,B|283:242|183:139|-27:174|19:379|179:409|144:254,1,440,8|0,0:3|0:0,0:0:0:0:
93,32,218474,5,12,1:3:0:0:
261,186,218605,2,0,L|251:263,1,55,0|2,0:0|1:0,0:0:0:0:
228,68,218868,1,2,1:0:0:0:
60,222,219000,2,0,L|70:299,1,55,2|0,1:0|0:0,0:0:0:0:
140,143,219263,1,2,1:0:0:0:
308,297,219395,2,0,L|298:374,1,55,2|0,1:0|0:0,0:0:0:0:
332,112,219658,1,2,1:0:0:0:
164,266,219789,2,0,L|174:343,1,55,10|2,1:0|1:0,0:0:0:0:
210,62,220053,1,10,1:0:0:0:
398,171,220184,6,0,B|451:143|524:149|524:149|463:101|427:11|427:11|425:106|391:173,1,440,8|0,0:3|0:0,0:0:0:0:
419,352,220579,5,4,1:3:0:0:
251,198,220710,2,0,L|261:121,1,55
284,316,220974,1,2,1:0:0:0:
452,162,221105,2,0,L|442:85,1,55,2|0,1:0|0:0,0:0:0:0:
372,241,221368,1,2,1:0:0:0:
204,87,221500,2,0,L|214:10,1,55,2|0,1:0|0:0,0:0:0:0:
180,272,221763,1,2,1:0:0:0:
348,118,221895,2,0,L|338:41,1,55,10|2,1:0|1:0,0:0:0:0:
302,322,222158,1,4,1:2:0:0:
114,213,222289,6,0,B|61:241|-12:234|-12:234|49:283|84:372|84:372|87:278|121:210,1,440,12|0,1:3|0:0,0:0:0:0:
1,154,222684,6,0,P|44:153|90:137,2,82.5,12|2|4,1:3|0:1|0:0,0:0:0:0:
133,63,223210,2,0,B|128:-3,1,55,8|0,1:0|0:0,0:0:0:0:
353,218,223474,6,0,P|404:216|475:223,1,98.9999969787599,2|4,1:0|0:0,0:0:0:0:
255,336,223737,2,0,B|280:282|280:282|267:194,2,148.49999546814,2|2|4,1:0|0:1|0:0,0:0:0:0:
360,172,224263,2,0,P|301:107|196:127,1,197.99999395752,10|2,1:0|1:0,0:0:0:0:
181,212,224658,1,4,0:0:0:0:
55,54,224789,5,12,1:3:0:0:
256,192,224855,12,0,226105,0:0:0:0:
96,256,226368,5,8,1:0:0:0:
112,272,226500,1,4,0:0:0:0:
128,288,226631,1,0,1:0:0:0:
40,208,226763,1,8,1:0:0:0:
199,159,226895,5,12,1:3:0:0:
184,336,227026,1,0,0:0:0:0:
64,128,227289,5,2,1:0:0:0:
295,96,227421,1,10,1:0:0:0:
110,292,227684,5,2,1:0:0:0:
144,96,227816,1,2,1:0:0:0:
264,313,228079,5,2,1:0:0:0:
156,101,228210,1,10,1:0:0:0:
444,197,228474,5,2,1:0:0:0:
304,72,228605,1,2,1:0:0:0:
462,35,228737,5,10,1:0:0:0:
285,233,228868,1,4,0:0:0:0:
285,233,229000,2,0,L|304:344,1,98.9999969787599,6|2,1:0|1:0,0:0:0:0:
96,128,229395,2,0,L|77:17,1,98.9999969787599,2|10,1:0|1:0,0:0:0:0:
176,232,229789,2,0,L|194:342,1,98.9999969787599,2|4,1:0|0:0,0:0:0:0:
184,144,230053,5,12,1:3:0:0:
184,144,230118,1,0,1:0:0:0:
184,144,230184,1,10,1:0:0:0:
256,96,230316,1,10,1:0:0:0:
176,48,230447,1,2,1:0:0:0:
312,168,230579,5,12,1:3:0:0:
360,96,230710,1,10,1:0:0:0:
296,192,230842,1,10,1:0:0:0:
496,144,230974,1,2,1:0:0:0:
440,352,231105,6,2,B|352:368|312:304|312:304|294:259|272:301|272:301|224:384|96:376|56:240|146:182,1,494.999984893799,14|2,1:3|1:2,0:0:0:0:
191,258,231895,2,0,P|206:238|223:220,2,49.4999984893799,10|0|2,0:0|0:0|0:0,0:0:0:0:
172,88,232158,6,0,P|147:98|122:103,1,49.4999984893799,2|0,0:0|2:0,0:0:0:0:
46,130,232289,2,2,B|108:144|163:125|163:125|219:106|219:106|269:167|339:203|408:90|396:34|257:-2|241:118|336:107,1,494.999984893799,6|8,0:0|1:0,0:0:0:0:
412,156,233013,1,0,0:0:0:0:
427,147,233079,1,10,0:0:0:0:
358,211,233210,6,0,B|321:303|321:303|382:385,1,197.99999395752,12|10,1:3|0:0,0:0:0:0:
469,375,233605,1,2,0:2:0:0:
469,375,233737,2,0,B|506:283|506:283|447:203,1,197.99999395752,6|10,1:0|0:0,0:0:0:0:
459,63,234131,1,2,0:0:0:0:
417,292,234263,5,4,1:2:0:0:
417,292,234329,1,0,0:0:0:0:
417,292,234395,1,8,0:0:0:0:
395,144,234526,1,10,0:0:0:0:
311,194,234658,1,2,0:0:0:0:
395,144,234789,5,4,0:2:0:0:
395,144,234855,1,0,0:0:0:0:
395,144,234921,1,10,0:0:0:0:
334,2,235053,1,10,0:0:0:0:
247,25,235184,1,10,0:0:0:0:
159,117,235316,6,0,P|207:124|252:146,1,98.9999969787599,12|2,1:3|0:0,0:0:0:0:
323,200,235579,2,0,P|351:240|368:286,1,98.9999969787599,10|8,0:0|0:0,0:0:0:0:
446,117,235842,1,2,0:0:0:0:
348,119,235974,1,10,0:0:0:0:
252,146,236105,1,10,0:0:0:0:
167,195,236237,1,4,0:3:0:0:
80,172,236500,5,4,0:3:0:0:
80,172,236763,6,0,P|35:142|98:160,1,197.99999395752,12|10,0:3|0:0,0:0:0:0:
23,250,237158,1,10,0:0:0:0:
89,309,237289,1,2,0:0:0:0:
14,330,237421,5,12,0:3:0:0:
131,231,237553,1,2,0:0:0:0:
231,345,237684,1,10,0:0:0:0:
255,340,237750,1,0,0:0:0:0:
279,341,237816,1,2,0:0:0:0:
303,350,237881,1,0,0:0:0:0:
323,364,237947,2,0,B|310:312|310:312|327:270,1,98.9999969787599,10|2,0:0|0:0,0:0:0:0:
398,229,238210,2,0,B|411:281|411:281|394:323,1,98.9999969787599,10|2,0:0|0:0,0:0:0:0:
240,109,238474,5,2,0:0:0:0:
215,105,238539,1,0,0:0:0:0:
193,114,238605,2,0,P|159:142|153:156,1,49.4999984893799,2|0,0:0|0:0,0:0:0:0:
242,312,238737,1,10,0:0:0:0:
267,316,238803,1,0,0:0:0:0:
289,307,238868,2,0,P|322:278|328:264,1,49.4999984893799,10|0,0:0|0:0,0:0:0:0:
329,182,239000,6,2,B|362:136|439:129|474:194|474:194|442:128|491:50,1,296.99999093628,12|0,0:3|2:0,0:0:0:0:
403,24,239526,5,12,1:3:0:0:
321,60,239658,1,2,1:0:0:0:
398,229,239789,2,2,B|285:205|285:205|217:232|217:232|132:207|132:207|188:256|188:256|302:282|302:282|324:295,1,494.999984893799,4|0,0:3|2:0,0:0:0:0:
472,270,240579,6,0,P|478:205|435:157,2,131.99999597168
286,96,241105,2,2,B|193:133|193:133|100:98,1,197.99999395752,4|10,0:3|0:0,0:0:0:0:
192,55,241500,1,10,0:0:0:0:
248,200,241631,6,0,B|368:152,1,98.9999969787599,12|0,0:3|0:0,0:0:0:0:
408,32,241895,6,0,L|480:48,2,65.9999979858399,4|2|2,0:3|0:0|0:0,0:0:0:0:
424,120,242158,1,2,0:0:0:0:
444,147,242224,1,0,0:0:0:0:
454,180,242289,1,2,0:0:0:0:
454,215,242355,1,0,0:0:0:0:
443,247,242421,1,10,0:0:0:0:
416,268,242487,1,0,0:0:0:0:
408,301,242553,1,10,0:0:0:0:
424,331,242618,1,0,0:0:0:0:
455,344,242684,5,2,0:0:0:0:
487,333,242750,1,0,0:0:0:0:
505,304,242816,1,10,0:0:0:0:
499,270,242881,1,0,0:0:0:0:
471,250,242947,1,10,0:0:0:0:
439,237,243013,1,0,0:0:0:0:
405,233,243079,1,2,0:0:0:0:
371,238,243145,1,0,0:0:0:0:
344,260,243210,5,12,0:3:0:0:
311,266,243276,1,0,0:0:0:0:
278,256,243342,1,0,0:0:0:0:
255,231,243408,1,0,0:0:0:0:
246,198,243474,1,8,0:0:0:0:
213,177,243539,1,0,0:0:0:0:
174,180,243605,1,8,0:0:0:0:
146,206,243671,1,0,0:0:0:0:
139,244,243737,6,0,P|144:304|120:344,1,98.9999969787599,12|2,0:3|0:0,0:0:0:0:
280,344,244000,2,0,P|248:336|214:338,2,65.9999979858399,10|0|0,0:0|0:0|0:0,0:0:0:0:
344,304,244263,1,4,0:3:0:0:
396,358,244351,1,2,0:0:0:0:
469,341,244439,1,2,0:0:0:0:
491,268,244526,2,0,P|482:237|479:204,2,65.9999979858399,10|2|2,0:0|0:0|0:0,0:0:0:0:
464,112,244789,5,12,0:3:0:0:
396,79,244877,1,2,0:0:0:0:
339,128,244965,1,2,0:0:0:0:
360,199,245053,1,4,0:3:0:0:
317,262,245140,1,0,0:0:0:0:
241,265,245228,1,0,0:0:0:0:
193,205,245316,2,0,P|184:160|192:112,2,65.9999979858399,12|2|2,0:3|0:0|0:0,0:0:0:0:
264,32,245579,2,0,P|261:78|241:122,2,65.9999979858399,10|10|10,0:0|0:0|0:0,0:0:0:0:
144,48,245842,5,12,0:3:0:0:
70,71,245930,1,0,0:0:0:0:
34,139,246017,1,0,0:0:0:0:
56,213,246105,2,0,B|64:248|64:248|53:291,2,80.6666691284181,10|0|0,0:0|0:0|0:0,0:0:0:0:
112,136,246368,1,2,0:0:0:0:
188,149,246456,1,2,0:0:0:0:
234,213,246544,1,2,0:0:0:0:
221,291,246631,2,0,B|208:344|208:344|216:384,2,80.6666691284181,10|8|8,0:0|0:0|0:0,0:0:0:0:
312,176,246895,6,0,L|416:192,1,80.6666691284181,12|0,0:3|0:0,0:0:0:0:
214,52,247070,1,0,0:0:0:0:
157,55,247158,1,10,0:0:0:0:
100,60,247246,1,2,0:0:0:0:
44,65,247333,1,2,0:0:0:0:
246,216,247421,5,10,0:0:0:0:
280,170,247509,1,8,0:0:0:0:
331,147,247596,1,8,0:0:0:0:
387,151,247684,1,8,0:0:0:0:
431,186,247772,1,8,0:0:0:0:
463,172,247860,1,8,0:0:0:0:
488,152,247947,6,0,B|448:144|448:144|376:136,1,110,12|0,1:3|0:0,0:0:0:0:
200,64,248210,2,0,B|240:56|240:56|312:48,1,110,2|0,1:0|1:0,0:0:0:0:
408,40,248474,1,10,1:0:0:0:
504,48,248605,1,0,0:0:0:0:
408,48,248737,1,2,1:0:0:0:
504,56,248868,1,8,1:0:0:0:
296,144,249000,6,0,B|289:203|289:203|305:251,1,110,12|0,1:3|0:0,0:0:0:0:
408,256,249263,1,10,1:0:0:0:
352,320,249395,1,2,1:0:0:0:
425,257,249526,1,8,1:0:0:0:
334,318,249658,1,8,0:3:0:0:
448,264,249789,1,2,1:0:0:0:
311,311,249921,1,10,1:0:0:0:
23,223,250053,6,0,B|63:231|63:231|135:239,1,110,12|0,1:3|0:0,0:0:0:0:
311,311,250316,2,0,B|271:319|271:319|199:327,1,110,2|2,1:0|1:0,0:0:0:0:
103,335,250579,1,10,1:0:0:0:
7,327,250710,1,0,0:0:0:0:
103,327,250842,1,2,1:0:0:0:
7,319,250974,1,10,1:0:0:0:
215,231,251105,6,0,B|221:171|221:171|205:123,1,110,12|0,1:3|0:0,0:0:0:0:
103,119,251368,1,10,1:0:0:0:
144,184,251500,1,2,1:0:0:0:
85,117,251631,1,10,1:0:0:0:
176,56,251763,1,8,1:3:0:0:
62,110,251895,1,10,1:0:0:0:
199,63,252026,1,10,1:0:0:0:
296,184,252158,6,0,B|309:217|309:217|293:289,1,110,12|0,1:3|0:0,0:0:0:0:
352,128,252421,1,2,1:0:0:0:
312,40,252553,1,2,1:0:0:0:
371,132,252684,1,10,1:0:0:0:
292,35,252816,1,0,0:0:0:0:
398,131,252947,1,2,1:0:0:0:
232,224,253079,1,10,1:0:0:0:
376,368,253210,6,0,L|400:248,1,110,12|0,1:3|0:0,0:0:0:0:
292,35,253474,2,0,L|316:155,1,110,10|2,1:0|1:0,0:0:0:0:
398,131,253737,5,10,1:0:0:0:
311,276,253868,1,2,1:0:0:0:
159,200,254000,1,10,1:0:0:0:
159,200,254131,1,10,1:0:0:0:
176,64,254263,6,0,B|95:76|95:76|64:101,3,121.000003692627,12|2|8|10,1:3|1:0|1:0|1:0,0:0:0:0:
336,144,254789,6,0,B|438:158|438:158|464:144,3,131.99999597168,12|2|10|10,1:3|1:0|1:0|1:0,0:0:0:0:
184,192,255316,6,0,B|89:205|89:205|52:234,3,142.99999345398,12|2|10|10,1:3|1:0|1:0|1:0,0:0:0:0:
296,288,255842,6,0,B|413:305|413:305|443:288,3,153.999995300293,12|2|10|10,1:3|1:0|1:0|1:0,0:0:0:0:
24,232,256368,6,0,B|64:240|64:240|136:248,1,110,12|0,1:3|0:0,0:0:0:0:
312,320,256631,2,0,B|272:328|272:328|200:336,1,110,8|0,1:3|0:0,0:0:0:0:
104,344,256895,1,8,1:0:0:0:
8,336,257026,1,0,0:0:0:0:
104,336,257158,1,10,1:0:0:0:
8,328,257289,1,10,1:0:0:0:
216,240,257421,6,0,B|222:180|222:180|206:132,1,110,12|0,1:3|0:0,0:0:0:0:
104,128,257684,1,8,1:3:0:0:
160,64,257816,1,0,0:0:0:0:
86,126,257947,1,10,1:0:0:0:
177,65,258079,1,2,1:0:0:0:
63,119,258210,1,10,1:0:0:0:
200,72,258342,1,10,1:0:0:0:
489,161,258474,6,0,B|449:153|449:153|377:145,1,110,12|0,1:3|0:0,0:0:0:0:
201,73,258737,2,0,B|241:65|241:65|313:57,1,110,8|0,0:3|0:0,0:0:0:0:
409,49,259000,1,10,1:0:0:0:
505,57,259131,1,0,0:0:0:0:
409,57,259263,1,10,1:0:0:0:
505,65,259395,1,10,1:0:0:0:
297,153,259526,6,0,B|290:212|290:212|306:260,1,110,12|0,1:3|0:0,0:0:0:0:
409,265,259789,1,8,1:3:0:0:
368,200,259921,1,2,1:0:0:0:
427,267,260053,1,10,1:0:0:0:
336,328,260184,1,4,1:3:0:0:
450,274,260316,1,10,1:0:0:0:
313,321,260447,1,10,1:0:0:0:
216,200,260579,6,0,B|202:166|202:166|218:94,1,110,12|0,1:3|0:0,0:0:0:0:
160,256,260842,1,8,1:3:0:0:
200,344,260974,1,0,0:0:0:0:
140,251,261105,1,10,1:0:0:0:
219,348,261237,1,0,0:0:0:0:
113,252,261368,1,10,1:0:0:0:
280,160,261500,1,10,1:0:0:0:
136,16,261631,6,0,L|112:136,1,110,12|0,1:3|0:0,0:0:0:0:
220,349,261895,2,0,L|196:229,1,110,8|0,1:3|0:0,0:0:0:0:
215,140,262158,5,10,1:0:0:0:
215,140,262289,1,2,1:0:0:0:
98,351,262421,1,10,1:0:0:0:
98,351,262553,1,10,1:0:0:0:
336,320,262684,6,0,B|416:307|416:307|447:282,3,121.000003692627,12|2|10|10,1:3|1:0|1:0|1:0,0:0:0:0:
176,240,263210,6,0,B|73:224|73:224|48:238,3,131.99999597168,12|2|10|2,1:3|1:0|1:0|1:0,0:0:0:0:
328,192,263737,6,0,B|422:177|422:177|459:147,3,142.99999345398,12|2|10|10,1:3|1:0|1:0|1:0,0:0:0:0:
216,96,264263,6,0,B|96:77|96:77|67:94,3,153.999995300293,12|2|10|10,1:3|1:0|1:0|1:0,0:0:0:0:
488,312,264789,5,12,1:3:0:0:
392,280,264921,1,0,0:0:0:0:
296,304,265053,5,8,0:0:0:0:
392,296,265184,1,0,0:0:0:0:
480,336,265316,1,0,0:0:0:0:
320,216,265447,2,0,P|312:152|320:80,1,131.99999597168,0|8,0:0|0:0,0:0:0:0:
264,360,265710,6,0,P|240:271|64:264,1,263.99999194336
16,304,266105,1,8,0:0:0:0:
72,232,266237,1,0,0:0:0:0:
24,152,266368,2,0,P|26:87|4:17,1,131.99999597168
240,112,266631,5,8,0:0:0:0:
272,216,266763,1,8,0:0:0:0:
336,48,266895,6,0,P|405:39|472:58,1,131.99999597168,4|0,0:0|0:0,0:0:0:0:
246,206,267158,2,0,P|177:197|110:216,1,131.99999597168,8|0,0:0|0:0,0:0:0:0:
32,152,267421,5,0,0:0:0:0:
144,299,267553,1,0,0:0:0:0:
240,112,267684,1,8,0:0:0:0:
161,290,267816,6,0,B|248:305|248:305|330:281|330:281|425:297,1,263.99999194336
215,137,268210,1,8,0:0:0:0:
140,163,268342,2,0,P|73:222|93:390,1,263.99999194336
87,384,268671,1,0,0:0:0:0:
87,384,268737,2,0,P|152:367|226:370,1,131.99999597168,8|8,0:0|0:0,0:0:0:0:
306,307,269000,6,0,P|305:241|295:175,1,131.99999597168
344,104,269263,1,8,0:0:0:0:
416,56,269395,1,0,0:0:0:0:
448,272,269526,1,0,0:0:0:0:
408,192,269658,1,0,0:0:0:0:
324,368,269789,1,8,0:0:0:0:
256,320,269921,6,0,B|368:336|368:336|408:312|408:312|536:336,1,263.99999194336
336,240,270316,2,0,B|312:192|312:192|328:96,1,131.99999597168,8|0,0:0|0:0,0:0:0:0:
256,48,270579,1,0,0:0:0:0:
392,176,270710,5,0,0:0:0:0:
448,104,270842,1,8,0:0:0:0:
456,104,270974,1,8,0:0:0:0:
240,128,271105,6,0,L|109:106,1,131.99999597168,4|0,0:3|0:0,0:0:0:0:
56,32,271368,1,8,0:0:0:0:
56,32,271434,1,0,0:0:0:0:
56,32,271500,1,0,0:0:0:0:
259,135,271631,5,0,0:0:0:0:
48,176,271763,1,0,0:0:0:0:
151,312,271895,1,8,0:0:0:0:
216,40,272026,6,0,B|318:28|318:28|378:47|378:47|504:32,1,263.99999194336
308,105,272421,1,8,0:0:0:0:
143,5,272553,1,8,0:0:0:0:
229,248,272684,5,0,0:0:0:0:
407,129,272816,2,0,L|143:161,1,263.99999194336
36,354,273210,5,0,0:0:0:0:
163,335,273342,1,0,0:0:0:0:
51,364,273474,2,0,P|51:301|46:232,1,131.99999597168,8|0,0:0|0:0,0:0:0:0:
110,170,273737,6,0,P|175:165|247:165,1,131.99999597168
330,105,274000,1,8,0:0:0:0:
280,240,274131,2,0,P|326:358|464:336,1,263.99999194336
384,264,274526,1,8,0:0:0:0:
384,264,274658,1,0,0:0:0:0:
120,208,274789,5,0,0:0:0:0:
169,144,274921,1,0,0:0:0:0:
133,71,275053,1,8,0:0:0:0:
133,71,275184,1,8,0:0:0:0:
53,256,275316,6,0,P|60:327|84:396,1,131.99999597168
262,228,275579,2,0,P|254:156|230:87,1,131.99999597168,8|0,0:0|0:0,0:0:0:0:
488,288,275842,5,0,0:0:0:0:
289,359,275974,1,0,0:0:0:0:
289,359,276105,1,8,0:0:0:0:
394,187,276237,6,0,B|387:318,1,131.99999597168
319,222,276500,1,0,0:0:0:0:
504,168,276631,1,8,0:0:0:0:
304,16,276763,2,0,P|300:80|304:152,1,131.99999597168
189,24,277026,1,0,0:0:0:0:
80,64,277158,1,8,0:0:0:0:
80,64,277289,1,8,0:0:0:0:
360,128,277421,6,0,P|431:138|501:157,1,131.99999597168
163,275,277684,1,8,0:0:0:0:
130,170,277816,1,0,0:0:0:0:
208,200,277947,5,0,0:0:0:0:
48,177,278079,1,0,0:0:0:0:
117,346,278210,1,8,0:0:0:0:
117,346,278276,1,0,0:0:0:0:
117,346,278342,1,0,0:0:0:0:
272,238,278474,6,0,L|409:255,1,131.99999597168
493,224,278737,1,8,0:0:0:0:
493,224,278868,1,0,0:0:0:0:
274,127,279000,5,0,0:0:0:0:
417,262,279131,1,0,0:0:0:0:
427,69,279263,1,12,0:3:0:0:
272,344,279526,6,0,P|202:347|123:352,1,131.99999597168
381,262,279789,2,0,P|451:259|530:254,1,131.99999597168,8|0,0:0|0:0,0:0:0:0:
325,212,280053,1,0,0:0:0:0:
440,338,280184,1,0,0:0:0:0:
358,136,280316,1,8,0:0:0:0:
358,136,280447,1,8,0:0:0:0:
168,272,280579,5,0,0:0:0:0:
240,104,280710,1,0,0:0:0:0:
59,126,280842,5,8,0:0:0:0:
160,176,280974,1,0,0:0:0:0:
112,48,281105,5,8,0:0:0:0:
88,304,281237,1,0,0:0:0:0:
264,248,281368,5,8,0:0:0:0:
77,295,281500,1,0,0:0:0:0:
392,352,281631,1,12,1:3:0:0:
338,290,282158,5,2,0:3:0:0:
371,362,282290,1,2,0:3:0:0:
512,136,282421,1,2,0:3:0:0:
440,103,282553,2,0,P|368:95|304:103,1,131.99999597168,2|0,0:0|0:0,0:0:0:0:
463,256,282816,5,8,0:0:0:0:
491,337,282947,1,8,0:0:0:0:
476,358,283210,5,8,0:0:0:0:
447,247,283342,1,8,0:0:0:0:
321,361,283474,6,0,P|259:355|181:355,1,131.99999597168
100,318,283737,1,12,0:3:0:0:
355,260,283868,5,0,0:3:0:0:
87,329,284000,1,0,0:3:0:0:
254,200,284263,5,8,0:0:0:0:
18,369,284395,1,0,0:0:0:0:
98,330,284526,1,8,0:0:0:0:
190,286,284658,6,0,B|300:274|300:274|336:244|336:244|461:226,1,263.99999194336,12|0,0:3|0:0,0:0:0:0:
512,265,285053,1,2,0:2:0:0:
262,199,285184,2,0,L|0:226,1,263.99999194336,12|0,0:3|0:0,0:0:0:0:
369,318,285579,1,8,0:0:0:0:
402,159,285710,1,8,0:0:0:0:
208,80,285842,6,0,L|76:92,1,131.99999597168,4|0,0:3|0:0,0:0:0:0:
256,160,286105,1,8,0:0:0:0:
200,232,286237,1,0,0:0:0:0:
472,336,286368,5,0,0:0:0:0:
400,176,286500,1,0,0:0:0:0:
312,328,286631,1,8,0:0:0:0:
384,288,286763,2,0,B|271:279|271:279|215:302|215:302|119:295,1,263.99999194336
57,337,287158,1,8,0:0:0:0:
57,337,287289,1,0,0:0:0:0:
202,227,287421,6,0,P|206:161|193:96,1,131.99999597168
133,25,287684,1,8,0:0:0:0:
178,91,287816,1,8,0:0:0:0:
16,136,287947,5,4,0:3:0:0:
95,169,288079,1,0,0:0:0:0:
98,255,288210,1,8,0:0:0:0:
108,163,288342,1,0,0:0:0:0:
157,328,288474,2,0,P|222:319|288:314,1,131.99999597168
329,246,288737,1,8,0:0:0:0:
319,167,288868,1,8,0:0:0:0:
392,344,289000,5,12,0:3:0:0:
416,256,289131,1,0,0:3:0:0:
345,167,289263,5,8,0:0:0:0:
435,260,289395,1,8,0:0:0:0:
258,188,289526,5,8,0:0:0:0:
386,85,289658,1,8,0:1:0:0:
172,200,289789,5,8,0:3:0:0:
254,0,289921,1,0,0:0:0:0:
80,72,290053,6,0,B|195:58|195:58|243:78|243:78|353:61,1,275,12|8,0:3|0:1,0:0:0:0:
386,326,290579,5,8,0:0:0:0:
206,298,290710,1,8,0:0:0:0:
319,155,290842,1,8,0:0:0:0:
107,198,290974,6,0,P|89:263|106:333,1,137.5,4|0,0:3|0:0,0:0:0:0:
286,99,291237,1,0,0:0:0:0:
348,152,291368,2,0,L|485:160,1,137.5,8|0,0:0|0:0,0:0:0:0:
332,268,291631,2,0,L|194:259,1,137.5,8|0,0:0|0:0,0:0:0:0:
305,49,291895,5,8,0:0:0:0:
383,6,292026,1,8,0:0:0:0:
465,43,292158,2,0,B|423:104|457:166|457:166|502:243|456:303,1,275,12|8,0:3|0:0,0:0:0:0:
88,344,292684,5,8,0:0:0:0:
8,192,292816,1,8,0:0:0:0:
127,261,292947,1,8,0:0:0:0:
151,273,293079,6,0,P|169:207|153:141,1,137.5,4|0,0:3|0:0,0:0:0:0:
444,89,293342,1,8,0:0:0:0:
336,174,293474,1,8,0:0:0:0:
250,67,293605,2,0,P|126:24|34:116,1,275,4|0,0:3|0:0,0:0:0:0:
312,320,294000,5,8,0:0:0:0:
339,240,294131,1,0,0:0:0:0:
168,352,294263,6,0,P|41:352|49:199,1,275,12|0,0:3|0:0,0:0:0:0:
80,150,294658,1,0,0:0:0:0:
80,150,294789,1,8,0:0:0:0:
168,352,294921,5,0,0:0:0:0:
254,379,295053,1,12,0:0:0:0:
332,336,295184,2,0,B|358:264|309:206|309:206|258:144|286:77,1,275,4|0,0:0|0:0,0:0:0:0:
374,164,295579,2,0,P|444:154|511:153,1,137.5,8|0,0:0|0:0,0:0:0:0:
221,29,295842,6,0,P|153:31|83:39,1,137.5
0,190,296105,1,8,0:0:0:0:
173,120,296237,1,8,0:0:0:0:
111,305,296368,5,0,0:0:0:0:
82,236,296500,1,0,0:0:0:0:
111,166,296631,1,8,0:0:0:0:
181,137,296763,1,0,0:0:0:0:
251,166,296895,2,0,L|388:157,1,137.5
170,124,297158,2,0,L|32:132,1,137.5,8|0,0:0|0:0,0:0:0:0:
321,218,297421,5,12,0:3:0:0:
481,176,297553,1,0,0:0:0:0:
266,230,297684,5,0,0:0:0:0:
428,188,297816,1,0,0:0:0:0:
360,151,297947,5,8,0:0:0:0:
387,255,298079,1,0,0:0:0:0:
346,98,298210,5,12,0:3:0:0:
400,308,298342,1,8,0:0:0:0:
176,136,298474,6,0,L|24:152,1,137.5,10|0,0:3|0:0,0:0:0:0:
250,205,298737,1,8,0:1:0:0:
110,58,298868,1,0,0:0:0:0:
260,198,299000,5,2,0:3:0:0:
409,33,299131,1,0,0:0:0:0:
492,138,299263,2,0,L|355:152,1,137.5,8|0,0:1|0:0,0:0:0:0:
80,64,299526,5,2,0:3:0:0:
216,144,299658,1,0,0:0:0:0:
304,32,299789,1,8,0:1:0:0:
232,56,299921,5,0,0:0:0:0:
352,272,300053,2,0,L|512:240,1,137.5,2|0,0:3|0:0,0:0:0:0:
288,208,300316,1,8,0:1:0:0:
232,360,300447,1,8,0:0:0:0:
328,352,300579,5,10,0:3:0:0:
256,280,300710,1,0,0:0:0:0:
72,312,300842,1,8,0:1:0:0:
88,216,300974,1,0,0:0:0:0:
208,128,301105,1,2,0:3:0:0:
133,71,301237,1,0,0:0:0:0:
67,227,301368,1,8,0:1:0:0:
168,320,301500,6,0,B|216:344|216:344|336:312,1,137.5,0|2,0:0|0:3,0:0:0:0:
359,375,301763,1,0,0:0:0:0:
359,375,301895,1,8,0:1:0:0:
383,221,302026,6,0,B|217:263,1,137.5,0|2,0:0|0:3,0:0:0:0:
190,312,302289,1,0,0:0:0:0:
339,154,302421,6,0,B|472:120,1,137.5,8|8,0:1|0:0,0:0:0:0:
6,70,302684,5,10,0:3:0:0:
82,168,302816,1,0,0:0:0:0:
160,73,302947,2,0,L|322:63,1,137.5,8|0,0:1|0:0,0:0:0:0:
479,279,303210,5,2,0:3:0:0:
512,189,303342,1,0,0:0:0:0:
433,135,303474,2,0,L|271:145,1,137.5,8|0,0:1|0:0,0:0:0:0:
408,384,303737,6,0,P|389:314|389:236,1,137.5,2|0,0:3|0:0,0:0:0:0:
371,168,304000,1,8,0:1:0:0:
353,87,304131,1,0,0:0:0:0:
213,147,304263,6,0,P|215:219|232:295,1,137.5,2|0,0:3|0:0,0:0:0:0:
163,86,304526,1,8,0:1:0:0:
296,134,304658,1,0,0:0:0:0:
137,160,304789,6,0,L|-11:162,1,137.5,10|0,0:3|0:0,0:0:0:0:
384,72,305053,1,8,0:1:0:0:
384,72,305184,1,0,0:0:0:0:
320,153,305316,1,2,0:3:0:0:
280,248,305447,5,0,0:0:0:0:
116,7,305579,1,8,0:1:0:0:
37,64,305710,2,0,B|96:23|166:60|166:60|236:98|295:47,1,275,6|0,0:3|0:0,0:0:0:0:
294,47,306105,1,8,0:1:0:0:
103,136,306237,2,0,P|90:189|90:277,1,137.5,6|2,0:3|0:3,0:0:0:0:
103,347,306500,5,0,0:0:0:0:
225,259,306631,1,8,0:1:0:0:
311,384,306763,1,8,0:0:0:0:
432,336,306895,6,0,P|419:259|402:202,1,137.5,10|0,0:3|0:0,0:0:0:0:
447,133,307158,1,8,0:1:0:0:
320,336,307289,1,0,0:0:0:0:
295,197,307421,6,0,P|314:131|325:64,1,137.5,2|0,0:3|0:0,0:0:0:0:
216,219,307684,1,8,0:1:0:0:
397,152,307816,1,0,0:0:0:0:
248,32,307947,6,0,L|72:48,1,137.5,2|0,0:3|0:0,0:0:0:0:
16,48,308210,1,8,0:1:0:0:
111,124,308342,1,0,0:0:0:0:
56,232,308474,1,2,0:3:0:0:
43,226,308605,5,0,0:0:0:0:
164,196,308737,1,8,0:1:0:0:
129,315,308868,1,0,0:0:0:0:
330,130,309000,5,10,0:3:0:0:
261,85,309131,1,0,0:0:0:0:
192,40,309263,2,0,L|336:56,1,137.5,8|0,0:1|0:0,0:0:0:0:
488,96,309526,5,2,0:3:0:0:
376,176,309658,1,0,0:0:0:0:
351,42,309789,1,8,0:1:0:0:
168,112,309921,6,0,P|92:121|32:132,1,137.5,0|2,0:0|0:3,0:0:0:0:
72,216,310184,1,0,0:0:0:0:
112,40,310316,1,8,0:1:0:0:
160,224,310447,2,0,P|152:287|161:365,1,137.5,0|2,0:0|0:3,0:0:0:0:
320,119,310710,5,0,0:0:0:0:
300,227,310842,1,8,0:1:0:0:
368,314,310974,1,8,0:0:0:0:
480,144,311105,6,0,P|464:88|464:0,1,137.5,12|0,1:3|0:0,0:0:0:0:
435,215,311368,1,10,1:0:0:0:
435,215,311500,1,0,0:0:0:0:
384,48,311631,2,0,P|315:44|246:49,1,137.5,2|0,1:0|0:0,0:0:0:0:
156,87,311895,1,8,1:0:0:0:
156,87,312026,1,2,1:0:0:0:
273,292,312158,6,0,P|340:286|433:292,1,137.5,6|0,1:0|0:0,0:0:0:0:
220,207,312421,1,10,1:0:0:0:
21,263,312553,1,2,0:0:0:0:
95,331,312684,2,8,P|103:267|95:187,1,137.5,10|2,0:0|0:0,0:0:0:0:
40,104,312947,5,10,0:0:0:0:
164,39,313079,1,10,0:0:0:0:
280,115,313210,1,12,0:3:0:0:
333,242,313342,1,0,0:0:0:0:
253,353,313474,2,8,P|188:352|109:360,1,137.5,10|0,0:0|0:0,0:0:0:0:
0,286,313737,5,10,0:0:0:0:
262,207,313869,1,0,0:0:0:0:
37,182,314000,1,10,0:0:0:0:
111,368,314131,6,0,B|157:192|157:192|103:53,1,330.000012588501,12|8,1:3|1:0,0:0:0:0:
256,336,314526,5,8,1:0:0:0:
400,368,314658,6,0,B|355:192|355:192|408:53,1,330.000012588501,12|8,1:3|1:0,0:0:0:0:
477,151,315053,5,8,1:0:0:0:
35,233,315184,1,12,1:3:0:0:
