osu file format v14

[General]
AudioFilename: audio.mp3
AudioLeadIn: 0
PreviewTime: 219844
Countdown: 0
SampleSet: Soft
StackLeniency: 0.7
Mode: 0
LetterboxInBreaks: 0
WidescreenStoryboard: 0

[Editor]
Bookmarks: 219844
DistanceSpacing: 0.6
BeatDivisor: 4
GridSize: 4
TimelineZoom: 2.5

[Metadata]
Title:Condemnation Wings
TitleUnicode:Condemnation Wings
Artist:Daisuke Ishiwatari
ArtistUnicode:石渡太輔
Creator:Jounzan
Version:Requiem Aeternam
Source:BLAZBLUE CONTINUUM SHIFT
Tags:菊田 大介 Daisuke Kikuta ブレイブルー コンティニュアム シフト Arc System Works Tsubaki Yayoi ツバキ=ヤヨイ 佐藤 ノリチカ Norichika Sato EvilElvis
BeatmapID:1279343
BeatmapSetID:605523

[Difficulty]
HPDrainRate:6
CircleSize:4
OverallDifficulty:9
ApproachRate:9.6
SliderMultiplier:2.4
SliderTickRate:1

[Events]
//Background and Video events
0,0,"yaoihsalt.jpg",0,0
//Break Periods
//Storyboard Layer 0 (Background)
//Storyboard Layer 1 (Fail)
//Storyboard Layer 2 (Pass)
//Storyboard Layer 3 (Foreground)
//Storyboard Sound Samples

[TimingPoints]
310,232.558139534884,4,2,1,30,1,0
310,-200,4,2,1,30,0,0
7751,-100,4,2,1,60,0,0
15193,-100,4,2,1,60,0,1
21589,-100,4,2,1,60,0,0
22635,-100,4,2,1,60,0,1
29030,-100,4,2,1,60,0,0
33333,-200,4,2,1,60,0,0
33798,-111.111111111111,4,2,1,60,0,0
41472,-111.111111111111,4,2,2,60,0,0
41530,-111.111111111111,4,2,1,60,0,0
43333,-111.111111111111,4,2,2,60,0,0
43391,-111.111111111111,4,2,1,60,0,0
44263,-111.111111111111,4,2,2,60,0,0
44321,-111.111111111111,4,2,1,60,0,0
45193,-111.111111111111,4,2,2,60,0,0
45251,-111.111111111111,4,2,1,60,0,0
46123,-111.111111111111,4,2,2,60,0,0
46182,-111.111111111111,4,2,1,60,0,0
56356,-111.111111111111,4,2,2,60,0,0
56414,-111.111111111111,4,2,1,60,0,0
58216,-111.111111111111,4,2,2,60,0,0
58275,-111.111111111111,4,2,1,60,0,0
60077,-111.111111111111,4,2,2,60,0,0
60135,-111.111111111111,4,2,1,60,0,0
61007,-111.111111111111,4,2,2,60,0,0
61065,-111.111111111111,4,2,1,60,0,0
63798,-111.111111111111,4,2,2,60,0,0
63914,-111.111111111111,4,2,1,60,0,0
65658,-111.111111111111,4,2,2,60,0,0
65716,-111.111111111111,4,2,1,60,0,0
67519,-111.111111111111,4,2,2,60,0,0
67635,-111.111111111111,4,2,1,60,0,0
69379,-111.111111111111,4,2,2,60,0,0
69437,-111.111111111111,4,2,1,60,0,0
71240,-111.111111111111,4,2,2,60,0,0
71298,-111.111111111111,4,2,1,60,0,0
76821,-111.111111111111,4,2,2,60,0,0
76879,-111.111111111111,4,2,1,60,0,0
77751,-111.111111111111,4,2,2,60,0,0
77810,-111.111111111111,4,2,1,60,0,0
85891,-200,4,2,1,60,0,0
87751,-100,4,2,1,60,0,1
87984,-100,4,2,2,60,0,1
88042,-100,4,2,1,60,0,1
95426,-100,4,2,2,60,0,1
95484,-100,4,2,1,60,0,1
98914,-100,4,2,1,60,0,0
101937,-100,4,2,1,40,0,0
101996,-100,4,2,1,60,0,0
102635,-100,4,2,1,60,0,1
102868,-100,4,2,2,60,0,1
102926,-100,4,2,1,60,0,1
106589,-100,4,2,2,60,0,1
106647,-100,4,2,1,60,0,1
108449,-100,4,2,2,60,0,1
108507,-100,4,2,1,60,0,1
110310,-100,4,2,2,60,0,1
110368,-100,4,2,1,60,0,1
113798,-100,4,2,1,60,0,0
117519,-100,4,2,1,60,0,1
123914,-100,4,2,1,60,0,0
124961,-100,4,2,1,60,0,1
131356,-100,4,2,1,60,0,0
135658,-200,4,2,1,60,0,0
136123,-111.111111111111,4,2,1,60,0,0
143798,-111.111111111111,4,2,2,60,0,0
143856,-111.111111111111,4,2,1,60,0,0
145658,-111.111111111111,4,2,2,60,0,0
145716,-111.111111111111,4,2,1,60,0,0
146589,-111.111111111111,4,2,2,60,0,0
146647,-111.111111111111,4,2,1,60,0,0
147519,-111.111111111111,4,2,2,60,0,0
147577,-111.111111111111,4,2,1,60,0,0
148449,-111.111111111111,4,2,2,60,0,0
148507,-111.111111111111,4,2,1,60,0,0
158682,-111.111111111111,4,2,2,60,0,0
158740,-111.111111111111,4,2,1,60,0,0
160542,-111.111111111111,4,2,2,60,0,0
160600,-111.111111111111,4,2,1,60,0,0
162403,-111.111111111111,4,2,2,60,0,0
162461,-111.111111111111,4,2,1,60,0,0
163333,-111.111111111111,4,2,2,60,0,0
163391,-111.111111111111,4,2,1,60,0,0
166123,-111.111111111111,4,2,2,60,0,0
166182,-111.111111111111,4,2,1,60,0,0
167984,-111.111111111111,4,2,2,60,0,0
168042,-111.111111111111,4,2,1,60,0,0
169844,-111.111111111111,4,2,2,60,0,0
169903,-111.111111111111,4,2,1,60,0,0
171705,-111.111111111111,4,2,2,60,0,0
171763,-111.111111111111,4,2,1,60,0,0
173565,-111.111111111111,4,2,2,60,0,0
173623,-111.111111111111,4,2,1,60,0,0
175426,-111.111111111111,4,2,2,60,0,0
175484,-111.111111111111,4,2,1,60,0,0
177286,-111.111111111111,4,2,2,60,0,0
177344,-111.111111111111,4,2,1,60,0,0
178216,-111.111111111111,4,2,2,60,0,0
178275,-111.111111111111,4,2,1,60,0,0
179147,-111.111111111111,4,2,2,60,0,0
179205,-111.111111111111,4,2,1,60,0,0
180077,-111.111111111111,4,2,2,60,0,0
180135,-111.111111111111,4,2,1,60,0,0
188216,-200,4,2,1,60,0,0
190077,-100,4,2,1,60,0,1
197751,-100,4,2,2,60,0,1
197810,-100,4,2,1,60,0,1
201240,-100,4,2,1,60,0,0
204263,-100,4,2,1,40,0,0
204321,-100,4,2,1,60,0,0
204961,-100,4,2,1,60,0,1
205193,-100,4,2,2,60,0,1
205251,-100,4,2,1,60,0,1
208914,-100,4,2,2,60,0,1
208972,-100,4,2,1,60,0,1
212635,-100,4,2,2,60,0,1
212693,-100,4,2,1,60,0,1
216123,-100,4,2,1,60,0,0
219903,-100,4,2,1,40,0,0
220542,-100,4,2,1,60,0,0
220600,-100,4,2,1,40,0,0
221705,-100,4,2,1,60,0,0
221763,-100,4,2,1,40,0,0
222403,-100,4,2,1,60,0,0
222461,-100,4,2,1,40,0,0
223100,-133.333333333333,4,2,1,60,0,0
223623,-133.333333333333,4,2,1,40,0,0
224263,-133.333333333333,4,2,1,60,0,0
224321,-133.333333333333,4,2,1,40,0,0
225426,-133.333333333333,4,2,1,60,0,0
225484,-133.333333333333,4,2,1,40,0,0
226240,-133.333333333333,4,2,1,60,0,0
227286,-200,4,2,1,60,0,0
228100,-200,4,2,1,40,0,0
228682,-200,4,2,1,60,0,0
231821,-200,4,2,1,40,0,0
232170,-200,4,2,1,60,0,0
232286,-200,4,2,1,40,0,0
232344,-200,4,2,1,60,0,0
234728,-200,4,2,1,40,0,0
242170,-100,4,2,1,60,0,1
242228,-100,4,2,1,50,0,1
242403,-100,4,2,2,50,0,1
242461,-100,4,2,1,50,0,1
243333,-100,4,2,2,50,0,1
243391,-100,4,2,1,50,0,1
256996,-100,4,2,1,50,0,0
258449,-200,4,2,1,30,0,0
258604,-200,4,2,1,40,0,0
258759,-200,4,2,1,50,0,0
258914,-83.3333333333333,4,2,1,60,0,1
259263,-133.333333333333,4,2,1,60,0,1
259844,-83.3333333333333,4,2,1,60,0,1
261123,-133.333333333333,4,2,1,60,0,1
261705,-83.3333333333333,4,2,1,60,0,1
268216,-200,4,2,1,60,0,0
268275,-200,4,2,1,30,0,0
271937,-200,4,2,1,50,0,0
275658,-111.111111111111,4,2,1,60,0,0
278798,-111.111111111111,4,2,1,40,0,0
278856,-111.111111111111,4,2,1,60,0,0
279612,-111.111111111111,4,2,2,60,0,0
279670,-111.111111111111,4,2,1,60,0,0
280542,-111.111111111111,4,2,2,60,0,0
280600,-111.111111111111,4,2,1,60,0,0
281472,-111.111111111111,4,2,2,60,0,0
281530,-111.111111111111,4,2,1,60,0,0
283333,-111.111111111111,4,2,2,60,0,0
283391,-111.111111111111,4,2,1,60,0,0
290542,-200,4,2,1,60,0,0
292403,-90.9090909090909,4,2,1,60,0,1
292635,-90.9090909090909,4,2,2,60,0,1
292693,-90.9090909090909,4,2,1,60,0,1
298216,-90.9090909090909,4,2,2,60,0,1
298275,-90.9090909090909,4,2,1,60,0,1
300077,-90.9090909090909,4,2,2,60,0,1
300135,-90.9090909090909,4,2,1,60,0,1
303565,-90.9090909090909,4,2,1,60,0,0
306589,-90.9090909090909,4,2,1,40,0,0
306647,-90.9090909090909,4,2,1,60,0,0
307286,-90.9090909090909,4,2,1,60,0,1
307519,-90.9090909090909,4,2,2,60,0,1
307577,-90.9090909090909,4,2,1,60,0,1
311240,-90.9090909090909,4,2,2,60,0,1
311298,-90.9090909090909,4,2,1,60,0,1
314961,-90.9090909090909,4,2,2,60,0,1
315019,-90.9090909090909,4,2,1,60,0,1
318449,-90.9090909090909,4,2,1,60,0,0
322170,-90.9090909090909,4,2,1,60,0,1
328565,-90.9090909090909,4,2,1,60,0,0
329612,-90.9090909090909,4,2,1,60,0,1
336007,-90.9090909090909,4,2,1,60,0,0
337054,-100,4,2,1,60,0,0
337868,-111.111111111111,4,2,1,60,0,0
338333,-125,4,2,1,60,0,0
339263,-111.111111111111,4,2,1,60,0,0
339612,-100,4,2,1,60,0,0
339961,-90.9090909090909,4,2,1,60,0,0
340310,-200,4,2,1,60,0,0

[Colours]
Combo1 : 128,0,0
Combo2 : 255,89,89
Combo3 : 255,51,51
Combo4 : 198,0,0

[HitObjects]
67,65,77,5,0,1:3:0:0:
67,65,193,1,0,1:0:0:0:
67,65,310,2,0,P|64:136|77:300,1,210,4|2,1:0|0:0,0:0:0:0:
73,274,833,1,2,0:0:0:0:
73,274,1065,1,2,0:0:0:0:
81,282,1298,2,0,B|236:260|176:375|356:350,1,270,0|0,1:0|0:0,0:0:0:0:
357,320,1937,1,0,1:0:0:0:
397,307,2054,1,0,1:0:0:0:
438,311,2170,6,0,P|451:250|153:73,1,480,4|2,1:0|0:0,0:0:0:0:
154,66,3565,1,2,0:0:0:0:
260,339,4030,5,4,1:0:0:0:
258,255,4728,5,0,1:0:0:0:
258,219,4844,1,0,1:0:0:0:
260,339,4961,5,4,1:0:0:0:
258,255,5658,5,0,1:0:0:0:
258,219,5774,1,0,1:0:0:0:
260,339,5891,5,4,1:0:0:0:
258,255,6589,5,0,1:0:0:0:
258,219,6705,1,0,1:0:0:0:
260,339,6822,5,4,1:0:0:0:
256,192,6879,12,0,7635,0:0:0:0:
114,73,7751,5,4,1:0:0:0:
114,73,7984,1,2,0:0:0:0:
114,73,8216,1,0,0:0:0:0:
209,63,8333,1,2,0:0:0:0:
209,63,8565,1,2,0:0:0:0:
209,63,8798,1,2,0:0:0:0:
301,86,8914,1,2,0:0:0:0:
301,86,9147,1,2,0:0:0:0:
396,75,9263,1,2,0:0:0:0:
494,202,9496,5,4,1:0:0:0:
494,202,9844,1,2,0:0:0:0:
494,202,10077,1,2,0:0:0:0:
401,177,10193,1,2,0:0:0:0:
18,202,10426,5,4,1:0:0:0:
18,202,10659,1,2,0:0:0:0:
111,177,10775,1,2,0:0:0:0:
111,177,11007,1,2,0:0:0:0:
25,220,11123,1,2,0:0:0:0:
118,195,11240,1,2,0:0:0:0:
255,318,11356,5,4,1:0:0:0:
255,318,11705,1,2,0:0:0:0:
255,318,11937,1,2,0:0:0:0:
349,298,12054,1,2,0:0:0:0:
349,298,12286,1,2,0:0:0:0:
349,298,12519,1,2,0:0:0:0:
442,318,12635,1,2,0:0:0:0:
180,158,12868,5,2,0:0:0:0:
108,127,12984,1,2,0:0:0:0:
36,158,13100,1,2,0:0:0:0:
246,234,13216,5,4,1:0:0:0:
246,234,13449,1,2,0:0:0:0:
315,200,13565,1,2,0:0:0:0:
385,275,13682,5,2,0:0:0:0:
473,298,13798,1,2,0:0:0:0:
394,258,13914,1,2,0:0:0:0:
471,275,14030,1,2,0:0:0:0:
286,378,14147,6,0,B|267:324|267:324|283:251,1,120,6|0,1:0|0:0,0:0:0:0:
208,137,14379,1,2,1:0:0:0:
437,70,14496,2,0,B|456:124|456:124|442:185,1,120,2|0,1:0|0:0,0:0:0:0:
316,18,14728,1,2,1:0:0:0:
245,39,14844,2,0,B|120:11|144:121|-1:89,1,240,6|0,1:0|0:0,0:0:0:0:
163,198,15193,5,6,1:0:0:0:
78,327,15310,1,2,1:0:0:0:
240,363,15426,2,0,L|229:222,1,120,2|0,1:0|0:0,0:0:0:0:
154,308,15658,1,2,1:0:0:0:
337,269,15775,2,0,L|357:50,1,180,2|0,1:0|0:0,0:0:0:0:
383,62,16007,6,0,L|244:51,1,120,2|0,1:0|0:0,0:0:0:0:
113,174,16240,1,2,1:0:0:0:
113,174,16356,2,0,L|232:164,1,120,2|0,1:0|0:0,0:0:0:0:
19,204,16589,1,2,1:0:0:0:
324,214,16705,2,0,P|404:258|430:341,1,180,2|0,1:0|0:0,0:0:0:0:
296,298,16937,6,0,B|157:279|218:391|29:362,1,240,6|0,1:0|0:0,0:0:0:0:
235,221,17286,2,0,B|223:166|223:166|237:94,1,120,2|0,1:0|0:0,0:0:0:0:
123,183,17519,1,2,1:0:0:0:
27,38,17635,2,0,B|39:100|39:100|27:155,1,120,2|0,1:0|1:0,0:0:0:0:
321,98,17868,6,0,P|379:160|517:119,1,240,8|0,1:3|0:0,0:0:0:0:
344,225,18216,2,0,P|282:240|251:286,1,120,2|0,1:0|0:0,0:0:0:0:
428,373,18449,2,0,P|438:316|406:256,1,120,2|0,1:0|0:0,0:0:0:0:
336,335,18682,1,2,1:0:0:0:
164,95,18798,6,0,P|58:154|70:283,1,240,8|0,1:3|0:0,0:0:0:0:
340,152,19147,2,0,P|341:95|310:15,1,120,2|0,1:0|0:0,0:0:0:0:
257,108,19379,1,2,1:0:0:0:
463,174,19496,2,0,L|441:378,1,180,2|0,1:0|0:0,0:0:0:0:
461,379,19728,6,0,L|340:353,1,120,2|0,1:0|0:0,0:0:0:0:
104,347,19961,1,2,1:0:0:0:
104,347,20077,2,0,L|225:321,1,120,2|0,1:0|0:0,0:0:0:0:
18,268,20310,1,2,1:0:0:0:
127,155,20426,1,2,1:0:0:0:
280,215,20542,1,2,1:0:0:0:
350,70,20658,6,0,P|459:94|472:205,1,240,6|0,1:0|0:0,0:0:0:0:
320,342,21007,1,2,1:0:0:0:
486,312,21123,1,2,1:0:0:0:
319,246,21240,1,2,1:0:0:0:
423,380,21356,1,2,1:0:0:0:
382,181,21472,1,0,0:0:0:0:
257,48,21589,5,4,1:3:0:0:
254,184,21821,1,0,1:0:0:0:
254,184,21937,1,4,1:3:0:0:
264,327,22170,1,0,1:0:0:0:
264,327,22286,1,4,1:3:0:0:
264,327,22519,5,2,1:0:0:0:
156,265,22635,1,6,1:0:0:0:
348,146,22751,1,2,1:0:0:0:
348,146,22868,2,0,B|364:203|364:203|353:267,1,120,2|0,1:0|0:0,0:0:0:0:
178,146,23100,1,2,1:0:0:0:
264,30,23216,2,0,L|459:54,1,180,2|0,1:0|0:0,0:0:0:0:
480,28,23449,6,0,B|462:89|462:89|478:150,1,120,2|0,1:0|0:0,0:0:0:0:
452,346,23682,1,2,1:0:0:0:
452,346,23798,2,0,B|466:291|466:291|448:230,1,120,2|0,1:0|0:0,0:0:0:0:
296,354,24030,1,2,1:0:0:0:
175,279,24147,2,0,L|-12:322,1,180,2|0,1:0|0:0,0:0:0:0:
155,197,24379,6,0,B|278:189|237:283|399:273,1,240,8|0,1:3|0:0,0:0:0:0:
512,272,24728,1,2,1:0:0:0:
408,355,24844,1,0,0:0:0:0:
453,208,24961,1,2,1:0:0:0:
363,72,25077,2,0,P|360:127|368:191,1,120,2|0,1:0|0:0,0:0:0:0:
252,29,25310,5,12,1:3:0:0:
252,29,25658,1,2,1:0:0:0:
252,29,25891,1,2,1:0:0:0:
252,29,26123,5,2,1:0:0:0:
84,88,26240,2,0,P|42:165|154:276,1,240,12|0,1:3|0:0,0:0:0:0:
297,118,26589,2,0,P|228:106|175:128,1,120,2|0,1:0|0:0,0:0:0:0:
388,188,26821,1,2,1:0:0:0:
292,222,26937,2,0,P|224:260|212:374,1,180,2|0,1:0|0:0,0:0:0:0:
184,378,27170,6,0,L|317:368,1,120,2|0,1:0|0:0,0:0:0:0:
492,296,27403,1,2,1:0:0:0:
492,296,27519,2,0,L|359:286,1,120,2|0,1:0|0:0,0:0:0:0:
214,176,27751,1,2,1:0:0:0:
381,117,27868,1,2,1:0:0:0:
276,53,27984,1,2,1:0:0:0:
89,121,28100,6,0,L|112:318,1,180,6|0,1:0|0:0,0:0:0:0:
77,326,28333,1,2,1:0:0:0:
185,230,28449,1,2,1:0:0:0:
15,182,28565,1,2,1:0:0:0:
168,100,28682,1,2,1:0:0:0:
38,68,28798,1,2,1:0:0:0:
92,19,28914,1,2,1:0:0:0:
252,304,29030,5,12,1:3:0:0:
246,170,29263,1,0,1:0:0:0:
246,170,29379,1,12,1:3:0:0:
252,50,29612,1,0,1:0:0:0:
252,50,29728,1,12,1:3:0:0:
492,196,30077,5,0,1:0:0:0:
420,193,30193,1,0,1:0:0:0:
493,216,30310,1,0,1:0:0:0:
420,221,30426,2,0,L|432:379,1,120,6|0,1:0|0:0,0:0:0:0:
338,308,30658,5,0,1:0:0:0:
261,301,30775,1,0,1:0:0:0:
334,283,30891,2,0,L|341:157,1,120,6|0,1:0|0:0,0:0:0:0:
190,84,31123,5,0,1:0:0:0:
112,73,31240,1,0,1:0:0:0:
178,114,31356,2,0,L|163:297,1,180,6|0,1:0|0:0,0:0:0:0:
127,320,31589,5,0,1:0:0:0:
54,309,31705,1,0,1:0:0:0:
117,346,31821,1,0,1:0:0:0:
282,255,31937,6,0,B|360:267|360:267|414:328|414:328|498:338,1,240,6|0,1:0|1:0,0:0:0:0:
213,218,32286,6,0,B|135:230|135:230|81:291|81:291|-3:301,1,240,6|0,1:0|1:0,0:0:0:0:
426,15,32635,6,0,B|471:84|471:84|441:248,1,240,6|0,1:0|0:0,0:0:0:0:
50,0,32984,6,0,B|5:69|5:69|35:233,1,240,6|0,1:0|0:0,0:0:0:0:
103,112,33333,6,0,L|170:119,3,60,2|2|2|0,0:0|0:0|0:0|0:0,0:0:0:0:
215,21,33798,6,0,P|274:78|415:50,1,215.999993408203,6|8,1:0|1:0,0:0:0:0:
469,147,34147,1,0,0:0:0:0:
469,147,34263,2,0,P|480:200|474:262,1,107.999996704102,0|0,0:3|1:0,0:0:0:0:
286,200,34496,1,10,1:0:0:0:
374,150,34612,1,0,1:0:0:0:
328,335,34728,6,0,B|205:349|239:257|120:270,1,215.999993408203,2|8,1:0|1:0,0:0:0:0:
26,272,35077,1,2,1:0:0:0:
67,166,35193,2,0,P|63:99|79:44,1,107.999996704102,0|0,1:0|0:0,0:0:0:0:
215,24,35426,2,0,P|225:76|220:130,1,107.999996704102,10|0,1:0|0:0,0:0:0:0:
331,37,35658,6,0,P|439:58|456:177,1,215.999993408203,2|8,1:0|1:0,0:0:0:0:
321,179,36007,1,0,0:0:0:0:
321,179,36123,2,0,P|320:261|327:302,1,107.999996704102,0|0,0:0|1:0,0:0:0:0:
492,345,36356,2,0,P|442:344|379:361,1,107.999996704102,10|0,1:0|0:0,0:0:0:0:
230,179,36589,6,2,L|-4:159,1,215.999993408203,2|8,1:0|1:0,0:0:0:0:
117,288,36937,1,0,0:0:0:0:
14,353,37054,2,0,P|7:280|14:243,1,107.999996704102,2|0,1:0|0:0,0:0:0:0:
208,258,37286,2,0,P|214:311|207:364,1,107.999996704102,8|0,1:0|0:0,0:0:0:0:
307,216,37519,6,0,P|308:138|410:44,1,215.999993408203,2|8,1:0|1:0,0:0:0:0:
418,175,37868,1,0,0:0:0:0:
489,193,37984,2,0,P|499:252|496:302,1,107.999996704102,0|0,0:0|1:0,0:0:0:0:
338,325,38216,2,0,L|209:344,1,107.999996704102,8|0,1:0|0:0,0:0:0:0:
5,219,38449,6,0,P|85:193|198:274,1,215.999993408203,2|8,1:0|1:0,0:0:0:0:
239,166,38798,1,2,1:0:0:0:
304,127,38914,2,0,P|366:115|415:123,1,107.999996704102,0|0,0:0|0:0,0:0:0:0:
512,240,39147,2,0,P|458:246|406:234,1,107.999996704102,10|0,1:0|0:0,0:0:0:0:
223,76,39379,6,0,P|143:50|30:131,1,215.999993408203,2|8,1:0|1:0,0:0:0:0:
147,220,39728,1,2,1:0:0:0:
67,313,39844,2,0,P|52:249|62:189,1,107.999996704102,0|0,0:0|0:0,0:0:0:0:
226,220,40077,2,0,P|229:273|215:325,1,107.999996704102,10|0,1:0|0:0,0:0:0:0:
299,114,40310,6,0,L|514:154,1,215.999993408203,6|8,1:0|1:0,0:0:0:0:
418,220,40658,1,8,1:0:0:0:
404,298,40775,1,0,0:0:0:0:
478,274,40891,1,8,1:0:0:0:
343,246,41007,2,0,L|217:269,1,107.999996704102,10|0,1:0|0:0,0:0:0:0:
24,62,41240,6,6,P|148:73|45:360,1,539.999983520508,4|0,1:0|1:0,0:0:0:0:
40,293,41937,1,10,1:0:0:0:
112,273,42054,1,2,1:0:0:0:
89,154,42170,5,2,1:0:0:0:
0,178,42286,1,0,0:0:0:0:
183,203,42403,5,10,1:0:0:0:
314,148,42519,1,0,0:0:0:0:
184,164,42635,5,2,1:0:0:0:
324,188,42751,1,2,1:0:0:0:
507,165,42868,5,10,1:0:0:0:
380,261,42984,1,8,1:0:0:0:
507,165,43100,6,2,P|524:270|258:196,1,539.999983520508,6|0,1:0|0:0,0:0:0:0:
164,71,43798,1,8,1:0:0:0:
326,67,43914,1,8,1:0:0:0:
264,230,44030,6,2,P|93:386|2:173,1,539.999983520508,2|0,1:0|0:0,0:0:0:0:
145,219,44728,1,10,1:0:0:0:
145,219,44844,1,0,1:0:0:0:
69,94,44961,6,2,B|166:29|324:114|191:299|344:406|459:329,1,539.999983520508,6|10,1:0|1:0,0:0:0:0:
512,235,45658,1,10,1:0:0:0:
512,235,45775,1,0,0:0:0:0:
459,320,45891,6,2,B|347:394|194:287|327:102|169:18|72:82,1,539.999983520508,6|8,1:0|1:0,0:0:0:0:
16,175,46589,1,10,1:0:0:0:
16,175,46705,1,0,0:0:0:0:
122,267,46821,6,0,B|134:214|134:214|106:133,1,107.999996704102,12|0,1:3|0:0,0:0:0:0:
0,345,47054,2,0,L|112:359,1,107.999996704102,10|0,1:0|0:0,0:0:0:0:
509,348,47286,2,0,L|394:372,1,107.999996704102,2|0,1:0|0:0,0:0:0:0:
246,354,47519,1,10,1:0:0:0:
246,354,47635,1,0,1:0:0:0:
406,252,47751,6,0,P|414:158|282:95,1,215.999993408203,12|8,1:3|1:0,0:0:0:0:
171,93,48100,2,0,P|86:151|89:254,1,215.999993408203,12|8,1:3|1:0,0:0:0:0:
252,81,48449,1,8,1:0:0:0:
252,81,48565,1,8,1:0:0:0:
177,220,48682,6,0,P|236:215|341:330,1,215.999993408203,6|8,1:0|1:0,0:0:0:0:
407,240,49030,1,0,0:0:0:0:
407,240,49147,2,0,P|461:227|533:243,1,107.999996704102,0|0,0:0|1:0,0:0:0:0:
359,128,49379,1,10,1:0:0:0:
471,63,49496,1,0,1:0:0:0:
246,27,49612,6,0,L|262:249,1,215.999993408203,2|8,1:0|1:0,0:0:0:0:
150,176,49961,1,2,1:0:0:0:
88,219,50077,2,0,L|71:348,1,107.999996704102,0|0,0:0|0:0,0:0:0:0:
200,383,50310,2,0,P|203:325|185:275,1,107.999996704102,10|0,1:0|0:0,0:0:0:0:
77,18,50542,6,0,P|-2:95|10:225,1,215.999993408203,2|8,1:0|1:0,0:0:0:0:
111,114,50891,1,0,0:0:0:0:
184,92,51007,2,0,L|295:106,1,107.999996704102,0|0,0:0|1:0,0:0:0:0:
475,18,51240,2,0,L|348:33,1,107.999996704102,10|0,1:0|0:0,0:0:0:0:
487,149,51472,6,0,P|394:163|358:268,1,215.999993408203,2|8,1:0|1:0,0:0:0:0:
458,359,51821,1,0,0:0:0:0:
458,359,51937,2,0,P|462:308|443:244,1,107.999996704102,2|0,1:0|0:0,0:0:0:0:
265,234,52170,2,0,P|250:285|254:339,1,107.999996704102,8|0,1:0|0:0,0:0:0:0:
359,269,52403,6,2,P|364:183|230:123,1,215.999993408203,2|8,1:0|1:0,0:0:0:0:
179,33,52751,1,0,0:0:0:0:
119,83,52868,2,0,P|109:139|118:199,1,107.999996704102,0|0,0:0|1:0,0:0:0:0:
22,298,53100,2,0,L|138:282,1,107.999996704102,10|0,1:0|0:0,0:0:0:0:
386,362,53333,6,0,L|216:329,1,161.999995056153,2|0,1:0|0:0,0:0:0:0:
189,334,53565,1,8,1:0:0:0:
256,243,53682,1,2,1:0:0:0:
185,146,53798,2,0,L|300:125,1,107.999996704102,0|0,0:0|1:0,0:0:0:0:
482,207,54030,2,0,L|342:179,1,107.999996704102,10|0,1:0|0:0,0:0:0:0:
106,24,54263,6,0,P|34:70|67:218,1,215.999993408203,6|8,1:0|1:0,0:0:0:0:
181,293,54612,1,2,1:0:0:0:
181,293,54728,2,0,P|246:279|284:291,1,107.999996704102,0|0,0:0|1:0,0:0:0:0:
405,362,54961,2,0,P|340:348|302:360,1,107.999996704102,14|0,1:0|0:0,0:0:0:0:
484,140,55193,6,0,P|426:203|313:193,1,161.999995056153,4|0,1:3|0:0,0:0:0:0:
315,200,55426,1,8,1:0:0:0:
22,170,55542,2,0,P|73:229|152:240,1,161.999995056153,4|0,1:3|0:0,0:0:0:0:
189,218,55775,1,8,1:0:0:0:
219,98,55891,1,8,1:0:0:0:
189,27,56007,1,0,1:0:0:0:
18,306,56123,6,2,P|112:367|302:138,1,431.999986816407,6|0,1:0|1:0,0:0:0:0:
289,116,56705,1,2,1:0:0:0:
222,75,56821,1,10,1:0:0:0:
152,90,56937,1,2,1:0:0:0:
299,112,57054,5,0,1:0:0:0:
231,61,57170,1,2,1:0:0:0:
149,77,57286,1,10,1:0:0:0:
5,252,57403,5,2,1:0:0:0:
117,310,57519,1,2,1:0:0:0:
226,217,57635,1,0,1:0:0:0:
117,290,57751,1,10,1:0:0:0:
9,237,57868,1,2,1:0:0:0:
111,141,57984,6,2,P|283:81|336:362,1,539.999983520508,6|0,1:0|0:0,0:0:0:0:
269,361,58682,1,10,1:0:0:0:
269,361,58798,1,0,0:0:0:0:
21,229,58914,6,0,B|134:207|99:303|253:276,1,215.999993408203,2|10,1:0|1:0,0:0:0:0:
109,339,59263,1,2,1:0:0:0:
228,299,59379,1,2,1:0:0:0:
118,355,59496,1,2,1:0:0:0:
310,340,59612,2,2,P|303:281|311:221,1,107.999996704102,8|0,1:0|0:0,0:0:0:0:
462,317,59844,6,2,P|286:51|230:101,1,539.999983520508,2|0,1:0|1:0,1:0:0:0:
380,163,60542,1,10,1:0:0:0:
380,163,60658,1,0,0:0:0:0:
35,378,60775,6,2,P|28:139|266:162,1,539.999983520508,2|0,1:0|1:0,1:0:0:0:
143,230,61472,1,10,1:0:0:0:
143,230,61588,1,0,0:0:0:0:
316,365,61705,6,0,B|498:361,1,161.999995056153,4|0,1:3|0:0,0:0:0:0:
461,336,61937,1,10,1:0:0:0:
318,223,62054,1,2,1:0:0:0:
496,155,62170,1,2,1:0:0:0:
418,230,62286,1,2,1:0:0:0:
218,77,62403,5,10,1:0:0:0:
409,142,62519,1,10,1:0:0:0:
259,294,62635,1,4,1:3:0:0:
259,294,62984,1,12,1:3:0:0:
259,294,63333,1,8,1:0:0:0:
226,295,63391,1,0,1:0:0:0:
193,296,63449,1,0,1:0:0:0:
160,298,63507,1,0,1:0:0:0:
92,269,63565,6,2,B|263:233|210:395|393:364,1,323.999990112305,2|0,1:0|0:0,0:0:0:0:
392,288,64030,2,0,P|386:236|396:160,1,107.999996704102,2|0,1:0|0:0,0:0:0:0:
425,110,64263,1,10,1:0:0:0:
493,70,64379,1,0,0:0:0:0:
299,37,64496,6,0,P|304:90|298:144,1,107.999996704102,2|0,1:0|0:0,0:0:0:0:
188,65,64728,1,10,1:0:0:0:
91,99,64844,1,2,1:0:0:0:
164,34,64961,1,2,1:0:0:0:
118,126,65077,1,0,1:0:0:0:
208,148,65193,5,10,1:0:0:0:
76,20,65310,1,2,1:0:0:0:
186,170,65426,6,2,P|271:175|316:377,1,323.999990112305,6|0,1:0|0:0,0:0:0:0:
201,275,65891,2,0,P|147:264|72:278,1,107.999996704102,0|0,1:0|1:0,0:0:0:0:
260,324,66123,5,10,1:0:0:0:
260,324,66240,1,2,1:0:0:0:
34,346,66356,2,2,P|8:293|100:163,1,215.999993408203,6|10,1:0|1:0,0:0:0:0:
432,168,66705,2,2,P|502:245|478:346,1,215.999993408203,2|0,1:0|1:0,0:0:0:0:
311,275,67054,2,2,P|365:264|440:278,1,107.999996704102,10|0,1:0|0:0,0:0:0:0:
242,351,67286,6,2,B|176:190|329:195|243:9,1,323.999990112305,4|0,1:3|1:0,0:0:0:0:
154,11,67751,2,0,P|136:72|144:122,1,107.999996704102,0|0,1:0|0:0,0:0:0:0:
393,167,67984,2,0,P|397:113|380:62,1,107.999996704102,8|0,1:0|0:0,0:0:0:0:
491,235,68216,2,0,P|410:237|358:331,1,161.999995056153,0|0,1:0|0:0,0:0:0:0:
346,332,68449,5,10,1:0:0:0:
434,368,68565,1,2,1:0:0:0:
316,214,68682,5,2,1:0:0:0:
188,274,68798,1,2,1:0:0:0:
40,134,68914,5,8,1:0:0:0:
202,168,69030,1,2,1:0:0:0:
62,253,69147,6,2,P|52:158|320:147,1,431.999986816407,2|0,1:0|1:0,1:0:0:0:
505,166,69728,1,2,1:0:0:0:
366,235,69844,1,10,1:0:0:0:
417,73,69961,1,2,1:0:0:0:
485,314,70077,5,4,1:3:0:0:
485,314,70426,1,4,1:3:0:0:
485,314,70775,1,12,1:3:0:0:
485,314,71007,6,2,B|304:241|356:404|149:344,1,323.999990112305,6|0,1:0|0:0,0:0:0:0:
6,202,71472,2,0,P|56:182|122:192,1,107.999996704102,0|0,1:0|0:0,0:0:0:0:
257,116,71705,2,0,P|207:96|141:106,1,107.999996704102,8|0,1:0|0:0,0:0:0:0:
156,269,71937,2,0,P|209:273|258:253,1,107.999996704102,2|0,1:0|0:0,0:0:0:0:
354,67,72170,5,10,1:0:0:0:
425,37,72286,2,0,P|484:101|457:258,1,215.999993408203,2|0,1:0|1:0,0:0:0:0:
360,154,72635,1,10,1:0:0:0:
287,183,72751,1,0,0:0:0:0:
149,317,72868,6,0,P|139:212|205:129,1,215.999993408203,2|8,1:0|1:0,0:0:0:0:
405,281,73216,1,0,1:0:0:0:
378,353,73333,1,0,1:0:0:0:
304,367,73449,1,0,0:0:0:0:
235,341,73565,2,0,P|229:285|234:227,1,107.999996704102,8|0,1:0|1:0,0:0:0:0:
450,85,73798,6,0,P|482:187|472:318,1,215.999993408203,2|8,1:0|1:0,0:0:0:0:
172,70,74147,2,2,B|291:54|253:139|393:126,1,215.999993408203,8|0,1:3|1:0,0:0:0:0:
133,249,74496,2,0,P|126:182|142:136,1,107.999996704102,8|0,1:0|1:0,0:0:0:0:
39,81,74728,6,0,P|14:188|32:293,1,215.999993408203,6|8,1:0|1:0,0:0:0:0:
193,321,75077,1,2,1:0:0:0:
262,363,75193,2,0,L|371:341,1,107.999996704102,2|0,1:0|0:0,0:0:0:0:
512,256,75426,2,0,L|403:234,1,107.999996704102,10|0,1:0|0:0,0:0:0:0:
73,85,75658,6,0,P|34:184|52:289,1,215.999993408203,6|8,1:0|1:0,0:0:0:0:
236,257,76007,1,2,1:0:0:0:
301,208,76123,2,0,P|306:152|285:93,1,107.999996704102,0|0,1:0|0:0,0:0:0:0:
354,52,76356,1,10,1:0:0:0:
354,52,76472,1,8,1:0:0:0:
93,87,76589,6,0,P|54:186|298:329,1,431.999986816407,4|2,1:3|1:0,0:0:0:0:
396,232,77170,1,0,0:0:0:0:
453,184,77286,2,0,P|458:121|450:66,1,107.999996704102,10|0,1:0|0:0,0:0:0:0:
289,35,77519,5,6,1:0:0:0:
289,35,77635,2,0,P|203:52|189:182,1,215.999993408203,2|0,1:0|0:0,0:0:0:0:
366,118,77984,2,0,L|248:121,1,107.999996704102,2|0,1:0|0:0,0:0:0:0:
372,210,78216,1,10,1:0:0:0:
382,28,78333,1,2,1:0:0:0:
78,133,78449,6,0,L|107:359,1,215.999993408203,4|10,1:3|1:0,0:0:0:0:
228,250,78798,1,0,0:0:0:0:
285,304,78914,2,0,P|352:295|403:305,1,107.999996704102,0|2,1:0|1:0,0:0:0:0:
512,192,79147,2,0,P|445:183|394:193,1,107.999996704102,10|0,1:0|0:0,0:0:0:0:
247,25,79379,5,4,1:3:0:0:
197,188,79728,1,4,1:3:0:0:
248,366,80077,1,4,1:3:0:0:
320,175,80310,6,2,P|292:107|16:201,1,431.999986816407,6|2,1:0|1:0,0:0:0:0:
179,356,80891,1,0,1:0:0:0:
179,356,81007,1,2,1:0:0:0:
318,197,81123,2,2,P|290:129|14:223,1,431.999986816407,6|0,1:0|1:0,0:0:0:0:
121,215,81705,2,0,L|248:211,1,107.999996704102,2|0,1:0|0:0,0:0:0:0:
490,208,81937,1,4,1:3:0:0:
490,208,82054,1,0,1:0:0:0:
248,23,82170,5,6,1:0:0:0:
248,23,82519,1,4,1:3:0:0:
248,23,82868,1,4,1:3:0:0:
248,23,83100,2,0,P|258:89|249:183,1,161.999995056153,12|0,1:3|0:0,0:0:0:0:
230,222,83333,1,10,1:0:0:0:
50,199,83449,1,10,1:0:0:0:
50,199,83682,1,10,1:0:0:0:
167,302,83798,1,8,1:3:0:0:
140,138,83914,1,0,0:0:0:0:
22,314,84030,6,0,B|142:287|101:380|274:332,1,215.999993408203,12|8,1:3|1:0,0:0:0:0:
351,346,84379,1,0,0:0:0:0:
372,270,84496,2,0,P|365:214|370:153,1,107.999996704102,0|2,1:0|1:0,0:0:0:0:
487,99,84728,2,0,L|368:91,1,107.999996704102,8|0,1:0|0:0,0:0:0:0:
168,34,84961,6,0,P|74:55|36:192,1,215.999993408203,6|10,1:0|1:0,0:0:0:0:
161,294,85310,1,8,1:0:0:0:
161,294,85542,1,8,1:0:0:0:
335,240,85658,1,2,1:0:0:0:
199,113,85775,1,8,1:0:0:0:
27,297,85891,6,0,P|343:306|371:7,1,660,12|0,1:3|0:0,0:0:0:0:
306,19,87286,5,8,1:0:0:0:
227,49,87403,5,0,1:0:0:0:
151,132,87519,5,2,1:0:0:0:
142,263,87635,5,8,1:0:0:0:
495,375,87751,6,2,L|505:7,1,360,6|0,1:0|1:0,0:0:0:0:
237,177,88216,1,2,1:0:0:0:
213,260,88333,1,0,0:0:0:0:
254,350,88449,1,10,1:0:0:0:
470,355,88565,6,0,L|482:86,1,240,2|2,1:0|1:0,0:0:0:0:
176,20,88914,2,0,B|155:76|155:76|169:159,1,120,10|0,1:0|0:0,0:0:0:0:
358,191,89147,2,0,B|368:131|368:131|347:75,1,120,2|0,1:0|0:0,0:0:0:0:
253,193,89379,2,0,L|264:325,1,120,10|0,1:0|0:0,0:0:0:0:
59,99,89612,6,2,L|75:366,1,240,6|10,1:0|1:0,0:0:0:0:
337,127,89961,1,2,1:0:0:0:
337,127,90077,2,0,L|348:269,1,120,0|0,0:0|1:0,0:0:0:0:
170,144,90310,2,0,L|181:286,1,120,10|0,1:0|0:0,0:0:0:0:
456,76,90542,6,0,L|472:343,1,240,6|10,1:0|1:0,0:0:0:0:
178,118,90891,1,2,1:0:0:0:
178,118,91007,2,0,L|189:260,1,120,0|0,1:0|0:0,0:0:0:0:
333,103,91240,2,0,L|344:245,1,120,10|0,1:0|0:0,0:0:0:0:
44,85,91472,6,0,L|60:352,1,240,6|8,1:0|1:0,0:0:0:0:
235,346,91821,1,0,1:0:0:0:
302,382,91937,2,0,P|309:313|272:249,1,120,0|0,0:0|1:0,0:0:0:0:
386,162,92170,1,10,1:0:0:0:
67,74,92286,6,0,L|83:341,1,240,4|0,1:3|0:0,0:0:0:0:
167,132,92635,2,0,L|310:138,1,120,10|0,1:0|0:0,0:0:0:0:
456,59,92868,2,0,L|313:65,1,120,2|0,1:0|0:0,0:0:0:0:
507,144,93100,1,10,1:0:0:0:
507,144,93216,1,0,0:0:0:0:
466,241,93333,6,2,P|278:225|245:363,1,360,6|0,1:0|0:0,0:0:0:0:
332,285,93798,1,2,1:0:0:0:
175,218,93914,1,0,1:0:0:0:
160,291,94030,5,10,1:0:0:0:
220,145,94147,1,2,1:0:0:0:
55,163,94263,1,4,1:3:0:0:
140,193,94379,1,0,1:0:0:0:
187,68,94496,2,0,P|19:169|77:290,1,360,10|0,1:0|1:0,0:0:0:0:
276,108,94961,2,0,B|334:95|334:95|447:121,1,120,8|0,1:0|0:0,0:0:0:0:
485,263,95193,6,2,B|255:206|257:434|28:356,1,480,6|0,1:0|0:0,0:0:0:0:
195,222,95775,1,2,1:0:0:0:
4,166,95891,1,10,1:0:0:0:
129,293,96007,1,2,1:0:0:0:
80,104,96123,2,0,L|331:97,1,240,2|8,1:0|1:0,0:0:0:0:
504,202,96472,2,0,L|258:195,1,240,2|0,1:0|0:0,0:0:0:0:
69,247,96821,2,0,L|210:256,1,120,10|2,1:0|1:0,0:0:0:0:
437,64,97054,5,6,1:0:0:0:
250,33,97170,1,2,1:0:0:0:
83,63,97286,1,2,1:0:0:0:
83,63,97519,5,0,1:0:0:0:
250,33,97635,1,0,1:0:0:0:
437,64,97751,1,4,1:0:0:0:
367,351,97868,6,0,P|356:287|364:97,1,240,6|0,1:0|0:0,0:0:0:0:
250,33,98216,2,0,P|254:92|249:152,1,120,10|0,1:0|0:0,0:0:0:0:
0,215,98449,2,2,B|128:191|94:306|273:255,1,240,2|10,1:0|1:0,0:0:0:0:
44,297,98798,1,2,1:0:0:0:
14,39,98914,5,6,1:0:0:0:
14,39,99263,1,4,1:3:0:0:
258,56,99612,5,2,1:0:0:0:
258,56,99728,1,2,1:0:0:0:
498,39,99844,5,6,1:0:0:0:
498,39,100193,1,4,1:3:0:0:
254,147,100542,5,2,1:0:0:0:
254,147,100658,1,2,1:0:0:0:
14,39,100775,5,6,1:0:0:0:
14,39,101123,1,4,1:3:0:0:
14,39,101472,1,2,1:0:0:0:
130,135,101589,1,2,1:0:0:0:
249,33,101705,2,0,B|377:19|339:98|479:80,1,240,6|8,1:0|1:3,0:0:0:0:
326,149,102054,5,2,1:0:0:0:
398,177,102170,1,0,1:0:0:0:
294,232,102286,5,2,1:0:0:0:
202,268,102403,1,2,1:0:0:0:
347,307,102519,5,2,1:0:0:0:
499,382,102635,2,2,L|513:18,1,360,6|0,1:0|0:0,0:0:0:0:
389,149,103100,1,2,1:0:0:0:
299,217,103216,1,2,1:0:0:0:
194,236,103333,1,10,1:0:0:0:
13,382,103449,6,0,L|-3:102,1,240,6|0,1:0|0:0,0:0:0:0:
293,100,103798,2,0,B|309:159|309:159|296:231,1,120,8|0,1:0|0:0,0:0:0:0:
93,184,104030,2,0,B|82:126|82:126|98:67,1,120,2|0,1:0|1:0,0:0:0:0:
200,202,104263,2,0,L|204:324,1,120,10|0,1:0|0:0,0:0:0:0:
512,355,104496,6,0,L|255:365,1,240,6|8,1:0|1:0,0:0:0:0:
403,207,104844,1,2,1:0:0:0:
403,207,104961,2,0,L|259:215,1,120,2|0,1:0|0:0,0:0:0:0:
99,192,105193,2,0,L|243:184,1,120,10|0,1:0|0:0,0:0:0:0:
6,39,105426,6,0,L|265:23,1,240,6|8,1:0|1:0,0:0:0:0:
479,222,105775,1,4,1:3:0:0:
479,222,106123,1,10,1:0:0:0:
479,222,106356,6,2,P|432:304|229:56,1,600,6|0,1:0|0:0,0:0:0:0:
91,88,107054,1,10,1:0:0:0:
283,27,107170,6,0,P|370:29|425:158,1,240,4|0,1:3|0:0,0:0:0:0:
363,206,107519,2,0,L|224:193,1,120,8|0,1:0|0:0,0:0:0:0:
175,168,107751,2,0,L|55:179,1,120,2|0,1:0|0:0,0:0:0:0:
0,235,107984,2,0,B|-7:296|-7:296|16:370,1,120,10|0,1:0|1:0,0:0:0:0:
102,277,108216,2,2,B|307:244|228:389|458:373,1,360,6|0,1:0|0:0,0:0:0:0:
413,211,108682,5,0,1:0:0:0:
361,293,108798,1,2,1:0:0:0:
507,253,108914,1,8,1:0:0:0:
320,186,109030,5,2,1:0:0:0:
237,58,109147,1,0,1:0:0:0:
459,108,109263,1,2,1:0:0:0:
213,281,109379,6,0,P|117:279|85:32,1,360,4|0,1:3|1:0,0:0:0:0:
147,165,109844,2,0,L|279:162,1,120,8|0,1:0|0:0,0:0:0:0:
448,28,110077,6,2,P|482:288|192:359,1,600,6|0,1:0|0:0,0:0:0:0:
349,284,110775,2,0,P|348:207|326:151,1,120,10|0,1:0|0:0,0:0:0:0:
159,30,111007,2,0,P|123:97|113:300,1,240,6|8,1:0|1:0,0:0:0:0:
248,37,111356,2,0,B|375:27|331:117|486:109,1,240,4|0,1:3|0:0,0:0:0:0:
512,225,111705,1,10,1:0:0:0:
512,225,111821,1,8,1:0:0:0:
380,317,111937,5,6,1:0:0:0:
256,364,112054,1,2,1:0:0:0:
142,326,112170,1,2,1:0:0:0:
81,75,112403,5,6,1:0:0:0:
256,20,112520,1,2,1:0:0:0:
435,75,112636,1,2,1:0:0:0:
257,172,112751,6,0,P|125:199|9:164,1,240,4|0,1:3|0:0,0:0:0:0:
239,259,113100,2,0,P|228:323|229:379,1,120,10|0,1:0|0:0,0:0:0:0:
132,283,113333,1,0,1:0:0:0:
330,198,113449,1,2,1:0:0:0:
437,368,113565,2,0,P|437:308|426:249,1,120,10|0,1:0|0:0,0:0:0:0:
498,39,113798,5,6,1:0:0:0:
498,39,114147,1,4,1:3:0:0:
254,56,114496,5,2,1:0:0:0:
254,56,114612,1,2,1:0:0:0:
14,39,114728,5,6,1:0:0:0:
14,39,115077,1,4,1:3:0:0:
258,147,115426,5,2,1:0:0:0:
258,147,115542,1,2,1:0:0:0:
498,39,115659,5,6,1:0:0:0:
498,39,116007,1,4,1:3:0:0:
498,39,116356,1,2,1:0:0:0:
329,126,116473,1,2,1:0:0:0:
278,23,116589,2,2,P|378:29|432:158,1,240,6|2,1:0|1:0,0:0:0:0:
163,167,116937,5,2,1:0:0:0:
244,106,117054,1,0,1:0:0:0:
290,313,117170,1,2,1:0:0:0:
187,282,117286,1,2,1:0:0:0:
334,131,117403,1,2,1:0:0:0:
368,237,117519,5,6,1:0:0:0:
263,204,117635,1,2,1:0:0:0:
451,173,117751,2,0,P|461:228|453:308,1,120,2|0,1:0|0:0,0:0:0:0:
198,367,117984,1,2,1:0:0:0:
198,367,118100,2,0,P|187:308|192:248,1,120,2|0,1:0|0:0,0:0:0:0:
33,84,118333,6,0,B|165:74|133:160|269:149,1,240,2|2,1:0|1:0,0:0:0:0:
125,210,118682,2,0,B|64:200|64:200|2:211,1,120,2|0,1:0|0:0,0:0:0:0:
157,21,118914,1,2,1:0:0:0:
235,77,119030,2,0,B|421:50,1,180,2|0,1:0|0:0,0:0:0:0:
512,16,119263,6,0,P|491:94|348:148,1,240,6|0,1:0|0:0,0:0:0:0:
505,200,119612,2,0,P|511:278|507:335,1,120,2|0,1:0|0:0,0:0:0:0:
237,199,119844,1,2,1:0:0:0:
145,252,119961,2,0,L|12:256,1,120,2|0,1:0|1:0,0:0:0:0:
7,16,120193,6,0,P|28:94|190:117,1,240,8|0,1:3|0:0,0:0:0:0:
232,203,120542,2,0,P|225:271|241:335,1,120,2|0,1:0|0:0,0:0:0:0:
371,329,120775,2,0,P|383:269|377:209,1,120,2|0,1:0|0:0,0:0:0:0:
307,247,121007,1,2,1:0:0:0:
511,193,121123,6,2,P|490:115|328:92,1,240,8|0,1:3|0:0,0:0:0:0:
185,32,121472,2,0,B|200:91|200:91|190:165,1,120,2|0,1:0|0:0,0:0:0:0:
280,85,121705,1,2,1:0:0:0:
62,155,121821,2,0,B|47:242|47:242|72:338,1,180,2|0,1:0|0:0,0:0:0:0:
194,261,122054,6,0,L|322:274,1,120,2|0,1:0|0:0,0:0:0:0:
214,344,122286,1,2,1:0:0:0:
380,160,122403,2,0,L|239:180,1,120,2|0,1:0|0:0,0:0:0:0:
502,138,122635,1,2,1:0:0:0:
390,251,122751,1,2,1:0:0:0:
410,86,122868,1,2,1:0:0:0:
509,314,122984,6,0,B|374:282|429:385|276:365,1,240,6|0,1:0|0:0,0:0:0:0:
186,207,123333,1,2,1:0:0:0:
318,276,123449,1,2,1:0:0:0:
173,303,123565,5,2,1:0:0:0:
42,341,123682,1,2,1:0:0:0:
132,376,123798,1,0,1:0:0:0:
433,199,123914,5,4,1:3:0:0:
258,169,124147,1,0,1:0:0:0:
258,169,124263,1,4,1:3:0:0:
79,199,124496,1,0,1:0:0:0:
79,199,124612,1,4,1:3:0:0:
79,199,124844,5,2,1:0:0:0:
207,289,124961,1,6,1:0:0:0:
343,199,125077,1,2,1:0:0:0:
203,98,125193,2,0,L|77:118,1,120,2|0,1:0|0:0,0:0:0:0:
152,178,125426,1,2,1:0:0:0:
71,336,125542,2,0,L|307:368,1,180,2|0,1:0|0:0,0:0:0:0:
300,286,125775,6,0,B|286:228|286:228|298:160,1,120,2|0,1:0|0:0,0:0:0:0:
421,38,126007,1,2,1:0:0:0:
496,56,126123,2,0,B|510:114|510:114|499:173,1,120,2|0,1:0|0:0,0:0:0:0:
236,92,126356,1,2,1:0:0:0:
161,107,126472,2,0,L|176:318,1,180,2|0,1:0|0:0,0:0:0:0:
441,357,126705,6,0,P|433:277|288:231,1,240,8|0,1:3|0:0,0:0:0:0:
353,309,127054,1,2,1:0:0:0:
397,138,127170,1,0,0:0:0:0:
230,169,127286,1,2,1:0:0:0:
230,169,127403,2,0,P|222:104|232:43,1,120,2|0,1:0|0:0,0:0:0:0:
494,199,127635,5,12,1:3:0:0:
494,199,127984,1,2,1:0:0:0:
494,199,128216,1,2,1:0:0:0:
494,199,128449,1,2,1:0:0:0:
292,209,128565,2,0,P|222:220|187:377,1,240,12|0,1:3|0:0,0:0:0:0:
400,371,128914,6,0,P|472:351|519:370,1,120,2|0,1:0|0:0,0:0:0:0:
346,270,129147,1,2,1:0:0:0:
512,135,129263,2,0,P|429:158|326:108,1,180,2|0,1:0|0:0,0:0:0:0:
223,136,129496,6,0,P|229:75|213:15,1,120,2|0,1:0|0:0,0:0:0:0:
288,199,129728,1,2,1:0:0:0:
215,289,129844,2,0,P|167:326|88:340,1,120,2|0,1:0|0:0,0:0:0:0:
4,137,130077,5,2,1:0:0:0:
146,170,130193,1,2,1:0:0:0:
54,251,130310,1,2,1:0:0:0:
103,68,130426,2,0,P|199:86|242:213,1,240,6|2,1:0|1:0,0:0:0:0:
165,365,130775,5,2,1:0:0:0:
28,335,130891,1,2,1:0:0:0:
237,312,131007,5,2,1:0:0:0:
343,273,131123,1,2,1:0:0:0:
458,324,131240,1,2,1:0:0:0:
505,115,131356,5,12,1:3:0:0:
262,203,131589,1,0,1:0:0:0:
262,203,131705,1,12,1:3:0:0:
40,129,131937,1,0,1:0:0:0:
88,107,132054,1,12,1:3:0:0:
128,132,132170,1,0,1:0:0:0:
129,182,132286,1,0,1:0:0:0:
42,364,132403,5,0,1:0:0:0:
6,298,132519,1,0,1:0:0:0:
57,242,132635,1,0,1:0:0:0:
127,264,132751,2,0,B|149:324|131:389,1,120,6|0,1:0|0:0,0:0:0:0:
384,305,132984,5,0,1:0:0:0:
318,354,133100,1,0,1:0:0:0:
242,326,133216,2,0,B|220:266|238:201,1,120,6|0,1:0|0:0,0:0:0:0:
301,54,133449,5,0,1:0:0:0:
385,16,133565,1,0,1:0:0:0:
478,49,133681,2,0,P|498:125|479:259,1,180,6|0,1:0|0:0,0:0:0:0:
436,269,133914,1,0,1:0:0:0:
436,269,134030,1,0,1:0:0:0:
436,269,134147,1,0,1:0:0:0:
229,270,134263,6,0,B|114:245|114:245|3:305,1,240,6|0,1:0|1:0,0:0:0:0:
479,383,134612,6,0,B|371:324|371:324|257:349,1,240,6|0,1:0|1:0,0:0:0:0:
199,66,134961,6,0,P|152:146|11:137,1,240,6|0,1:0|0:0,0:0:0:0:
512,93,135310,6,0,P|398:108|330:16,1,240,6|0,1:0|0:0,0:0:0:0:
305,133,135658,6,0,P|305:167|313:199,3,60,2|2|2|0,0:0|0:0|0:0|0:0,0:0:0:0:
412,207,136123,6,0,P|346:277|199:239,1,215.999993408203,6|8,1:0|1:0,0:0:0:0:
171,184,136472,1,0,0:0:0:0:
171,184,136589,2,0,P|171:123|164:67,1,107.999996704102,0|0,0:3|1:0,0:0:0:0:
23,158,136821,1,10,1:0:0:0:
79,238,136937,1,0,1:0:0:0:
0,317,137054,2,0,P|44:353|203:342,1,215.999993408203,2|8,1:0|1:0,0:0:0:0:
290,197,137403,2,0,P|393:218|485:166,1,215.999993408203,2|0,1:0|0:0,0:0:0:0:
372,120,137751,2,0,P|365:62|378:1,1,107.999996704102,10|0,1:0|0:0,0:0:0:0:
225,94,137984,6,0,B|109:85|129:156|-2:142,1,215.999993408203,2|8,1:0|1:0,0:0:0:0:
143,201,138333,1,0,0:0:0:0:
143,201,138449,2,0,P|142:258|151:324,1,107.999996704102,0|0,0:0|1:0,0:0:0:0:
423,208,138682,1,10,1:0:0:0:
448,296,138798,1,0,0:0:0:0:
341,318,138914,2,2,P|341:188|323:79,1,215.999993408203,2|10,1:0|1:0,1:0:0:0:
229,29,139263,1,0,0:0:0:0:
229,29,139379,2,0,P|228:91|220:146,1,107.999996704102,2|0,1:0|0:0,0:0:0:0:
439,131,139612,2,0,P|432:77|431:23,1,107.999996704102,8|0,1:0|0:0,0:0:0:0:
179,200,139844,6,0,P|101:207|6:330,1,215.999993408203,2|8,1:0|1:0,0:0:0:0:
138,298,140193,1,0,0:0:0:0:
138,298,140310,2,0,P|92:345|79:386,1,107.999996704102,0|0,0:0|1:0,0:0:0:0:
310,384,140542,2,0,P|290:334|251:297,1,107.999996704102,8|0,1:0|0:0,0:0:0:0:
477,353,140775,6,0,P|435:256|334:195,1,215.999993408203,2|8,1:0|1:0,0:0:0:0:
0,296,141123,2,0,P|42:198|132:140,1,215.999993408203,2|0,1:0|0:0,0:0:0:0:
235,221,141472,2,0,P|228:170|235:97,1,107.999996704102,10|0,1:0|0:0,0:0:0:0:
501,26,141705,6,0,B|379:-7|402:77|263:42,1,215.999993408203,2|8,1:0|1:0,0:0:0:0:
484,137,142054,1,2,1:0:0:0:
484,137,142170,2,0,P|421:134|367:152,1,107.999996704102,0|0,1:0|0:0,0:0:0:0:
506,273,142403,2,0,P|450:253|399:258,1,107.999996704102,10|0,1:0|0:0,0:0:0:0:
296,337,142635,6,0,L|39:325,1,215.999993408203,6|8,1:0|1:0,0:0:0:0:
216,236,142984,2,0,L|365:215,1,107.999996704102,8|0,1:0|0:0,0:0:0:0:
100,143,143216,1,0,1:0:0:0:
3,236,143333,2,0,L|109:220,1,107.999996704102,8|0,1:0|0:0,0:0:0:0:
416,208,143565,6,2,P|425:149|150:121,1,431.999986816407,6|2,1:0|1:0,1:0:0:0:
23,188,144147,1,0,1:0:0:0:
90,221,144263,1,10,1:0:0:0:
145,177,144379,1,2,1:0:0:0:
349,169,144496,5,2,1:0:0:0:
281,248,144612,1,0,1:0:0:0:
371,259,144728,1,10,1:0:0:0:
254,167,144844,1,0,1:0:0:0:
7,315,144961,5,2,1:0:0:0:
114,364,145077,1,2,1:0:0:0:
199,281,145193,1,10,1:0:0:0:
91,231,145309,1,8,1:0:0:0:
334,365,145426,6,2,P|492:185|298:46,1,539.999983520508,6|2,1:0|1:0,1:0:0:0:
233,142,146123,1,8,1:0:0:0:
264,215,146240,1,8,1:0:0:0:
149,384,146356,6,2,P|-9:204|185:64,1,539.999983520508,2|2,1:0|1:0,1:0:0:0:
187,224,147054,2,0,P|120:208|62:238,1,107.999996704102,10|0,1:0|0:0,0:0:0:0:
338,96,147286,6,2,P|421:99|301:360,1,539.999983520508,6|10,1:0|1:0,1:0:0:0:
278,240,147984,2,0,P|345:224|403:254,1,107.999996704102,10|0,1:0|0:0,0:0:0:0:
44,300,148216,6,2,P|-2:231|279:174,1,539.999983520508,6|10,1:0|1:0,1:0:0:0:
238,335,148914,2,0,P|171:319|113:349,1,107.999996704102,10|0,1:0|0:0,0:0:0:0:
274,150,149147,6,0,L|393:157,1,107.999996704102,12|0,1:3|0:0,0:0:0:0:
180,196,149379,1,10,1:0:0:0:
182,68,149496,1,0,0:0:0:0:
456,180,149612,2,0,B|466:132|466:132|451:62,1,107.999996704102,2|0,1:0|0:0,0:0:0:0:
266,260,149844,2,0,B|253:317|253:317|263:365,1,107.999996704102,10|0,1:0|0:0,0:0:0:0:
0,301,150077,6,0,P|111:328|170:225,1,215.999993408203,12|8,1:3|1:0,0:0:0:0:
512,232,150426,2,0,P|401:259|342:156,1,215.999993408203,12|0,1:3|1:0,0:0:0:0:
334,304,150775,1,8,1:0:0:0:
334,304,150891,1,8,1:0:0:0:
274,159,151007,6,0,P|305:30|411:14,1,215.999993408203,6|8,1:0|1:0,0:0:0:0:
196,136,151356,1,0,0:0:0:0:
196,136,151472,2,0,L|56:160,1,107.999996704102,0|0,0:0|1:0,0:0:0:0:
3,93,151705,1,10,1:0:0:0:
97,46,151821,1,0,1:0:0:0:
200,267,151937,6,0,B|77:251|126:338|0:318,1,215.999993408203,2|8,1:0|1:0,0:0:0:0:
277,246,152286,1,2,1:0:0:0:
277,246,152403,2,0,P|266:178|274:123,1,107.999996704102,0|0,0:0|0:0,0:0:0:0:
195,84,152635,2,0,L|52:92,1,107.999996704102,10|0,1:0|0:0,0:0:0:0:
275,31,152868,6,0,P|371:41|406:145,1,215.999993408203,2|8,1:0|1:0,0:0:0:0:
490,264,153216,1,0,0:0:0:0:
490,264,153333,2,0,P|499:207|486:138,1,107.999996704102,0|0,0:0|1:0,0:0:0:0:
386,288,153565,1,10,1:0:0:0:
277,199,153682,1,0,0:0:0:0:
202,247,153798,6,0,P|139:248|38:358,1,215.999993408203,2|8,1:0|1:0,0:0:0:0:
61,191,154147,1,0,0:0:0:0:
60,191,154263,2,0,P|65:137|59:83,1,107.999996704102,2|0,1:0|0:0,0:0:0:0:
171,9,154496,2,0,P|165:62|169:116,1,107.999996704102,8|0,1:0|0:0,0:0:0:0:
313,49,154728,6,0,P|396:57|444:183,1,215.999993408203,2|8,1:0|1:0,0:0:0:0:
285,143,155077,1,0,0:0:0:0:
229,199,155193,1,0,0:0:0:0:
292,254,155310,1,0,1:0:0:0:
292,254,155426,2,0,P|295:315|305:362,1,107.999996704102,10|0,1:0|0:0,0:0:0:0:
0,293,155658,6,0,L|168:284,1,161.999995056153,2|0,1:0|0:0,0:0:0:0:
200,278,155891,1,8,1:0:0:0:
13,172,156007,2,0,L|258:194,1,215.999993408203,10|0,1:0|0:0,0:0:0:0:
311,47,156356,2,0,P|319:100|311:153,1,107.999996704102,10|0,1:0|0:0,0:0:0:0:
505,213,156589,6,0,P|482:292|346:309,1,215.999993408203,6|8,1:0|1:0,0:0:0:0:
47,246,156937,2,0,P|87:341|190:352,1,215.999993408203,2|0,1:0|1:0,0:0:0:0:
264,271,157286,2,0,L|240:142,1,107.999996704102,14|0,1:0|0:0,0:0:0:0:
366,21,157519,6,0,P|411:67|403:171,1,161.999995056153,4|0,1:3|0:0,0:0:0:0:
394,189,157751,1,8,1:0:0:0:
110,194,157868,2,0,P|91:132|147:44,1,161.999995056153,4|0,1:3|0:0,0:0:0:0:
164,33,158100,1,8,1:0:0:0:
261,153,158216,1,8,1:0:0:0:
261,153,158333,1,0,1:0:0:0:
261,287,158449,6,0,P|146:322|85:-1,1,539.999983520508,6|2,1:0|1:0,0:0:0:0:
123,54,159147,1,10,1:0:0:0:
123,54,159263,1,2,1:0:0:0:
180,157,159379,5,0,1:0:0:0:
253,176,159496,1,2,1:0:0:0:
310,125,159612,1,10,1:0:0:0:
310,125,159728,1,2,1:0:0:0:
496,267,159844,5,2,1:0:0:0:
401,298,159961,1,2,1:0:0:0:
336,224,160077,1,10,1:0:0:0:
336,224,160193,1,2,1:0:0:0:
25,128,160310,6,0,P|87:327|298:317,1,431.999986816407,6|0,1:0|1:0,0:0:0:0:
215,229,160891,1,2,1:0:0:0:
251,125,161007,2,0,P|242:68|252:5,1,107.999996704102,10|0,1:0|0:0,0:0:0:0:
506,187,161240,6,0,L|324:175,1,161.999995056153,2|0,1:0|0:0,0:0:0:0:
311,184,161472,1,10,1:0:0:0:
177,224,161589,1,2,1:0:0:0:
297,218,161705,1,2,1:0:0:0:
207,249,161821,1,2,1:0:0:0:
325,253,161937,1,8,1:0:0:0:
201,289,162054,1,0,1:0:0:0:
213,91,162170,6,2,P|212:184|-18:223,1,323.999990112305,2|2,1:0|1:0,1:0:0:0:
84,186,162635,1,0,0:0:0:0:
9,81,162751,1,0,1:0:0:0:
128,13,162868,2,0,P|124:76|136:133,1,107.999996704102,10|0,1:0|0:0,0:0:0:0:
307,166,163100,6,2,P|308:259|538:298,1,323.999990112305,2|2,1:0|1:0,1:0:0:0:
512,214,163565,2,0,P|468:203|400:232,1,107.999996704102,0|0,0:0|1:0,0:0:0:0:
250,350,163798,2,0,P|197:360|148:341,1,107.999996704102,10|0,1:0|0:0,0:0:0:0:
5,196,164030,5,4,1:3:0:0:
13,120,164147,1,0,0:0:0:0:
72,74,164263,1,10,1:0:0:0:
202,57,164379,5,2,1:0:0:0:
303,39,164496,1,2,1:0:0:0:
384,100,164612,1,2,1:0:0:0:
496,208,164728,5,10,1:0:0:0:
496,208,164844,1,10,1:0:0:0:
253,350,164961,5,4,1:3:0:0:
253,350,165310,1,12,1:3:0:0:
253,350,165658,1,8,1:0:0:0:
262,314,165716,1,0,1:0:0:0:
247,279,165775,1,0,1:0:0:0:
255,243,165833,1,0,1:0:0:0:
328,227,165891,6,0,B|158:171|199:337|15:291,1,323.999990112305,2|0,1:0|0:0,0:0:0:0:
191,154,166356,2,0,P|190:94|180:38,1,107.999996704102,2|0,1:0|0:0,0:0:0:0:
1,124,166589,2,0,P|59:120|118:112,1,107.999996704102,10|0,1:0|0:0,0:0:0:0:
266,48,166821,6,0,P|359:28|442:78,1,161.999995056153,2|0,1:0|0:0,0:0:0:0:
430,93,167054,1,10,1:0:0:0:
290,221,167170,1,2,1:0:0:0:
379,203,167286,5,2,1:0:0:0:
204,150,167403,1,0,1:0:0:0:
354,306,167519,5,10,1:0:0:0:
314,114,167635,1,2,1:0:0:0:
416,359,167751,6,2,P|495:279|232:68,1,539.999983520508,6|2,1:0|1:0,1:0:0:0:
330,204,168449,1,10,1:0:0:0:
204,134,168565,1,2,1:0:0:0:
366,111,168682,2,0,P|426:168|374:294,1,215.999993408203,6|10,1:0|1:0,0:0:0:0:
84,143,169030,2,0,P|122:47|224:38,1,215.999993408203,2|0,1:0|1:0,0:0:0:0:
213,341,169379,2,0,L|78:369,1,107.999996704102,10|0,1:0|0:0,0:0:0:0:
228,205,169612,6,2,B|384:169|343:335|514:314,1,323.999990112305,4|0,1:3|1:0,1:0:0:0:
431,209,170077,2,0,P|426:159|431:97,1,107.999996704102,0|0,1:0|0:0,0:0:0:0:
305,111,170310,2,0,P|310:57|305:3,1,107.999996704102,8|0,1:0|0:0,0:0:0:0:
173,77,170542,5,0,1:0:0:0:
173,77,170658,1,0,0:0:0:0:
62,143,170775,1,10,1:0:0:0:
146,155,170891,1,2,1:0:0:0:
76,50,171007,5,2,1:0:0:0:
195,220,171123,1,2,1:0:0:0:
122,338,171240,5,8,1:0:0:0:
299,186,171356,1,2,1:0:0:0:
464,355,171472,6,2,B|228:395|268:169|72:217,1,431.999986816407,2|2,1:0|1:0,1:0:0:0:
132,123,172054,1,2,1:0:0:0:
136,307,172170,1,10,1:0:0:0:
0,225,172286,1,2,1:0:0:0:
255,38,172403,5,4,1:3:0:0:
255,38,172751,1,4,1:3:0:0:
255,38,173100,1,12,1:3:0:0:
255,38,173333,6,0,P|351:43|413:245,1,323.999990112305,6|0,1:0|0:0,0:0:0:0:
191,234,173798,2,0,P|179:163|196:114,1,107.999996704102,0|0,1:0|0:0,0:0:0:0:
328,159,174030,1,8,1:0:0:0:
262,216,174147,1,0,0:0:0:0:
328,263,174263,2,0,P|338:316|327:368,1,107.999996704102,2|0,1:0|0:0,0:0:0:0:
0,316,174496,1,10,1:0:0:0:
0,316,174612,2,0,L|256:322,1,215.999993408203,2|0,1:0|1:0,0:0:0:0:
56,221,174961,1,10,1:0:0:0:
139,201,175077,1,0,0:0:0:0:
181,70,175193,6,0,P|206:161|419:178,1,323.999990112305,2|0,1:0|1:0,0:0:0:0:
404,70,175658,2,0,P|463:78|511:122,1,107.999996704102,0|0,1:0|0:0,0:0:0:0:
500,277,175891,2,0,P|457:308|404:314,1,107.999996704102,8|0,1:0|1:0,0:0:0:0:
204,294,176123,6,0,B|82:276|118:362|-20:340,1,215.999993408203,2|8,1:0|1:0,0:0:0:0:
173,375,176472,1,8,1:3:0:0:
147,204,176589,1,0,0:0:0:0:
48,41,176705,5,0,1:0:0:0:
35,117,176821,1,8,1:0:0:0:
24,195,176937,1,0,1:0:0:0:
162,34,177054,6,0,P|245:45|289:263,1,323.999990112305,6|2,1:0|1:0,0:0:0:0:
100,345,177519,2,0,P|151:329|223:351,1,107.999996704102,2|0,1:0|0:0,0:0:0:0:
110,257,177751,2,0,P|58:240|6:251,1,107.999996704102,10|0,1:0|0:0,0:0:0:0:
174,36,177984,6,0,P|257:47|301:265,1,323.999990112305,6|2,1:0|1:0,0:0:0:0:
4,145,178449,2,0,P|2:82|16:32,1,107.999996704102,0|0,1:0|0:0,0:0:0:0:
81,182,178682,1,10,1:0:0:0:
81,182,178798,1,8,1:0:0:0:
174,36,178914,6,0,P|257:47|196:325,1,431.999986816407,4|2,1:3|1:0,0:0:0:0:
59,354,179496,1,0,0:0:0:0:
59,354,179612,2,0,P|111:353|176:364,1,107.999996704102,10|0,1:0|0:0,0:0:0:0:
137,158,179844,1,6,1:0:0:0:
96,89,179961,2,0,P|25:116|23:265,1,215.999993408203,2|0,1:0|0:0,0:0:0:0:
206,212,180310,2,0,L|318:221,1,107.999996704102,2|0,1:0|0:0,0:0:0:0:
436,316,180542,1,10,1:0:0:0:
449,123,180658,1,2,1:0:0:0:
116,301,180775,6,0,B|226:278|203:370|349:342,1,215.999993408203,4|10,1:3|1:0,0:0:0:0:
395,238,181123,1,0,0:0:0:0:
395,238,181240,2,0,P|457:232|505:266,1,107.999996704102,0|2,1:0|1:0,0:0:0:0:
302,149,181472,2,0,P|247:137|184:171,1,107.999996704102,10|0,1:0|0:0,0:0:0:0:
8,196,181705,5,4,1:3:0:0:
256,362,182054,1,4,1:3:0:0:
501,193,182403,1,4,1:3:0:0:
253,32,182635,6,0,P|121:64|123:336,1,431.999986816407,6|2,1:0|1:0,0:0:0:0:
177,297,183216,1,0,1:0:0:0:
177,297,183333,1,2,1:0:0:0:
317,80,183449,2,0,P|449:112|447:384,1,431.999986816407,6|0,1:0|1:0,0:0:0:0:
325,260,184030,1,2,1:0:0:0:
210,378,184147,1,0,0:0:0:0:
365,355,184263,1,4,1:3:0:0:
216,287,184379,1,0,1:0:0:0:
251,65,184496,5,6,1:0:0:0:
251,65,184844,1,4,1:3:0:0:
251,65,185193,1,4,1:3:0:0:
251,65,185426,2,0,P|259:135|252:239,1,161.999995056153,12|0,1:3|0:0,0:0:0:0:
226,247,185658,1,10,1:0:0:0:
84,195,185775,1,10,1:0:0:0:
84,195,186007,1,10,1:0:0:0:
93,351,186123,1,8,1:3:0:0:
141,272,186240,1,0,0:0:0:0:
122,51,186356,6,0,P|24:82|21:221,1,215.999993408203,12|8,1:3|1:0,0:0:0:0:
151,161,186705,1,0,0:0:0:0:
206,216,186821,2,0,P|261:208|310:228,1,107.999996704102,0|2,1:0|1:0,0:0:0:0:
169,375,187054,2,0,P|147:323|155:271,1,107.999996704102,8|0,1:0|0:0,0:0:0:0:
469,288,187286,6,0,L|243:315,1,215.999993408203,6|10,1:0|1:0,0:0:0:0:
62,203,187635,1,8,1:0:0:0:
62,203,187868,1,8,1:0:0:0:
256,101,187984,1,2,1:0:0:0:
448,198,188100,1,8,1:0:0:0:
169,254,188216,6,0,P|140:195|365:29,1,420,12|0,1:3|0:0,0:0:0:0:
431,57,189147,1,0,1:0:0:0:
366,102,189263,1,0,1:0:0:0:
445,73,189379,1,10,1:0:0:0:
445,73,189612,5,10,1:0:0:0:
480,153,189728,5,2,1:0:0:0:
484,257,189844,5,2,1:0:0:0:
415,357,189961,5,8,1:0:0:0:
0,179,190077,6,0,L|400:222,1,360,6|0,1:0|1:0,0:0:0:0:
183,298,190542,1,2,1:0:0:0:
204,109,190658,1,0,0:0:0:0:
357,217,190775,1,10,1:0:0:0:
512,18,190891,6,0,L|254:44,1,240,2|2,1:0|1:0,0:0:0:0:
492,227,191240,2,0,B|501:165|501:165|481:111,1,120,10|0,1:0|0:0,0:0:0:0:
309,190,191472,2,0,B|300:252|300:252|328:330,1,120,2|0,1:0|0:0,0:0:0:0:
512,355,191705,2,0,L|393:367,1,120,10|0,1:0|0:0,0:0:0:0:
214,251,191937,6,0,B|101:294|101:294|-17:222,1,240,6|10,1:0|1:0,0:0:0:0:
309,151,192286,1,2,1:0:0:0:
309,151,192403,2,0,L|311:31,1,120,0|0,0:0|1:0,0:0:0:0:
201,31,192635,2,0,L|203:151,1,120,10|0,1:0|0:0,0:0:0:0:
298,281,192868,2,0,B|411:324|411:324|529:252,1,240,6|10,1:0|1:0,0:0:0:0:
217,175,193216,5,2,1:0:0:0:
217,175,193333,2,0,L|215:55,1,120,0|0,1:0|0:0,0:0:0:0:
325,55,193565,2,0,L|323:175,1,120,10|0,1:0|0:0,0:0:0:0:
214,310,193798,2,0,B|101:353|101:353|-18:298,1,240,6|8,1:0|1:0,0:0:0:0:
91,222,194147,1,0,1:0:0:0:
0,124,194263,2,0,B|54:107|54:107|121:125,1,120,0|0,0:0|1:0,0:0:0:0:
157,37,194496,1,10,1:0:0:0:
387,29,194612,6,0,P|481:77|476:223,1,240,4|0,1:3|0:0,0:0:0:0:
308,188,194961,2,0,L|179:210,1,120,10|0,1:0|0:0,0:0:0:0:
337,266,195193,1,2,1:0:0:0:
308,102,195310,1,0,0:0:0:0:
268,336,195426,2,0,L|397:358,1,120,10|0,1:0|0:0,0:0:0:0:
98,350,195658,6,0,L|125:92,1,240,6|0,1:0|0:0,0:0:0:0:
128,22,196007,1,0,1:0:0:0:
36,154,196123,1,2,1:0:0:0:
196,176,196240,1,0,1:0:0:0:
18,43,196356,5,10,1:0:0:0:
245,63,196472,1,2,1:0:0:0:
104,244,196589,1,4,1:3:0:0:
122,111,196705,1,0,1:0:0:0:
233,293,196821,2,2,P|288:351|497:235,1,360,10|0,1:0|1:0,1:0:0:0:
449,183,197286,1,8,1:0:0:0:
477,112,197403,1,0,1:0:0:0:
326,53,197519,6,0,P|112:57|136:269,1,480,6|0,1:0|0:0,0:0:0:0:
212,172,198100,1,2,1:0:0:0:
152,371,198216,1,10,1:0:0:0:
5,222,198333,1,2,1:0:0:0:
294,149,198449,6,0,P|363:170|399:328,1,240,2|8,1:0|1:0,0:0:0:0:
152,371,198798,2,0,P|142:257|241:201,1,240,2|0,1:0|0:0,0:0:0:0:
227,304,199147,1,10,1:0:0:0:
227,304,199263,1,2,1:0:0:0:
56,368,199379,5,6,1:0:0:0:
39,205,199496,1,2,1:0:0:0:
19,45,199612,1,2,1:0:0:0:
19,45,199844,5,0,1:0:0:0:
39,205,199960,1,0,1:0:0:0:
56,368,200077,1,4,1:0:0:0:
143,252,200193,6,0,B|136:7,1,240,6|0,1:0|1:0,0:0:0:0:
309,9,200542,2,0,B|290:65|290:65|302:124,1,120,10|0,1:0|0:0,0:0:0:0:
486,194,200775,2,0,B|347:170|394:254|239:228,1,240,2|10,1:0|1:0,0:0:0:0:
236,152,201123,1,2,1:0:0:0:
498,50,201240,5,6,1:0:0:0:
498,50,201589,1,4,1:3:0:0:
254,125,201937,5,2,1:0:0:0:
254,125,202054,1,2,1:0:0:0:
14,50,202170,5,6,1:0:0:0:
14,50,202519,1,4,1:3:0:0:
259,200,202868,5,2,1:0:0:0:
259,200,202985,1,2,1:0:0:0:
498,50,203100,5,6,1:0:0:0:
498,50,203449,1,4,1:3:0:0:
498,50,203798,1,2,1:0:0:0:
349,137,203914,1,2,1:0:0:0:
485,221,204030,2,0,B|503:279|503:279|487:352,1,120,6|0,1:0|0:0,0:0:0:0:
346,263,204263,5,8,1:3:0:0:
158,135,204379,1,2,1:0:0:0:
248,332,204496,5,0,1:0:0:0:
257,69,204612,1,2,1:0:0:0:
162,254,204728,5,2,1:0:0:0:
349,137,204844,1,2,1:0:0:0:
13,27,204961,6,0,L|59:396,1,360,6|0,1:0|0:0,0:0:0:0:
140,155,205426,1,2,1:0:0:0:
238,100,205542,1,2,1:0:0:0:
379,90,205658,1,10,1:0:0:0:
479,277,205775,6,0,L|507:0,1,240,6|0,1:0|0:0,0:0:0:0:
399,203,206123,2,0,B|342:186|342:186|267:204,1,120,8|0,1:0|0:0,0:0:0:0:
291,350,206356,2,0,B|349:364|349:364|406:347,1,120,2|0,1:0|1:0,0:0:0:0:
246,272,206589,2,0,L|115:288,1,120,10|0,1:0|0:0,0:0:0:0:
4,123,206821,6,0,L|39:403,1,240,6|8,1:0|1:0,0:0:0:0:
312,116,207170,1,2,1:0:0:0:
312,116,207286,2,0,B|333:174|333:174|312:250,1,120,2|0,1:0|0:0,0:0:0:0:
183,203,207519,2,0,B|167:146|167:146|188:88,1,120,10|0,1:0|0:0,0:0:0:0:
491,59,207751,2,0,L|456:339,1,240,6|8,1:0|1:0,0:0:0:0:
57,120,208100,1,4,1:3:0:0:
57,120,208449,1,10,1:0:0:0:
57,120,208682,6,2,P|54:224|376:142,1,600,6|2,1:0|1:0,1:0:0:0:
229,187,209379,1,10,1:0:0:0:
492,179,209496,6,0,P|479:90|333:61,1,240,4|0,1:3|0:0,0:0:0:0:
170,34,209844,2,0,L|247:140,1,120,8|0,1:0|0:0,0:0:0:0:
31,167,210077,2,0,L|56:49,1,120,2|0,1:0|0:0,0:0:0:0:
210,227,210310,2,0,L|84:256,1,120,10|0,1:0|1:0,0:0:0:0:
265,293,210542,2,0,B|388:281|347:382|502:358,1,240,6|8,1:0|1:0,0:0:0:0:
398,240,210891,1,0,1:0:0:0:
482,182,211007,1,0,1:0:0:0:
338,138,211123,1,2,1:0:0:0:
424,73,211240,1,8,1:0:0:0:
293,214,211356,5,2,1:0:0:0:
127,154,211472,1,0,1:0:0:0:
325,53,211589,1,2,1:0:0:0:
151,6,211705,2,0,P|-8:115|72:277,1,360,4|0,1:3|1:0,0:0:0:0:
143,236,212170,1,8,1:0:0:0:
238,303,212286,1,0,1:0:0:0:
466,323,212403,6,0,P|496:157|156:119,1,600,6|0,1:0|0:0,0:0:0:0:
323,248,213100,2,0,B|332:189|332:189|309:115,1,120,10|0,1:0|0:0,0:0:0:0:
178,297,213333,2,0,P|239:367|392:350,1,240,6|8,1:0|1:0,0:0:0:0:
239,195,213682,2,0,B|111:176|136:271|7:257,1,240,4|0,1:3|0:0,0:0:0:0:
103,353,214030,1,10,1:0:0:0:
103,353,214147,1,8,1:0:0:0:
83,113,214263,5,6,1:0:0:0:
244,61,214379,1,2,1:0:0:0:
424,113,214496,1,2,1:0:0:0:
424,113,214728,5,6,1:0:0:0:
244,61,214845,1,2,1:0:0:0:
83,113,214961,1,2,1:0:0:0:
326,239,215077,6,0,P|424:226|513:332,1,240,4|0,1:3|0:0,0:0:0:0:
176,272,215426,2,0,P|114:270|45:281,1,120,8|0,1:0|0:0,0:0:0:0:
261,194,215658,1,2,1:0:0:0:
221,354,215775,1,0,1:0:0:0:
57,114,215891,2,0,P|108:117|188:114,1,120,10|0,1:0|0:0,0:0:0:0:
489,198,216123,5,6,1:0:0:0:
489,198,216472,1,4,1:3:0:0:
252,280,216821,5,2,1:0:0:0:
252,280,216937,1,2,1:0:0:0:
23,198,217054,5,6,1:0:0:0:
23,198,217403,1,4,1:3:0:0:
257,359,217751,5,2,1:0:0:0:
257,359,217868,1,2,1:0:0:0:
499,226,217984,5,6,1:0:0:0:
499,226,218333,1,4,1:3:0:0:
499,226,218682,5,2,1:0:0:0:
252,302,218798,1,2,1:0:0:0:
377,351,218914,2,0,B|389:292|389:292|374:230,1,120,6|0,1:0|0:0,0:0:0:0:
133,243,219147,1,2,1:0:0:0:
133,243,219263,2,0,B|119:301|119:301|131:360,1,120,2|0,1:0|1:0,0:0:0:0:
316,182,219496,1,2,1:0:0:0:
167,144,219612,1,2,1:0:0:0:
255,17,219728,1,2,1:0:0:0:
44,200,219844,5,12,3:0:0:0:
130,242,220077,1,0,1:0:0:0:
220,209,220310,1,0,1:0:0:0:
245,59,220542,5,8,1:3:0:0:
245,59,220658,1,0,0:0:0:0:
334,110,220891,1,0,1:0:0:0:
432,67,221123,1,0,1:0:0:0:
432,67,221240,1,8,3:0:0:0:
432,67,221356,1,0,0:0:0:0:
432,67,221472,1,0,1:0:0:0:
432,67,221589,1,0,0:0:0:0:
246,145,221705,5,8,1:3:0:0:
309,219,221937,1,0,1:0:0:0:
400,206,222170,1,0,1:0:0:0:
213,236,222403,5,8,1:3:0:0:
213,236,222519,1,0,1:0:0:0:
150,310,222751,1,0,1:0:0:0:
59,297,222984,1,0,1:0:0:0:
248,334,223100,6,0,B|206:182|320:220|260:34,1,270.000010299683,4|0,0:3|0:0,0:0:0:0:
181,41,223565,5,12,0:3:0:0:
361,41,223798,1,0,1:0:0:0:
181,41,224030,1,0,1:0:0:0:
145,191,224263,5,8,1:3:0:0:
145,191,224379,1,0,0:0:0:0:
394,192,224612,1,0,1:0:0:0:
204,353,224844,5,0,1:0:0:0:
224,341,224961,1,8,3:0:0:0:
252,352,225077,1,0,1:0:0:0:
271,343,225194,1,0,0:0:0:0:
297,349,225310,1,0,1:0:0:0:
252,265,225426,5,8,3:0:0:0:
341,189,225658,1,0,1:0:0:0:
249,113,225891,1,0,1:0:0:0:
173,195,226123,1,0,1:0:0:0:
173,195,226240,2,0,B|270:182|252:236|378:215,1,180.000006866455,8|0,3:0|1:0,0:0:0:0:
422,188,226589,1,0,1:0:0:0:
492,221,226705,1,0,0:0:0:0:
487,109,226821,5,8,1:0:0:0:
429,290,227054,1,10,1:0:0:0:
29,63,227286,5,4,1:3:0:0:
29,63,227519,1,0,1:0:0:0:
59,278,227751,1,8,1:0:0:0:
192,119,227984,5,0,1:0:0:0:
189,159,228100,1,8,0:3:0:0:
173,350,228333,1,8,0:3:0:0:
339,350,228565,5,8,1:3:0:0:
336,310,228681,1,8,1:0:0:0:
320,119,228914,1,8,0:3:0:0:
501,246,229147,5,4,1:3:0:0:
501,246,229380,1,0,1:0:0:0:
471,31,229612,1,8,1:0:0:0:
147,206,229844,5,0,1:0:0:0:
191,204,229961,1,8,0:3:0:0:
369,199,230193,1,8,0:3:0:0:
369,199,230426,1,0,1:0:0:0:
488,167,230542,5,12,1:3:0:0:
33,188,230775,1,2,1:0:0:0:
181,340,231007,5,12,1:3:0:0:
181,340,231240,1,0,1:0:0:0:
197,112,231472,1,8,1:0:0:0:
369,360,231705,5,0,1:0:0:0:
361,313,231821,1,8,0:3:0:0:
328,195,232054,1,8,1:3:0:0:
332,152,232170,1,0,1:0:0:0:
376,44,232286,1,8,1:3:0:0:
390,98,232403,1,8,1:0:0:0:
390,98,232635,1,8,0:3:0:0:
154,355,232868,5,4,1:3:0:0:
154,355,233101,1,0,1:0:0:0:
119,100,233333,1,8,1:0:0:0:
362,36,233566,5,0,1:0:0:0:
319,54,233682,1,8,0:3:0:0:
400,103,233798,5,0,1:0:0:0:
471,121,233914,1,8,1:3:0:0:
320,142,234030,5,8,1:0:0:0:
237,184,234147,1,2,1:0:0:0:
244,98,234263,5,8,1:3:0:0:
316,238,234379,1,10,1:0:0:0:
400,103,234496,1,0,1:0:0:0:
151,221,234612,1,8,1:0:0:0:
479,191,234728,5,4,1:3:0:0:
479,191,236589,5,4,1:0:0:0:
487,198,237286,1,0,1:0:0:0:
487,198,237403,1,0,1:0:0:0:
487,198,237519,1,4,1:3:0:0:
487,198,238449,5,6,1:0:0:0:
37,212,238682,5,6,1:0:0:0:
45,220,239147,5,2,1:0:0:0:
45,220,239263,1,2,1:0:0:0:
45,220,239379,5,8,1:0:0:0:
260,174,239728,1,10,1:0:0:0:
474,212,240077,1,8,1:3:0:0:
256,368,240310,5,4,1:3:0:0:
262,376,241007,5,0,1:0:0:0:
262,376,241123,1,0,1:0:0:0:
262,376,241240,1,4,1:2:0:0:
296,303,241472,1,8,1:0:0:0:
257,233,241705,1,0,1:0:0:0:
219,211,241782,1,0,1:0:0:0:
175,216,241860,1,0,1:0:0:0:
145,248,241937,5,0,1:0:0:0:
110,318,242054,1,0,1:0:0:0:
59,246,242170,6,2,P|30:158|259:36,1,360,6|0,1:0|0:0,0:0:0:0:
353,181,242635,2,0,P|394:170|481:196,1,120,2|0,1:0|0:0,0:0:0:0:
299,265,242868,1,10,1:0:0:0:
281,86,242984,1,0,1:0:0:0:
407,275,243100,5,2,1:0:0:0:
341,352,243216,2,0,P|248:382|133:283,1,240,2|2,1:0|1:0,0:0:0:0:
228,195,243565,1,2,1:0:0:0:
89,154,243682,1,0,1:0:0:0:
0,260,243798,2,0,P|62:258|115:227,1,120,10|0,1:0|0:0,0:0:0:0:
374,82,244030,6,0,L|176:33,1,180,6|0,1:0|0:0,0:0:0:0:
167,22,244263,2,0,P|155:97|171:150,1,120,10|0,1:0|0:0,0:0:0:0:
323,268,244496,2,0,P|266:215|219:207,1,120,2|0,1:0|0:0,0:0:0:0:
133,225,244728,2,0,P|76:266|67:325,1,120,10|2,1:0|1:0,0:0:0:0:
277,360,244961,6,2,P|366:364|413:212,1,240,6|8,1:0|1:0,0:0:0:0:
77,89,245310,2,2,P|113:196|226:206,1,240,2|0,1:0|0:0,0:0:0:0:
324,120,245658,2,0,P|335:54|316:0,1,120,10|0,1:0|0:0,0:0:0:0:
465,58,245891,6,0,P|467:155|340:223,1,240,6|8,1:0|1:0,0:0:0:0:
209,344,246240,2,2,P|107:336|50:190,1,240,2|0,1:0|1:0,0:0:0:0:
70,145,246589,2,2,P|93:294|280:300,1,360,14|0,1:0|1:0,0:0:0:0:
258,180,247054,2,0,P|202:201|170:274,1,120,10|0,1:0|0:0,0:0:0:0:
366,383,247286,2,0,P|396:332|390:274,1,120,2|0,1:0|0:0,0:0:0:0:
465,182,247519,2,0,L|332:199,1,120,10|0,1:0|0:0,0:0:0:0:
388,43,247751,5,6,1:0:0:0:
460,73,247868,1,0,0:0:0:0:
336,98,247984,5,10,1:0:0:0:
231,120,248100,1,2,1:0:0:0:
408,297,248216,1,2,1:0:0:0:
432,175,248333,1,0,1:0:0:0:
195,236,248449,1,10,1:0:0:0:
286,326,248565,1,2,1:0:0:0:
142,137,248681,5,2,1:0:0:0:
70,167,248798,1,0,0:0:0:0:
265,146,248915,5,10,1:0:0:0:
343,172,249031,1,0,1:0:0:0:
169,325,249147,5,2,1:0:0:0:
145,216,249264,1,2,1:0:0:0:
419,290,249380,5,10,1:0:0:0:
303,380,249496,1,0,1:0:0:0:
316,72,249612,6,0,P|409:66|468:213,1,240,6|8,1:0|1:0,0:0:0:0:
63,142,249961,1,0,1:0:0:0:
63,142,250019,2,0,P|102:45|189:30,1,180,2|2,0:1|1:0,0:0:0:0:
257,276,250310,2,0,B|162:266|185:338|54:315,1,180,10|0,1:0|0:0,0:0:0:0:
232,188,250542,2,0,P|323:195|361:281,1,180,6|0,1:0|0:0,0:0:0:0:
445,248,250775,2,0,P|436:293|450:368,1,120,10|0,1:0|0:0,0:0:0:0:
344,349,251007,1,0,1:0:0:0:
419,171,251123,1,2,1:0:0:0:
394,95,251240,2,2,L|252:71,1,120,10|0,1:0|0:0,0:0:0:0:
94,18,251472,6,0,P|13:83|45:209,1,240,4|8,1:3|1:0,0:0:0:0:
114,267,251821,1,2,1:0:0:0:
114,267,251937,2,0,P|216:281|287:172,1,240,4|10,1:3|1:0,0:0:0:0:
288,91,252286,1,0,1:0:0:0:
288,91,252403,2,0,P|241:43|171:33,1,120,4|2,1:3|1:0,0:0:0:0:
191,31,252577,1,0,1:0:0:0:
191,31,252635,1,10,1:0:0:0:
171,148,252751,1,2,1:0:0:0:
324,305,252868,5,2,1:0:0:0:
365,193,252984,1,2,1:0:0:0:
365,193,253042,1,0,1:0:0:0:
365,193,253100,1,8,1:0:0:0:
240,218,253216,1,2,1:0:0:0:
463,273,253333,2,0,P|464:194|305:107,1,240,12|8,1:3|1:0,0:0:0:0:
171,31,253682,2,0,P|69:87|53:201,1,240,2|2,1:0|1:0,0:0:0:0:
125,365,254030,2,0,L|389:320,1,240,12|0,1:3|0:0,0:0:0:0:
497,31,254379,6,2,B|359:6|407:110|236:80,1,240,2|0,1:0|0:0,0:0:0:0:
144,235,254728,2,0,B|203:222|203:222|264:229,1,120,12|0,1:3|0:0,0:0:0:0:
366,364,254961,2,0,B|307:351|307:351|246:358,1,120,10|0,1:0|0:0,0:0:0:0:
52,255,255193,6,0,L|32:2,1,240,12|10,1:3|1:0,0:0:0:0:
347,279,255542,2,0,L|367:26,1,240,4|10,1:3|1:0,0:0:0:0:
147,201,255891,2,0,L|163:59,1,120,8|2,1:0|1:0,0:0:0:0:
253,304,256123,6,0,L|237:162,1,120,12|0,1:3|0:0,0:0:0:0:
450,176,256356,2,0,L|434:34,1,120,10|0,1:0|0:0,0:0:0:0:
332,276,256589,6,0,L|348:134,1,120,10|4,1:0|1:3,0:0:0:0:
135,148,256822,2,0,L|151:6,1,120,2|8,1:0|1:0,0:0:0:0:
9,281,257054,5,12,1:3:0:0:
503,281,257286,1,10,1:0:0:0:
503,281,257403,1,12,1:3:0:0:
9,281,257635,5,2,1:0:0:0:
255,261,257751,1,2,1:0:0:0:
503,281,257868,1,12,1:3:0:0:
503,281,258100,1,8,1:3:0:0:
503,281,258449,6,0,L|494:214,5,40,2|2|2|0|2|0,0:0|0:0|0:0|0:0|0:0|0:0,0:0:0:0:
422,322,258914,6,0,B|354:299|354:299|272:327,1,143.999995605469,6|2,1:0|1:0,0:0:0:0:
354,376,259147,1,8,1:0:0:0:
39,253,259263,6,0,B|142:244|108:302|230:292,1,180.000006866455,2|10,1:0|1:0,0:0:0:0:
9,186,259612,1,8,1:0:0:0:
9,186,259728,1,2,1:0:0:0:
316,175,259844,6,0,B|329:108|329:108|305:18,1,143.999995605469,2|2,1:0|1:0,0:0:0:0:
244,112,260077,1,8,1:0:0:0:
409,353,260193,2,0,P|490:318|404:188,1,287.999991210938,2|2,1:0|1:0,0:0:0:0:
321,278,260542,1,10,1:0:0:0:
243,251,260658,1,2,1:0:0:0:
27,334,260775,6,0,B|14:267|14:267|38:177,1,143.999995605469,12|2,1:3|1:0,0:0:0:0:
121,271,261007,1,8,1:0:0:0:
270,42,261123,6,0,L|471:62,1,180.000006866455,2|10,1:0|1:0,0:0:0:0:
212,115,261472,1,10,1:0:0:0:
212,115,261589,1,2,1:0:0:0:
449,302,261705,6,0,B|462:235|462:235|438:145,1,143.999995605469,6|2,1:0|1:0,0:0:0:0:
512,142,261937,1,8,1:0:0:0:
335,354,262054,2,0,B|236:322|236:322|201:265|201:265|68:225,1,287.999991210938,2|2,1:0|1:0,0:0:0:0:
25,144,262403,1,10,1:0:0:0:
86,71,262519,1,2,1:0:0:0:
236,76,262635,5,12,1:3:0:0:
291,132,262751,1,2,1:0:0:0:
252,196,262868,1,8,1:0:0:0:
235,316,262984,5,2,1:0:0:0:
197,247,263100,1,2,1:0:0:0:
252,196,263217,1,0,1:0:0:0:
443,213,263333,5,10,1:0:0:0:
342,270,263449,1,2,1:0:0:0:
252,196,263565,1,12,1:3:0:0:
61,179,263682,5,2,1:0:0:0:
162,122,263798,1,8,1:0:0:0:
252,196,263914,1,2,1:0:0:0:
157,294,264030,5,2,1:0:0:0:
340,90,264147,1,2,1:0:0:0:
265,358,264263,5,10,1:0:0:0:
234,31,264379,1,10,1:0:0:0:
486,115,264496,6,2,B|220:73|299:301|2:261,1,503.999984619141,12|0,1:3|0:0,0:0:0:0:
54,354,264961,6,0,B|129:340|129:340|200:367,1,143.999995605469,2|0,1:0|0:0,0:0:0:0:
282,291,265193,2,0,B|345:266|345:266|420:280,1,143.999995605469,10|0,1:0|0:0,0:0:0:0:
247,8,265426,2,0,P|196:98|17:103,1,287.999991210938,12|10,1:3|1:0,0:0:0:0:
119,36,265775,1,2,1:0:0:0:
119,36,266007,1,2,1:0:0:0:
119,36,266123,1,10,1:0:0:0:
274,141,266240,1,2,1:0:0:0:
56,202,266356,6,2,P|117:301|440:8,1,719.999978027344,12|2,1:3|1:0,0:0:0:0:
380,28,267054,2,0,L|201:55,1,143.999995605469,10|0,1:0|0:0,0:0:0:0:
234,126,267286,5,12,1:3:0:0:
198,124,267344,1,0,1:0:0:0:
165,141,267403,1,0,1:0:0:0:
151,174,267461,1,0,1:0:0:0:
164,207,267519,1,10,1:0:0:0:
194,225,267577,1,0,1:0:0:0:
229,225,267635,1,0,1:0:0:0:
261,209,267693,1,0,1:0:0:0:
294,196,267751,5,2,1:0:0:0:
337,204,267810,1,0,1:0:0:0:
367,234,267868,1,0,1:0:0:0:
365,277,267926,1,0,1:0:0:0:
340,312,267984,1,2,1:0:0:0:
298,322,268042,1,0,1:0:0:0:
257,307,268100,1,2,1:0:0:0:
214,301,268158,1,0,1:0:0:0:
173,321,268216,6,0,P|89:277|246:28,1,480,4|0,1:3|0:0,0:0:0:0:
178,109,269263,5,0,0:0:0:0:
170,102,269379,1,0,0:0:0:0:
250,141,269496,5,0,0:0:0:0:
317,102,269612,1,0,0:0:0:0:
380,148,269728,1,0,0:0:0:0:
442,104,269844,1,0,0:0:0:0:
456,73,270077,6,0,L|442:383,1,300
279,237,270775,5,0,0:0:0:0:
211,275,270891,1,0,0:0:0:0:
84,179,271007,5,0,0:0:0:0:
18,220,271356,1,0,0:0:0:0:
67,280,271705,1,0,0:0:0:0:
255,28,271937,5,4,1:3:0:0:
255,28,272868,1,8,3:0:0:0:
241,191,273216,1,0,1:3:0:0:
259,357,273565,1,8,1:3:0:0:
499,119,273798,6,0,P|417:137|307:131,1,180,12|0,1:3|0:0,0:0:0:0:
248,140,274263,1,2,1:0:0:0:
206,205,274379,1,2,1:0:0:0:
222,135,274496,1,0,0:0:0:0:
233,216,274612,1,2,1:0:0:0:
49,187,274728,5,4,1:3:0:0:
250,305,274961,1,0,1:0:0:0:
250,304,275077,1,4,1:3:0:0:
463,187,275310,1,0,1:3:0:0:
463,187,275426,2,0,P|462:233|466:274,1,60,4|0,1:3|0:0,0:0:0:0:
320,200,275658,6,0,P|236:202|213:343,1,215.999993408203,6|8,1:0|1:0,0:0:0:0:
290,276,276007,1,0,0:0:0:0:
343,337,276123,2,0,P|394:326|453:346,1,107.999996704102,0|0,1:0|0:0,0:0:0:0:
389,239,276356,1,8,1:0:0:0:
483,178,276472,1,0,0:0:0:0:
346,83,276589,6,0,P|398:93|449:78,1,107.999996704102,2|0,1:0|0:0,0:0:0:0:
245,58,276821,2,0,L|24:76,1,215.999993408203,10|0,1:0|0:0,0:0:0:0:
97,184,277170,1,0,1:0:0:0:
173,167,277286,2,0,P|184:227|173:285,1,107.999996704102,10|0,1:0|0:0,0:0:0:0:
298,151,277519,6,0,B|412:140|383:211|516:203,1,215.999993408203,2|8,1:0|1:0,0:0:0:0:
344,258,277868,1,0,1:0:0:0:
458,355,277984,1,0,1:0:0:0:
422,274,278100,5,0,0:0:0:0:
271,342,278216,2,0,P|263:282|267:219,1,107.999996704102,8|0,1:0|1:0,0:0:0:0:
48,293,278449,2,0,L|165:288,1,107.999996704102,2|0,1:0|0:0,0:0:0:0:
262,109,278682,5,8,1:0:0:0:
133,66,278798,1,8,1:3:0:0:
8,102,278914,1,0,0:0:0:0:
126,154,279030,1,0,1:0:0:0:
245,99,279147,1,8,1:0:0:0:
387,147,279263,1,0,1:0:0:0:
504,69,279379,6,2,P|370:25|261:151,1,323.999990112305,6|2,1:0|1:0,1:0:0:0:
364,271,279844,2,0,L|488:263,1,107.999996704102,2|0,1:0|0:0,0:0:0:0:
364,191,280077,1,10,1:0:0:0:
382,360,280193,1,0,0:0:0:0:
492,90,280310,6,0,P|358:46|249:172,1,323.999990112305,6|2,1:0|1:0,0:0:0:0:
179,350,280775,1,0,1:0:0:0:
96,216,280891,1,0,0:0:0:0:
173,252,281007,1,10,1:0:0:0:
24,292,281123,1,8,1:0:0:0:
6,90,281240,6,2,P|153:49|248:169,1,323.999990112305,4|0,1:3|0:0,1:0:0:0:
420,57,281705,2,0,P|367:74|304:90,1,107.999996704102,2|0,1:0|0:0,0:0:0:0:
330,248,281937,2,0,P|380:253|451:264,1,107.999996704102,10|0,1:0|0:0,0:0:0:0:
330,164,282170,1,6,1:0:0:0:
239,273,282286,1,2,1:0:0:0:
351,359,282403,1,8,1:0:0:0:
436,261,282519,1,0,0:0:0:0:
512,148,282635,6,0,L|402:191,1,107.999996704102,2|0,1:0|0:0,0:0:0:0:
341,30,282868,1,10,1:0:0:0:
447,70,282984,1,2,1:0:0:0:
255,219,283100,6,0,P|163:246|19:70,1,323.999990112305,4|0,1:3|0:0,0:0:0:0:
144,160,283565,1,0,1:0:0:0:
220,107,283682,1,2,1:0:0:0:
292,135,283798,2,0,L|402:165,1,107.999996704102,10|0,1:0|0:0,0:0:0:0:
254,363,284030,5,4,1:3:0:0:
254,363,284379,1,4,1:3:0:0:
254,363,284728,1,4,1:3:0:0:
254,363,284961,6,0,P|335:375|420:105,1,431.999986816407,6|2,1:0|1:0,0:0:0:0:
335,231,285542,1,0,1:0:0:0:
335,231,285658,1,2,1:0:0:0:
86,29,285775,6,0,P|65:227|257:282,1,431.999986816407,6|0,1:0|1:0,0:0:0:0:
386,108,286356,2,0,L|263:103,1,107.999996704102,2|0,1:0|0:0,0:0:0:0:
353,23,286589,1,4,1:3:0:0:
472,166,286705,1,0,1:0:0:0:
259,369,286821,5,6,1:0:0:0:
259,369,287170,1,4,1:3:0:0:
259,369,287519,1,4,1:3:0:0:
259,369,287751,2,0,P|252:293|256:191,1,161.999995056153,12|0,1:3|0:0,0:0:0:0:
229,162,287984,1,10,1:0:0:0:
454,146,288100,1,10,1:0:0:0:
454,146,288333,1,10,1:0:0:0:
330,268,288449,1,8,1:3:0:0:
334,76,288565,1,0,0:0:0:0:
79,31,288682,6,0,L|97:265,1,215.999993408203,12|8,1:3|1:0,0:0:0:0:
20,359,289030,1,0,0:0:0:0:
20,359,289147,2,0,P|77:342|135:366,1,107.999996704102,0|2,1:0|1:0,0:0:0:0:
251,265,289379,2,0,L|389:291,1,107.999996704102,8|0,1:0|0:0,0:0:0:0:
493,51,289612,6,0,P|453:115|312:125,1,215.999993408203,6|10,1:0|1:0,0:0:0:0:
147,261,289961,1,8,1:0:0:0:
147,261,290193,1,8,1:0:0:0:
0,138,290310,1,2,1:0:0:0:
152,52,290426,1,8,1:0:0:0:
322,130,290542,6,0,P|380:225|166:365,1,420,12|0,1:3|0:0,0:0:0:0:
113,329,291472,5,0,1:0:0:0:
85,255,291589,1,8,1:0:0:0:
105,181,291705,1,8,1:0:0:0:
105,181,291937,5,8,1:0:0:0:
162,93,292054,5,0,1:0:0:0:
277,57,292170,5,2,1:0:0:0:
444,75,292286,5,8,1:0:0:0:
483,352,292403,6,0,L|29:336,1,396.000012084961,6|0,1:0|1:0,0:0:0:0:
23,147,292868,1,2,1:0:0:0:
103,86,292984,1,0,0:0:0:0:
223,70,293100,1,10,1:0:0:0:
464,230,293216,6,0,L|177:246,1,264.000008056641,2|2,1:0|1:0,0:0:0:0:
352,34,293565,2,0,B|372:102|372:102|356:177,1,132.00000402832,10|0,1:0|0:0,0:0:0:0:
133,152,293798,2,0,B|120:92|120:92|140:24,1,132.00000402832,2|0,1:0|0:0,0:0:0:0:
241,16,294030,2,0,L|251:157,1,132.00000402832,10|0,1:0|0:0,0:0:0:0:
13,293,294263,6,0,P|96:239|211:346,1,264.000008056641,6|10,1:0|1:0,0:0:0:0:
373,143,294612,1,2,1:0:0:0:
373,143,294728,2,0,P|305:125|250:147,1,132.00000402832,0|0,0:0|1:0,0:0:0:0:
127,144,294961,2,0,P|195:126|250:148,1,132.00000402832,10|0,1:0|0:0,0:0:0:0:
512,314,295193,6,0,P|429:260|314:367,1,264.000008056641,6|10,1:0|1:0,0:0:0:0:
40,111,295542,1,2,1:0:0:0:
40,111,295658,2,0,P|108:93|163:115,1,132.00000402832,0|0,1:0|0:0,0:0:0:0:
468,103,295891,2,0,P|400:85|345:107,1,132.00000402832,10|0,1:0|0:0,0:0:0:0:
250,11,296123,6,0,B|321:165|156:120|228:288,1,264.000008056641,6|8,1:0|1:0,0:0:0:0:
319,338,296472,1,0,1:0:0:0:
371,287,296589,2,0,B|431:275|431:275|506:293,1,132.00000402832,0|0,0:0|1:0,0:0:0:0:
342,207,296821,5,10,1:0:0:0:
188,359,296937,2,0,P|83:355|44:203,1,264.000008056641,4|0,1:3|0:0,0:0:0:0:
200,43,297286,2,0,L|337:118,1,132.00000402832,10|0,1:0|0:0,0:0:0:0:
136,237,297519,2,0,L|96:93,1,132.00000402832,2|0,1:0|0:0,0:0:0:0:
321,207,297751,1,10,1:0:0:0:
229,264,297868,1,0,0:0:0:0:
389,20,297984,6,0,P|468:71|347:286,1,396.000012084961,6|0,1:0|0:0,0:0:0:0:
222,369,298449,1,2,1:0:0:0:
88,283,298565,1,0,1:0:0:0:
223,177,298682,1,10,1:0:0:0:
226,276,298798,1,2,1:0:0:0:
113,111,298914,1,4,1:3:0:0:
330,104,299030,1,0,1:0:0:0:
226,276,299147,2,0,P|28:249|31:74,1,396.000012084961,10|0,1:0|1:0,0:0:0:0:
104,28,299612,2,0,B|164:50|164:50|240:31,1,132.00000402832,8|0,1:0|0:0,0:0:0:0:
501,17,299844,6,0,B|346:58|346:58|322:138|322:138|166:171,1,396.000012084961,6|0,1:0|0:0,0:0:0:0:
89,220,300310,1,0,1:0:0:0:
173,267,300426,1,2,1:0:0:0:
166,54,300542,5,10,1:0:0:0:
81,133,300658,1,2,1:0:0:0:
322,214,300775,6,0,P|444:229|460:374,1,264.000008056641,2|8,1:0|1:0,0:0:0:0:
19,336,301123,2,0,P|46:215|169:199,1,264.000008056641,2|0,1:0|0:0,0:0:0:0:
296,360,301472,2,0,B|235:336|235:336|153:356,1,132.00000402832,10|2,1:0|1:0,0:0:0:0:
20,54,301705,5,6,1:0:0:0:
255,136,301821,1,2,1:0:0:0:
485,55,301937,1,2,1:0:0:0:
485,55,302170,5,0,1:0:0:0:
255,136,302286,1,0,1:0:0:0:
20,54,302402,1,4,1:0:0:0:
257,243,302519,5,2,1:0:0:0:
339,226,302635,2,0,B|355:286|355:286|344:364,1,132.00000402832,6|0,1:0|0:0,0:0:0:0:
170,353,302868,2,0,B|160:283|160:283|176:223,1,132.00000402832,10|0,1:0|0:0,0:0:0:0:
286,153,303100,2,0,L|426:133,1,132.00000402832,2|0,1:0|0:0,0:0:0:0:
276,54,303333,2,0,L|136:34,1,132.00000402832,10|2,1:0|1:0,0:0:0:0:
10,226,303565,5,6,1:0:0:0:
10,226,303914,1,4,1:3:0:0:
252,358,304263,5,2,1:0:0:0:
252,358,304379,1,2,1:0:0:0:
502,226,304496,5,6,1:0:0:0:
502,226,304845,1,4,1:3:0:0:
252,331,305193,5,2,1:0:0:0:
252,331,305309,1,2,1:0:0:0:
7,189,305426,5,6,1:0:0:0:
7,189,305775,1,4,1:3:0:0:
7,189,306123,1,2,1:0:0:0:
146,287,306240,1,2,1:0:0:0:
286,177,306356,2,0,B|227:157|227:157|145:177,1,132.00000402832,6|0,1:0|0:0,0:0:0:0:
39,67,306589,1,8,1:3:0:0:
115,90,306705,1,2,1:0:0:0:
214,290,306821,5,0,1:0:0:0:
309,262,306937,1,2,1:0:0:0:
370,31,307054,5,2,1:0:0:0:
505,90,307170,1,2,1:0:0:0:
481,281,307286,6,0,B|301:226|307:417|99:348,1,396.000012084961,6|0,1:0|0:0,0:0:0:0:
381,118,307751,1,2,1:0:0:0:
308,206,307868,1,2,1:0:0:0:
169,236,307984,1,10,1:0:0:0:
9,31,308100,6,0,P|101:21|163:171,1,264.000008056641,6|0,1:0|0:0,0:0:0:0:
30,317,308449,2,0,B|13:256|13:256|35:188,1,132.00000402832,8|0,1:0|0:0,0:0:0:0:
305,318,308682,2,0,B|322:257|322:257|300:191,1,132.00000402832,2|0,1:0|1:0,0:0:0:0:
105,352,308914,2,0,L|244:355,1,132.00000402832,10|0,1:0|0:0,0:0:0:0:
506,67,309147,6,0,B|348:23|406:144|240:108,1,264.000008056641,6|8,1:0|1:0,0:0:0:0:
452,230,309496,1,2,1:0:0:0:
452,230,309612,2,0,L|300:250,1,132.00000402832,2|0,1:0|0:0,0:0:0:0:
182,246,309844,2,0,L|51:228,1,132.00000402832,10|0,1:0|0:0,0:0:0:0:
14,45,310077,6,0,B|170:14|112:135|274:109,1,264.000008056641,6|8,1:0|1:0,0:0:0:0:
262,350,310426,1,4,1:3:0:0:
262,350,310775,1,10,1:0:0:0:
262,350,311007,6,2,P|172:352|285:25,1,660.000020141602,6|2,1:0|1:0,1:0:0:0:
160,181,311705,1,10,1:0:0:0:
435,293,311821,6,0,P|491:205|381:81,1,264.000008056641,4|0,1:3|0:0,0:0:0:0:
263,196,312170,2,0,L|416:181,1,132.00000402832,8|0,1:0|0:0,0:0:0:0:
210,114,312403,1,2,1:0:0:0:
90,260,312519,1,0,0:0:0:0:
201,377,312635,2,0,B|214:317|214:317|201:246,1,132.00000402832,10|0,1:0|1:0,0:0:0:0:
328,48,312868,6,0,B|186:17|227:134|41:85,1,264.000008056641,6|8,1:0|1:0,0:0:0:0:
259,195,313216,1,0,0:0:0:0:
101,306,313333,1,0,1:0:0:0:
125,188,313449,1,2,1:0:0:0:
229,333,313565,1,8,1:0:0:0:
313,273,313682,6,0,L|450:293,1,132.00000402832,2|0,1:0|1:0,0:0:0:0:
333,150,313914,1,2,1:0:0:0:
474,32,314030,2,0,L|171:65,1,264.000008056641,4|0,1:3|0:0,0:0:0:0:
125,159,314379,1,0,1:0:0:0:
1,47,314496,2,0,L|152:30,1,132.00000402832,8|0,1:0|0:0,0:0:0:0:
501,125,314728,6,2,P|487:207|36:218,1,660.000020141602,6|2,1:0|1:0,1:0:0:0:
262,149,315426,2,0,B|281:207|281:207|262:290,1,132.00000402832,10|0,1:0|0:0,0:0:0:0:
43,98,315658,6,0,B|183:127|159:19|300:40,1,264.000008056641,6|8,1:0|1:0,0:0:0:0:
509,208,316007,2,0,B|368:237|393:129|252:150,1,264.000008056641,4|0,1:3|0:0,0:0:0:0:
457,117,316356,1,10,1:0:0:0:
457,117,316472,1,8,1:0:0:0:
484,338,316589,5,6,1:0:0:0:
256,272,316705,1,2,1:0:0:0:
28,338,316821,1,2,1:0:0:0:
28,46,317054,5,6,1:0:0:0:
255,94,317170,1,2,1:0:0:0:
484,46,317286,1,0,1:0:0:0:
247,178,317403,6,0,B|96:147|157:284|-36:237,1,264.000008056641,4|0,1:3|0:0,0:0:0:0:
204,253,317751,2,0,P|210:319|204:389,1,132.00000402832,10|0,1:0|0:0,0:0:0:0:
385,346,317984,1,0,1:0:0:0:
284,249,318100,1,2,1:0:0:0:
445,108,318216,2,0,P|446:169|453:239,1,132.00000402832,10|0,1:0|0:0,0:0:0:0:
28,50,318449,5,6,1:0:0:0:
28,50,318798,1,4,1:3:0:0:
252,163,319147,5,2,1:0:0:0:
252,163,319263,1,2,1:0:0:0:
484,50,319379,5,6,1:0:0:0:
484,50,319728,1,4,1:3:0:0:
257,224,320077,5,2,1:0:0:0:
257,224,320193,1,2,1:0:0:0:
28,85,320310,5,6,1:0:0:0:
28,85,320659,1,4,1:3:0:0:
28,85,321007,5,2,1:0:0:0:
183,194,321123,1,2,1:0:0:0:
43,345,321240,2,0,L|36:198,1,132.00000402832,6|0,1:0|0:0,0:0:0:0:
293,281,321472,5,2,1:0:0:0:
266,151,321589,2,0,L|277:13,1,132.00000402832,2|0,1:0|1:0,0:0:0:0:
453,355,321821,5,2,1:0:0:0:
469,132,321937,1,2,1:0:0:0:
453,355,322054,1,2,1:0:0:0:
371,193,322170,5,6,1:0:0:0:
242,330,322286,1,2,1:0:0:0:
161,267,322403,2,0,B|101:253|101:253|23:268,1,132.00000402832,2|0,1:0|0:0,0:0:0:0:
227,223,322635,1,2,1:0:0:0:
40,54,322751,2,0,B|130:91|130:91|239:75,1,198.000006042481,2|0,1:0|0:0,0:0:0:0:
250,114,322984,5,2,1:0:0:0:
478,106,323100,1,0,0:0:0:0:
306,211,323216,1,2,1:0:0:0:
378,32,323333,2,0,B|399:103|399:103|381:180,1,132.00000402832,2|0,1:0|0:0,0:0:0:0:
456,28,323565,1,2,1:0:0:0:
486,300,323682,2,0,P|426:360|280:324,1,198.000006042481,2|0,1:0|0:0,0:0:0:0:
262,165,323914,6,0,B|111:154|158:244|-2:229,1,264.000008056641,6|0,1:0|0:0,0:0:0:0:
221,247,324263,2,0,P|208:311|216:376,1,132.00000402832,2|0,1:0|0:0,0:0:0:0:
117,312,324496,1,2,1:0:0:0:
416,270,324612,2,0,P|417:177|383:126,1,132.00000402832,2|0,1:0|1:0,0:0:0:0:
8,47,324844,6,0,L|278:104,1,264.000008056641,8|0,1:3|0:0,0:0:0:0:
471,22,325193,2,0,P|396:29|350:80,1,132.00000402832,2|0,1:0|0:0,0:0:0:0:
298,190,325426,2,0,P|288:276|332:333,1,132.00000402832,2|0,1:0|0:0,0:0:0:0:
206,293,325658,1,2,1:0:0:0:
448,145,325775,6,0,B|305:122|337:218|151:191,1,264.000008056641,8|0,1:3|0:0,0:0:0:0:
432,359,326123,2,0,P|447:295|422:236,1,132.00000402832,2|0,1:0|0:0,0:0:0:0:
501,217,326356,1,2,1:0:0:0:
299,55,326472,2,0,L|64:99,1,198.000006042481,2|0,1:0|0:0,0:0:0:0:
78,66,326705,6,0,B|95:135|95:135|82:212,1,132.00000402832,2|0,1:0|0:0,0:0:0:0:
246,242,326937,1,2,1:0:0:0:
157,366,327054,2,0,B|140:297|140:297|150:236,1,132.00000402832,2|0,1:0|0:0,0:0:0:0:
20,299,327286,1,2,1:0:0:0:
258,332,327403,1,2,1:0:0:0:
170,128,327519,1,2,1:0:0:0:
342,38,327635,6,0,P|405:81|334:219,1,264.000008056641,6|0,1:0|0:0,0:0:0:0:
71,97,327984,5,2,1:0:0:0:
215,34,328100,1,2,1:0:0:0:
224,317,328216,5,2,1:0:0:0:
7,204,328333,1,2,1:0:0:0:
178,162,328449,1,0,0:0:0:0:
481,271,328565,5,4,1:3:0:0:
253,237,328798,1,0,1:0:0:0:
253,237,328914,1,4,1:3:0:0:
13,271,329147,1,0,1:0:0:0:
13,271,329263,1,4,1:3:0:0:
13,271,329496,5,2,1:0:0:0:
179,331,329612,1,6,1:0:0:0:
333,269,329728,1,2,1:0:0:0:
421,288,329844,2,0,P|421:223|409:146,1,132.00000402832,2|0,1:0|0:0,0:0:0:0:
490,137,330077,1,2,1:0:0:0:
287,35,330193,2,0,B|199:48|199:48|175:75|175:75|90:91,1,198.000006042481,2|0,1:0|0:0,0:0:0:0:
14,171,330426,6,0,B|76:169|76:169|150:209,1,132.00000402832,2|0,1:0|0:0,0:0:0:0:
1,78,330658,1,2,1:0:0:0:
173,313,330775,2,0,B|234:279|234:279|296:281,1,132.00000402832,2|0,1:0|1:0,0:0:0:0:
485,177,331007,1,2,1:0:0:0:
407,41,331123,2,0,P|306:72|306:200,1,198.000006042481,2|0,1:0|0:0,0:0:0:0:
174,32,331356,6,0,P|94:55|26:42,1,132.00000402832,8|0,1:3|0:0,0:0:0:0:
194,169,331589,1,0,0:0:0:0:
92,297,331705,1,2,1:0:0:0:
256,259,331821,1,0,0:0:0:0:
89,202,331937,1,2,1:0:0:0:
198,351,332054,2,0,P|268:343|353:376,1,132.00000402832,2|0,1:0|0:0,0:0:0:0:
492,185,332286,5,12,1:3:0:0:
492,185,332635,1,2,1:0:0:0:
492,185,332868,1,2,1:0:0:0:
492,185,333100,1,2,1:0:0:0:
324,56,333216,6,0,P|176:109|183:200,1,264.000008056641,12|0,1:3|0:0,0:0:0:0:
24,234,333565,2,0,P|32:294|30:369,1,132.00000402832,2|0,1:0|0:0,0:0:0:0:
39,144,333798,1,2,1:0:0:0:
265,348,333914,2,0,B|239:252|306:264|265:136,1,198.000006042481,2|0,1:0|0:0,0:0:0:0:
376,214,334147,6,0,B|360:150|360:150|377:79,1,132.00000402832,2|0,1:0|0:0,0:0:0:0:
457,156,334379,1,2,1:0:0:0:
159,158,334496,2,0,B|175:94|175:94|159:29,1,132.00000402832,2|0,1:0|0:0,0:0:0:0:
299,97,334728,1,2,1:0:0:0:
174,243,334844,1,2,1:0:0:0:
342,370,334961,1,2,1:0:0:0:
47,365,335077,6,0,L|21:139,1,198.000006042481,6|0,1:0|0:0,0:0:0:0:
22,114,335310,1,2,1:0:0:0:
150,90,335426,1,2,1:0:0:0:
282,221,335542,5,2,1:0:0:0:
504,263,335658,1,2,1:0:0:0:
382,336,335775,1,2,1:0:0:0:
406,155,335891,1,2,1:0:0:0:
245,24,336007,5,12,1:3:0:0:
207,207,336240,1,0,0:0:0:0:
207,207,336356,1,12,1:3:0:0:
266,369,336589,1,0,1:0:0:0:
312,303,336705,1,12,1:3:0:0:
285,228,336821,1,0,0:0:0:0:
207,207,336937,1,0,0:0:0:0:
167,71,337054,5,0,1:0:0:0:
80,101,337170,1,0,1:0:0:0:
57,189,337286,1,0,1:0:0:0:
103,271,337403,2,0,P|167:289|219:275,1,120,6|0,1:0|0:0,0:0:0:0:
477,205,337635,5,0,1:0:0:0:
496,129,337751,1,0,1:0:0:0:
444,70,337868,2,0,P|387:59|318:81,1,107.999996704102,6|0,1:0|0:0,0:0:0:0:
151,220,338100,5,0,1:0:0:0:
131,271,338216,1,0,1:0:0:0:
152,324,338333,2,0,P|203:336|247:324,1,96,6|0,1:0|0:0,0:0:0:0:
337,189,338565,5,0,1:0:0:0:
331,154,338682,1,0,1:0:0:0:
299,128,338798,1,0,1:0:0:0:
87,21,338914,6,0,P|34:93|80:195,1,192,6|0,1:0|1:0,0:0:0:0:
444,211,339263,6,0,P|485:108|413:17,1,215.999993408203,6|0,1:0|1:0,0:0:0:0:
0,262,339612,6,0,L|254:247,1,240,6|0,1:0|0:0,0:0:0:0:
512,349,339961,6,0,L|233:330,1,264.000008056641,6|0,1:0|0:0,0:0:0:0:
330,259,340310,6,0,P|330:230|323:190,3,60,2|2|2|0,0:0|0:0|0:0|0:0,0:0:0:0:
252,30,340775,5,4,1:0:0:0:
