osu file format v14

[General]
AudioFilename: audio.mp3
AudioLeadIn: 0
PreviewTime: -1
Countdown: 1
SampleSet: None
StackLeniency: 0.7
Mode: 0
LetterboxInBreaks: 0
WidescreenStoryboard: 1

[Editor]
DistanceSpacing: 1.4
BeatDivisor: 4
GridSize: 4
TimelineZoom: 2.5

[Metadata]
Title:Big Blast Sonic
TitleUnicode:Big Blast Sonic
Artist:Daisuke Ishiwatari
ArtistUnicode:太輔 石渡
Creator:G Sabelette
Version:Heaven or Hell
Source:Guilty Gear Xrd -SIGN-
Tags:
BeatmapID:1879326
BeatmapSetID:871292

[Difficulty]
HPDrainRate:5.2
CircleSize:3.8
OverallDifficulty:8.8
ApproachRate:9.4
SliderMultiplier:2
SliderTickRate:1

[Events]
//Background and Video events
0,0,"877592-guilty-gear-wallpaper-1920x1080-for-windows-7.jpg",0,0
//Break Periods
//Storyboard Layer 0 (Background)
//Storyboard Layer 1 (Fail)
//Storyboard Layer 2 (Pass)
//Storyboard Layer 3 (Foreground)
//Storyboard Sound Samples

[TimingPoints]
6017,312.5,4,3,0,80,1,0
8685,312.5,4,3,0,80,1,0
8685,-71.4285714285714,4,1,0,90,0,0
11185,-100,4,3,0,80,0,0
13685,-71.4285714285714,4,1,0,90,0,0
15560,-83.3333333333333,4,3,0,90,0,0
16497,-100,4,3,0,90,0,0
21185,-100,4,2,0,80,0,0
31028,-83.3333333333333,4,1,0,95,0,0
35560,-71.4285714285714,4,1,0,95,0,0
35872,-83.3333333333333,4,1,0,95,0,0
36497,-83.3333333333333,4,1,0,100,0,0
38685,-83.3333333333333,4,3,0,100,0,0
41028,-66.6666666666667,4,3,0,100,0,1
43997,-83.3333333333333,4,3,0,100,0,1
46185,-111.111111111111,4,3,0,100,0,1
48372,-83.3333333333333,4,3,0,100,0,1
51028,-66.6666666666667,4,3,0,100,0,1
53997,-83.3333333333333,4,3,0,100,0,1
56185,-100,4,3,0,100,0,1
59935,-71.4285714285714,4,3,0,100,0,1
61028,-95.2380952380952,4,1,0,100,0,1
62278,-83.3333333333333,4,1,0,100,0,1
63685,-71.4285714285714,4,1,0,100,0,1
63997,-142.857142857143,4,1,0,100,0,1
64310,-71.4285714285714,4,1,0,100,0,1
64622,-142.857142857143,4,1,0,100,0,1
64935,-55.5555555555556,4,1,0,100,0,1
65560,-142.857142857143,4,1,0,100,0,1
65872,-58.8235294117647,4,1,0,100,0,1
66341,-83.3333333333333,4,1,0,100,0,1
68685,-58.8235294117647,4,1,0,100,0,1
69310,-142.857142857143,4,1,0,100,0,1
71028,-100,4,1,0,90,0,0
73841,-100,4,1,0,90,0,0
73997,-71.4285714285714,4,1,0,90,0,0
74310,-100,4,1,0,90,0,0
74466,-71.4285714285714,4,1,0,90,0,0
74778,-100,4,1,0,90,0,0
74935,-71.4285714285714,4,1,0,90,0,0
75247,-100,4,1,0,90,0,0
75403,-71.4285714285714,4,1,0,90,0,0
75872,-142.857142857143,4,1,0,90,0,0
76341,-100,4,1,0,90,0,0
78060,-83.3333333333333,4,1,0,90,0,0
78528,-100,4,1,0,90,0,0
78997,-71.4285714285714,4,1,0,90,0,0
79310,-100,4,1,0,90,0,0
79466,-71.4285714285714,4,1,0,90,0,0
79778,-100,4,1,0,90,0,0
79935,-71.4285714285714,4,1,0,90,0,0
80247,-100,4,1,0,90,0,0
80403,-71.4285714285714,4,1,0,90,0,0
81497,-100,4,1,0,90,0,0
86185,-125,4,1,0,75,0,0

[HitObjects]
88,251,6016,6,0,B|117:214|117:214|154:205|154:205|183:123|274:130,1,200,12|0,0:0|0:0,0:0:0:0:
397,110,6485,1,0,0:0:0:0:
333,262,6642,1,0,0:0:0:0:
234,131,6798,5,0,0:0:0:0:
387,175,6954,1,0,0:0:0:0:
272,286,7110,1,0,0:0:0:0:
234,131,7267,5,0,0:0:0:0:
352,237,7423,1,0,0:0:0:0:
200,286,7579,1,0,0:0:0:0:
234,131,7735,5,0,0:0:0:0:
293,277,7892,1,0,0:0:0:0:
135,255,8048,1,0,0:0:0:0:
234,131,8204,5,0,0:0:0:0:
223,288,8360,1,0,0:0:0:0:
90,199,8517,1,0,0:0:0:0:
234,131,8685,5,4,0:0:0:0:
359,70,8841,2,0,B|381:111|381:111|350:153|388:215,1,139.999995727539,2|0,0:0|0:0,0:0:0:0:
234,131,9153,5,4,0:0:0:0:
104,185,9310,2,0,P|66:222|132:218,1,139.999995727539,2|0,0:0|0:0,0:0:0:0:
234,131,9622,5,4,0:0:0:0:
281,275,9778,2,0,B|319:268|319:268|325:241|325:241|383:241|389:146,1,139.999995727539,2|0,0:0|0:0,0:0:0:0:
234,131,10091,5,4,0:0:0:0:
215,276,10247,2,0,B|244:307|257:336|257:336|262:294|306:239,1,139.999995727539,2|0,0:0|0:0,0:0:0:0:
327,159,10560,5,8,0:0:0:0:
338,111,10638,1,0,0:0:0:0:
310,70,10716,1,8,0:0:0:0:
261,62,10794,1,0,0:0:0:0:
217,84,10872,2,0,B|208:98|208:98|210:108|210:108|195:95|195:95|197:133|197:133|159:139|159:139|171:146|195:250|68:284,1,279.999991455078,8|0,0:0|0:0,0:0:0:0:
236,311,11341,5,0,0:0:0:0:
323,229,11497,2,0,P|356:177|359:126,1,100
290,41,11810,2,0,P|257:93|254:144,1,100
292,265,12122,1,0,0:0:0:0:
369,143,12278,1,0,0:0:0:0:
252,130,12435,6,0,B|224:139|224:139|199:128|199:128|171:137|171:137|139:126|139:126|117:136|117:136|75:105|34:141,1,200
153,42,12903,1,0,0:0:0:0:
190,224,13060,1,0,0:0:0:0:
303,64,13216,1,12,0:0:0:0:
303,64,13294,1,0,0:0:0:0:
303,64,13372,1,8,0:0:0:0:
352,192,13528,1,0,0:0:0:0:
234,131,13685,5,4,0:0:0:0:
123,233,13841,2,0,P|128:295|180:256,1,139.999995727539
234,131,14153,5,4,0:0:0:0:
357,63,14310,2,0,B|367:153|415:93|420:199,1,139.999995727539
234,131,14622,5,4,0:0:0:0:
325,221,14778,2,0,B|323:267|284:270|284:270|274:308|232:307,1,139.999995727539
234,131,15091,5,4,0:0:0:0:
106,73,15247,2,0,B|106:90|106:90|99:100|99:100|112:100|112:100|106:109|106:109|105:146|105:146|97:155|97:155|112:154|112:154|104:161|104:161|104:193,1,139.999995727539
210,265,15560,5,8,0:0:0:0:
210,265,15638,1,0,0:0:0:0:
210,265,15716,1,8,0:0:0:0:
327,288,15872,1,8,0:0:0:0:
351,270,15950,1,0,0:0:0:0:
369,246,16028,1,8,0:0:0:0:
378,217,16106,1,0,0:0:0:0:
384,187,16185,6,0,B|356:137|307:143|307:143|295:102|295:102|228:113|189:49,1,239.999992675781,8|0,0:0|0:0,0:0:0:0:
116,19,16653,1,0,0:0:0:0:
34,107,16810,1,0,0:0:0:0:
150,136,16966,1,0,0:0:0:0:
50,220,17122,6,0,B|100:233|100:233|141:283|141:283|190:298,1,150,10|0,0:0|0:0,0:0:0:0:
242,312,17435,2,0,L|292:324,1,50
362,342,17591,1,0,0:0:0:0:
444,255,17747,1,0,0:0:0:0:
329,218,17903,1,0,0:0:0:0:
152,251,18060,5,8,0:0:0:0:
178,208,18138,1,0,0:0:0:0:
208,168,18216,1,8,0:0:0:0:
239,129,18294,1,0,0:0:0:0:
267,88,18372,2,0,L|296:41,1,50,8|0,0:0|0:0,0:0:0:0:
421,94,18528,2,0,L|392:141,1,50,8|0,0:0|0:0,0:0:0:0:
124,341,18685,5,8,0:0:0:0:
124,341,18997,1,0,0:0:0:0:
124,341,19310,2,0,L|171:239,1,100
124,341,19778,1,0,0:0:0:0:
124,341,20091,1,0,0:0:0:0:
124,341,20403,1,0,0:0:0:0:
180,155,20560,1,8,0:0:0:0:
243,338,20716,1,8,0:0:0:0:
84,227,20872,1,8,0:0:0:0:
329,218,21028,1,8,0:0:0:0:
243,338,21185,6,0,B|202:301|146:313|146:313|182:269|159:208,1,200,12|0,0:0|0:0,0:0:0:0:
141,90,21810,2,0,B|249:60|221:160|348:104,1,200
429,183,22435,2,0,B|459:237|426:278|426:278|362:262|345:182,1,200
298,99,22903,1,0,0:0:0:0:
298,99,23216,6,0,B|232:99|232:99|183:139,1,100
51,242,23685,2,0,B|100:265|100:265|145:251|145:251|188:267|188:267|238:247,1,200
354,245,24310,2,0,B|484:245|484:245|413:192,1,200
321,143,24935,2,0,B|315:86|315:86|279:63|279:63|244:90|244:90|250:159|250:159,1,200
182,263,25403,1,0,0:0:0:0:
321,143,25716,5,0,0:0:0:0:
149,178,25872,1,0,0:0:0:0:
351,295,26028,1,0,0:0:0:0:
351,295,26185,2,0,B|347:274|347:274|366:266|366:266|345:237|345:237|379:217|379:217|415:172|366:99,1,200,10|0,0:0|0:0,0:0:0:0:
278,43,26810,2,0,B|209:118|209:118|105:99,1,200
101,208,27435,2,0,B|170:218|170:218|207:272|207:272|285:289,1,200
382,310,27903,1,0,0:0:0:0:
382,310,28216,6,0,B|423:277|423:277|399:234,1,100
344,91,28685,2,0,B|361:37|361:37|222:122,1,200
112,189,29310,2,0,B|81:233|81:233|81:295,2,100
112,189,29935,6,0,B|162:169|162:169|218:181|218:181|263:165|263:165|310:179,1,200
412,233,30403,1,0,0:0:0:0:
305,288,30560,1,0,0:0:0:0:
220,203,30716,1,0,0:0:0:0:
275,96,30872,1,0,0:0:0:0:
393,115,31028,2,0,P|455:142|359:157,1,239.999992675781,10|0,0:0|0:0,0:0:0:0:
304,42,31497,5,0,0:0:0:0:
185,117,31653,1,0,0:0:0:0:
406,166,31810,1,0,0:0:0:0:
177,228,31966,1,0,0:0:0:0:
177,228,32044,1,0,0:0:0:0:
177,228,32122,2,0,B|155:228|155:228|136:242|136:242|93:233|55:267,1,119.999996337891
342,299,32435,5,8,0:0:0:0:
298,95,32591,1,0,0:0:0:0:
177,228,32747,1,8,0:0:0:0:
356,193,32903,5,0,0:0:0:0:
241,314,33060,1,8,0:0:0:0:
192,87,33216,1,0,0:0:0:0:
250,191,33372,2,0,B|266:242|310:234|310:234|327:269|327:269|402:276|422:339,1,239.999992675781,14|0,0:0|0:0,0:0:0:0:
192,87,33841,5,0,0:0:0:0:
117,200,33997,1,0,0:0:0:0:
372,117,34153,1,0,0:0:0:0:
221,268,34310,2,0,P|229:337|293:378,1,119.999996337891
328,240,34622,5,0,0:0:0:0:
117,200,34778,1,0,0:0:0:0:
372,117,34934,1,0,0:0:0:0:
144,83,35091,2,0,B|115:48|115:48|25:43,1,119.999996337891
216,176,35403,1,0,0:0:0:0:
363,139,35560,6,2,B|369:123|369:123|380:117|380:117|368:111|368:111|377:106|377:106|393:72|393:72|404:67|404:67|390:62|390:62|400:59|400:59|413:30,2,139.999995727539
302,265,36028,1,2,0:0:0:0:
252,102,36185,1,0,0:0:0:0:
146,327,36341,1,0,0:0:0:0:
335,131,36497,6,0,P|400:114|460:139,1,119.999996337891,8|0,0:0|0:0,0:0:0:0:
177,131,36810,2,0,P|112:114|52:139,1,119.999996337891,8|0,0:0|0:0,0:0:0:0:
401,227,37122,6,0,P|450:275|458:339,1,119.999996337891
111,227,37435,2,0,P|62:275|54:339,1,119.999996337891
255,266,37747,1,0,0:0:0:0:
337,61,37903,1,0,0:0:0:0:
398,205,38060,1,0,0:0:0:0:
194,122,38216,1,0,0:0:0:0:
335,249,38372,2,0,B|403:286|336:317|464:349,1,119.999996337891
124,74,38685,5,8,0:0:0:0:
174,287,38841,1,8,0:0:0:0:
388,74,38997,1,8,0:0:0:0:
338,287,39153,1,8,0:0:0:0:
106,53,39310,5,8,0:0:0:0:
191,313,39466,1,8,0:0:0:0:
406,53,39622,1,8,0:0:0:0:
321,313,39778,1,8,0:0:0:0:
91,36,39935,5,8,0:0:0:0:
102,94,40013,1,0,0:0:0:0:
113,152,40091,2,0,L|133:238,1,59.9999981689454,8|0,0:0|0:0,0:0:0:0:
388,130,40247,5,8,0:0:0:0:
374,200,40325,1,0,0:0:0:0:
360,270,40403,2,0,L|348:338,1,59.9999981689454,8|0,0:0|0:0,0:0:0:0:
232,302,40560,2,0,L|244:234,1,59.9999981689454,8|0,0:0|0:0,0:0:0:0:
388,130,40716,2,0,L|376:198,1,59.9999981689454,8|0,0:0|0:0,0:0:0:0:
260,162,40873,2,0,L|272:94,1,59.9999981689454,8|0,0:0|0:0,0:0:0:0:
461,27,41028,6,0,B|467:147|467:147|495:176|495:176|476:217|476:217|485:322,1,300.000011444092,14|0,0:0|0:0,0:0:0:0:
138,181,41497,1,0,0:0:0:0:
386,120,41653,1,0,0:0:0:0:
275,331,41810,1,0,0:0:0:0:
398,100,41966,1,0,0:0:0:0:
126,275,42122,1,0,0:0:0:0:
381,259,42278,6,0,B|388:244|388:244|397:240|397:240|379:234|379:234|412:216|412:216|398:180|398:180|511:154|475:22,1,300.000011444092,14|0,0:0|0:0,0:0:0:0:
73,106,42747,1,0,0:0:0:0:
301,297,42903,1,0,0:0:0:0:
255,73,43060,1,0,0:0:0:0:
315,326,43216,1,0,0:0:0:0:
138,51,43372,1,0,0:0:0:0:
173,316,43528,6,0,B|194:223|262:218|262:218|320:218|356:163|355:108|271:65,1,300.000011444092,14|0,0:0|0:0,0:0:0:0:
277,16,43997,1,0,0:0:0:0:
143,138,44153,1,0,0:0:0:0:
323,310,44310,1,0,0:0:0:0:
126,138,44466,1,0,0:0:0:0:
423,197,44622,1,0,0:0:0:0:
110,137,44778,1,0,0:0:0:0:
356,55,44935,6,0,P|287:73|268:171,1,179.999994506836,4|0,0:0|0:0,0:0:0:0:
373,148,45248,1,0,0:0:0:0:
373,148,45325,2,0,L|353:215,1,59.9999981689454,0|4,0:0|0:0,0:0:0:0:
318,328,45481,5,8,0:0:0:0:
258,319,45559,1,0,0:0:0:0:
219,289,45637,1,8,0:0:0:0:
200,244,45715,1,0,0:0:0:0:
207,196,45793,1,8,0:0:0:0:
228,166,45871,1,0,0:0:0:0:
260,149,45949,1,8,0:0:0:0:
295,151,46027,1,0,0:0:0:0:
321,175,46106,1,0,0:0:0:0:
323,202,46185,2,0,B|352:265|352:265|337:324|337:324|364:379,1,179.999994506836,10|0,0:0|0:0,0:0:0:0:
200,244,46653,5,0,0:0:0:0:
317,166,46810,2,0,B|363:68|422:165|468:21,1,179.999994506836
213,82,47278,1,0,0:0:0:0:
102,185,47435,2,0,P|64:242|77:295,1,89.9999972534181
302,169,47747,1,0,0:0:0:0:
147,353,47903,1,0,0:0:0:0:
92,111,48060,2,0,P|84:56|53:23,1,89.9999972534181
191,321,48372,5,8,0:0:0:0:
202,74,48528,1,8,0:0:0:0:
296,331,48685,5,8,0:0:0:0:
317,77,48841,1,8,0:0:0:0:
404,279,48997,5,8,0:0:0:0:
224,136,49153,1,8,0:0:0:0:
425,152,49310,6,0,L|370:181,1,59.9999981689454,8|0,0:0|0:0,0:0:0:0:
224,253,49466,1,8,0:0:0:0:
290,83,49622,5,8,0:0:0:0:
319,318,49778,1,8,0:0:0:0:
155,92,49935,5,8,0:0:0:0:
184,327,50091,1,8,0:0:0:0:
85,238,50247,5,8,0:0:0:0:
112,184,50325,1,0,0:0:0:0:
145,134,50403,2,0,L|182:66,1,59.9999981689454,8|0,0:0|0:0,0:0:0:0:
378,27,50560,5,8,0:0:0:0:
343,89,50638,1,0,0:0:0:0:
308,152,50716,2,0,L|279:204,1,59.9999981689454,8|0,0:0|0:0,0:0:0:0:
456,296,50872,5,8,0:0:0:0:
411,218,50950,1,0,0:0:0:0:
364,140,51028,6,0,B|313:193|251:177|251:177|232:215|232:215|150:198|91:279,1,300.000011444092,14|0,0:0|0:0,0:0:0:0:
253,78,51497,1,0,0:0:0:0:
198,302,51653,1,0,0:0:0:0:
427,161,51810,1,0,0:0:0:0:
189,322,51966,1,0,0:0:0:0:
363,74,52122,1,0,0:0:0:0:
333,290,52278,6,0,B|292:351|183:387|128:351|128:351|186:348|220:271,1,300.000011444092,14|0,0:0|0:0,0:0:0:0:
349,50,52747,1,0,0:0:0:0:
150,83,52903,1,0,0:0:0:0:
333,290,53060,1,0,0:0:0:0:
131,66,53216,1,0,0:0:0:0:
185,336,53372,1,0,0:0:0:0:
480,147,53528,6,0,B|424:126|378:164|378:164|447:228|419:290|340:317|272:264,1,300.000011444092
120,263,53997,1,0,0:0:0:0:
113,45,54153,1,0,0:0:0:0:
334,133,54310,1,0,0:0:0:0:
93,38,54466,1,0,0:0:0:0:
307,277,54622,1,0,0:0:0:0:
79,29,54778,1,0,0:0:0:0:
172,66,54935,6,0,B|188:128|188:128|162:179|162:179|178:247,1,179.999994506836,2|0,0:0|0:0,0:0:0:0:
307,277,55247,2,0,L|295:209,1,59.9999981689454,8|0,0:0|0:0,0:0:0:0:
273,54,55403,1,8,0:0:0:0:
316,73,55481,1,0,0:0:0:0:
341,114,55560,1,0,0:0:0:0:
362,157,55638,1,0,0:0:0:0:
352,203,55716,1,0,0:0:0:0:
320,238,55794,1,0,0:0:0:0:
296,182,55872,5,0,0:0:0:0:
252,140,55950,1,0,0:0:0:0:
192,130,56028,1,0,0:0:0:0:
136,152,56106,1,0,0:0:0:0:
93,194,56185,6,0,B|48:245|48:245|206:224,1,200
307,209,56653,5,0,0:0:0:0:
395,127,56810,2,0,B|344:107|344:107|266:116,1,100
183,142,57122,1,0,0:0:0:0:
253,238,57278,1,0,0:0:0:0:
395,127,57435,6,0,P|424:180|369:265,1,150
355,188,57747,2,0,B|270:147|289:216|198:171,1,150
153,153,58060,1,0,0:0:0:0:
283,65,58216,1,0,0:0:0:0:
256,192,58372,12,2,59153,0:0:0:0:
256,192,59310,12,2,59778,0:0:0:0:
431,80,59935,6,0,B|411:128|411:128|374:138|374:138|363:213|261:228,1,209.999993591309,4|0,0:0|0:0,0:0:0:0:
296,220,60247,2,0,B|269:271|208:267|208:267|183:216|231:167,1,209.999993591309,4|0,0:0|0:0,0:0:0:0:
322,69,60560,5,8,0:0:0:0:
89,156,60716,1,8,0:0:0:0:
425,269,60872,1,8,0:0:0:0:
79,302,61028,2,0,B|122:190|183:292|227:167,1,209.999993591309,12|0,0:0|0:0,0:0:0:0:
110,125,61497,5,0,0:0:0:0:
263,43,61653,1,0,0:0:0:0:
462,220,61810,6,0,B|412:233|412:233|371:283|371:283|327:299,1,157.499995193482,10|0,0:0|0:0,0:0:0:0:
258,323,62122,2,0,L|192:344,1,52.4999983978272
129,345,62278,2,0,B|107:255|107:255|127:219|127:219|94:207|94:207|78:136,1,239.999992675781
215,217,62747,5,0,0:0:0:0:
344,72,62903,1,0,0:0:0:0:
324,265,63060,1,0,0:0:0:0:
227,97,63216,1,0,0:0:0:0:
404,176,63372,1,0,0:0:0:0:
187,273,63528,1,0,0:0:0:0:
335,126,63685,6,0,B|362:75|423:80|423:80|447:131|399:180,1,209.999993591309,2|0,0:0|0:0,0:0:0:0:
288,213,63997,2,0,L|323:238,1,34.9999989318848,2|0,0:0|0:0,0:0:0:0:
316,233,64153,2,0,L|288:213,1,34.9999989318848,2|0,0:0|0:0,0:0:0:0:
339,169,64310,2,0,P|260:156|251:271,1,209.999993591309,2|0,0:0|0:0,0:0:0:0:
240,261,64622,6,0,L|175:173,1,104.999996795654,2|0,0:0|0:0,0:0:0:0:
98,136,64935,2,0,P|132:94|181:94,1,89.9999972534181,2|0,0:0|0:0,0:0:0:0:
210,156,65091,2,0,P|176:198|127:198,1,89.9999972534181,2|0,0:0|0:0,0:0:0:0:
98,136,65247,2,0,P|132:94|181:94,1,89.9999972534181,2|0,0:0|0:0,0:0:0:0:
210,156,65403,2,0,P|176:198|127:198,1,89.9999972534181,2|0,0:0|0:0,0:0:0:0:
50,209,65560,6,0,B|59:223|59:223|58:235|58:235|70:226|70:226|69:239|69:239|99:292,1,104.999996795654,2|0,0:0|0:0,0:0:0:0:
151,329,65872,2,0,B|225:302|225:302|190:275,1,85.0000016212464,2|0,0:0|0:0,0:0:0:0:
163,247,66028,2,0,P|175:171|327:202,1,255.000004863739,2|0,0:0|0:0,0:0:0:0:
347,251,66341,5,0,0:0:0:0:
163,247,66497,1,0,0:0:0:0:
309,75,66653,1,0,0:0:0:0:
292,182,66810,6,0,B|255:218|255:218|246:282|246:282|203:332,1,179.999994506836,10|0,0:0|0:0,0:0:0:0:
117,297,67122,2,0,L|164:245,1,59.9999981689454
178,164,67278,2,0,B|199:120|199:120|239:109|239:109|244:36|336:2,1,239.999992675781
351,110,67747,5,0,0:0:0:0:
433,213,67903,2,0,B|488:241|488:241|521:302,1,119.999996337891
273,164,68216,1,0,0:0:0:0:
198,321,68372,1,0,0:0:0:0:
376,267,68528,1,0,0:0:0:0:
392,154,68685,6,0,P|388:94|321:176,1,255.000004863739,2|0,0:0|0:0,0:0:0:0:
380,241,68997,2,0,B|376:293|316:347|251:353|218:325|218:325|275:317|298:256,1,255.000004863739,2|0,0:0|0:0,0:0:0:0:
218,219,69310,6,0,L|233:161,1,34.9999989318848,2|0,0:0|0:0,0:0:0:0:
243,117,69466,2,0,L|212:241,1,104.999996795654,2|0,0:0|0:0,0:0:0:0:
199,293,69778,2,0,P|261:299|307:264,1,104.999996795654
339,233,70091,5,8,0:0:0:0:
402,163,70247,1,0,0:0:0:0:
388,69,70403,1,8,0:0:0:0:
306,22,70560,1,0,0:0:0:0:
218,57,70716,1,8,0:0:0:0:
190,148,70872,1,0,0:0:0:0:
243,225,71028,2,0,B|277:249|277:249|316:246|316:246|376:303|450:266,1,200
243,225,71497,5,0,0:0:0:0:
103,147,71653,1,0,0:0:0:0:
240,64,71809,1,0,0:0:0:0:
243,225,71966,5,0,0:0:0:0:
151,94,72122,1,0,0:0:0:0:
310,80,72278,1,0,0:0:0:0:
243,225,72434,5,0,0:0:0:0:
218,68,72591,1,0,0:0:0:0:
366,125,72747,1,0,0:0:0:0:
243,225,72903,5,0,0:0:0:0:
288,73,73059,1,0,0:0:0:0:
398,191,73216,1,0,0:0:0:0:
243,225,73372,5,0,0:0:0:0:
348,106,73528,1,0,0:0:0:0:
397,259,73685,1,8,0:0:0:0:
243,225,73841,6,0,P|210:220|187:200,1,50,4|0,0:0|0:0,0:0:0:0:
141,154,73997,2,0,P|151:71|212:141,1,209.999993591309,2|0,0:0|0:0,0:0:0:0:
196,211,74310,6,0,L|162:269,1,50,4|0,0:0|0:0,0:0:0:0:
134,330,74466,2,0,B|181:348|181:348|226:301|279:333|279:333|325:300,1,209.999993591309,2|0,0:0|0:0,0:0:0:0:
365,231,74778,6,0,P|366:178|356:159,1,50,4|0,0:0|0:0,0:0:0:0:
348,99,74935,2,0,B|302:89|273:33|273:33|261:96|209:119,1,209.999993591309,2|0,0:0|0:0,0:0:0:0:
139,157,75247,6,0,L|171:211,1,50,4|0,0:0|0:0,0:0:0:0:
216,267,75403,2,0,B|233:284|233:284|255:284|255:284|270:302|270:302|301:296|301:296|340:358|449:325,1,209.999993591309,2|0,0:0|0:0,0:0:0:0:
351,224,75716,5,0,0:0:0:0:
301,157,75872,2,0,B|291:142|291:142|292:130|292:130|281:137|281:137|281:126|281:126|262:95|262:95|263:83|263:83|251:92|251:92|254:82|254:82|237:55,1,139.999995727539
177,193,76341,5,0,0:0:0:0:
253,285,76497,2,0,P|306:240|319:174,1,100
342,95,76810,1,0,0:0:0:0:
200,169,76966,1,0,0:0:0:0:
321,292,77122,6,0,B|340:226|390:214|390:214|379:171|379:171|416:160|437:107,1,200
261,189,77591,1,0,0:0:0:0:
302,34,77747,1,0,0:0:0:0:
173,129,77903,1,0,0:0:0:0:
173,129,77981,1,0,0:0:0:0:
173,129,78060,2,0,P|105:126|68:85,2,119.999996337891
417,28,78528,1,0,0:0:0:0:
345,111,78685,1,0,0:0:0:0:
329,211,78841,6,0,P|306:263|282:280,1,50,4|0,0:0|0:0,0:0:0:0:
243,306,78997,2,0,B|229:217|229:217|206:191|206:191|221:162|221:162|215:104,1,209.999993591309,2|0,0:0|0:0,0:0:0:0:
284,51,79309,6,0,L|292:120,1,69.9999978637696,4|0,0:0|0:0,0:0:0:0:
306,200,79466,2,0,B|243:317|206:198|134:323,1,209.999993591309,2|0,0:0|0:0,0:0:0:0:
78,258,79778,6,0,L|130:199,1,50,4|0,0:0|0:0,0:0:0:0:
163,161,79935,2,0,B|190:207|231:189|231:189|255:219|255:219|330:209|375:301,1,209.999993591309,4|0,0:0|0:0,0:0:0:0:
403,289,80247,6,0,P|424:264|433:235,1,50,4|0,0:0|0:0,0:0:0:0:
449,166,80403,2,0,B|373:144|373:144|332:92|332:92|249:78,1,209.999993591309,2|0,0:0|0:0,0:0:0:0:
215,69,80716,1,0,0:0:0:0:
112,167,80872,5,8,0:0:0:0:
117,208,80950,1,0,0:0:0:0:
125,249,81028,1,8,0:0:0:0:
133,290,81106,1,0,0:0:0:0:
141,331,81185,1,8,0:0:0:0:
343,228,81341,1,0,0:0:0:0:
187,168,81497,1,0,0:0:0:0:
325,107,81653,1,0,0:0:0:0:
187,168,81810,6,0,P|155:208|155:291,1,100
242,335,82122,2,0,B|265:271|265:271|252:226|252:226|273:166,1,150
282,123,82435,2,0,L|301:63,1,50
316,7,82591,1,0,0:0:0:0:
360,156,82747,1,0,0:0:0:0:
196,109,82903,1,0,0:0:0:0:
110,220,83060,5,8,0:0:0:0:
158,254,83138,1,0,0:0:0:0:
208,286,83216,1,8,0:0:0:0:
261,313,83294,1,0,0:0:0:0:
314,339,83372,2,0,L|399:384,1,50,8|0,0:0|0:0,0:0:0:0:
471,309,83528,2,0,L|426:285,1,50,8|0,0:0|0:0,0:0:0:0:
110,220,83685,5,0,0:0:0:0:
110,220,83997,1,4,0:0:0:0:
110,220,84310,2,4,L|141:104,1,100
110,220,84778,1,4,0:0:0:0:
110,220,85091,1,4,0:0:0:0:
110,220,85403,1,8,0:0:0:0:
286,84,85560,1,8,0:0:0:0:
224,321,85716,1,8,0:0:0:0:
142,98,85872,1,8,0:0:0:0:
359,236,86028,1,8,0:0:0:0:
121,194,86185,6,0,B|174:160|174:160|228:168|228:168|284:137,1,160
