osu file format v14

[General]
AudioFilename: audio.mp3
AudioLeadIn: 0
PreviewTime: 63488
Countdown: 1
SampleSet: Normal
StackLeniency: 0.7
Mode: 0
LetterboxInBreaks: 0
WidescreenStoryboard: 1

[Editor]
DistanceSpacing: 2.7
BeatDivisor: 4
GridSize: 4
TimelineZoom: 1.6

[Metadata]
Title:Uragirimono no Requiem [TV Size]
TitleUnicode:Uragirimono no Requiem [TV Size]
Artist:Daisuke Hasegawa
ArtistUnicode:Daisuke Hasegawa
Creator:Bustabonejones
Version:Mista's Extra
Source:JoJo no Kimyou na Bouken: Ougon no Kaze
Tags:JoJo's Bizzare Adventure JoJo no Kimyou na Bouken Traitor's Requiem TV Size Jrock
BeatmapID:1974058
BeatmapSetID:944664

[Difficulty]
HPDrainRate:5.4
CircleSize:4.4
OverallDifficulty:8.4
ApproachRate:9.4
SliderMultiplier:1.4
SliderTickRate:1

[Events]
//Background and Video events
0,0,"bg2.jpg",0,0
//Break Periods
//Storyboard Layer 0 (Background)
//Storyboard Layer 1 (Fail)
//Storyboard Layer 2 (Pass)
//Storyboard Layer 3 (Foreground)
//Storyboard Sound Samples

[TimingPoints]
255,705.882352941176,4,1,0,100,1,0
255,-133.333333333333,4,1,0,100,0,0
11565,352.941176470588,4,1,0,100,1,0
11565,-71.4285714285714,4,1,0,100,0,0
13065,-80,4,1,0,100,0,0
14300,-133.333333333333,4,1,0,100,0,0
15270,-100,4,1,0,100,0,0
18888,-100,4,1,0,100,0,0
21006,-133.333333333333,4,1,0,100,0,0
21712,-100,4,1,0,100,0,0
23578,357.142857142857,4,1,0,100,1,0
40631,-80,4,1,0,100,0,0
52149,-125,4,1,0,100,0,0
63577,-66.6666666666667,4,1,0,100,0,1
80720,-80,4,1,0,100,0,0

[Colours]
Combo1 : 164,100,240
Combo2 : 255,0,0
Combo3 : 0,255,0
Combo4 : 0,128,255
Combo5 : 255,128,0

[HitObjects]
85,299,255,6,0,L|209:294,1,105.000004005432,0|0,1:2|1:2,1:2:0:0:
353,275,1313,2,0,L|280:262,1,52.5000020027161,0|0,1:0|1:0,1:0:0:0:
222,244,2019,5,0,1:0:0:0:
176,176,2372,1,0,1:0:0:0:
224,108,2725,1,0,1:0:0:0:
300,108,3078,6,0,P|288:69|237:36,1,78.7500030040742
72,69,4137,2,0,P|49:140|88:234,1,157.500006008148,0|0,1:0|1:0,1:0:0:0:
410,275,5902,6,0,L|401:150,1,105.000004005432,0|0,1:0|1:0,1:0:0:0:
317,59,6960,2,0,L|310:128,1,52.5000020027161,0|0,1:0|1:0,1:0:0:0:
276,169,7666,2,0,P|308:182|343:165,2,52.5000020027161
80,216,8725,6,0,P|98:167|138:139,1,78.7500030040742,0|0,1:0|1:0,1:0:0:0:
305,254,9784,6,0,P|287:303|273:318,1,52.5000020027161,0|0,1:0|1:0,1:0:0:0:
288,303,10843,1,0,1:0:0:0:
288,303,11565,6,4,B|290:69|290:69|174:197|174:197|359:197,1,587.999982055665,4|4,2:0|2:0,2:0:0:0:
403,115,13329,1,0,3:0:0:0:
395,290,13506,1,0,3:0:0:0:
331,183,13682,1,0,3:0:0:0:
272,289,13859,2,0,L|174:279,1,87.5,0|0,3:0|3:0,3:0:0:0:
41,196,14388,6,4,P|78:106|153:99,1,157.500006008148,4|4,2:0|2:0,2:0:0:0:
292,184,15094,1,0,3:0:0:0:
76,301,15447,5,0,3:0:0:0:
230,200,15623,1,0,3:0:0:0:
65,139,15800,1,0,3:0:0:0:
198,303,15976,1,0,3:0:0:0:
161,134,16153,6,0,L|248:113,1,70,0|0,3:0|3:0,3:0:0:0:
432,76,16506,1,0,3:0:0:0:
295,204,16682,1,0,3:0:0:0:
455,207,16859,1,0,3:0:0:0:
341,69,17035,1,0,0:0:0:0:
367,272,17212,5,0,3:0:0:0:
270,257,17388,2,0,L|185:242,1,70,0|0,3:0|3:0,3:0:0:0:
169,72,17741,5,0,3:0:0:0:
272,88,17917,2,0,L|367:106,1,70,0|0,3:0|3:0,3:0:0:0:
436,245,18270,2,4,P|387:310|306:338,1,140,4|4,2:0|2:0,2:0:0:0:
136,301,18800,5,0,3:0:0:0:
155,157,18976,1,0,3:0:0:0:
246,294,19153,1,0,3:0:0:0:
271,107,19329,1,0,3:0:0:0:
465,96,19506,6,0,L|382:103,1,70,0|0,3:0|3:0,3:0:0:0:
173,105,19859,2,0,L|246:127,1,70,0|0,3:0|3:0,3:0:0:0:
439,187,20212,5,0,3:0:0:0:
439,187,20300,1,0,3:0:0:0:
439,187,20388,2,0,L|338:166,1,70,0|0,3:0|3:0,3:0:0:0:
281,258,20741,2,0,L|185:267,1,70,0|0,3:0|3:0,3:0:0:0:
33,164,21094,6,4,P|95:118|184:106,1,157.500006008148,4|4,2:0|2:0,2:0:0:0:
419,110,21800,2,0,L|329:127,1,70,0|0,3:0|3:0,3:0:0:0:
129,149,22153,2,0,L|201:163,1,70,0|0,3:0|3:0,3:0:0:0:
401,187,22506,1,0,3:0:0:0:
104,172,23564,5,0,1:0:0:0:
128,136,23653,1,0,1:0:0:0:
160,108,23742,1,0,1:0:0:0:
198,87,23831,1,0,1:0:0:0:
240,80,23935,6,2,L|298:95,3,35,2|2|2|2,1:0|1:0|1:0|1:0,1:0:0:0:
359,219,24292,5,0,1:0:0:0:
335,255,24381,1,0,1:0:0:0:
303,283,24470,1,0,1:0:0:0:
265,304,24559,1,0,1:0:0:0:
228,321,24649,2,2,L|164:305,3,35,2|2|2|2,1:0|1:0|1:0|1:0,1:0:0:0:
96,197,25006,5,0,1:0:0:0:
120,161,25095,1,0,1:0:0:0:
152,133,25184,1,0,1:0:0:0:
190,112,25273,1,0,1:0:0:0:
232,104,25363,2,2,L|281:122,3,35,2|2|2|2,1:0|1:0|1:0|1:0,1:0:0:0:
352,159,25720,2,2,L|303:177,3,35,2|2|2|2,1:0|1:0|1:0|1:0,1:0:0:0:
239,215,26078,2,2,L|288:233,3,35,2|2|2|2,1:0|1:0|1:0|1:0,1:0:0:0:
414,325,26435,5,0,1:0:0:0:
355,327,26524,1,0,1:0:0:0:
299,327,26613,1,0,1:0:0:0:
246,327,26702,1,0,1:0:0:0:
183,327,26792,6,2,L|132:327,3,35,2|2|2|2,1:0|1:0|1:0|1:0,1:0:0:0:
52,317,27149,5,0,1:0:0:0:
52,257,27238,1,0,1:0:0:0:
52,201,27327,1,0,1:0:0:0:
53,143,27416,1,0,1:0:0:0:
56,83,27506,6,2,L|109:63,3,35,2|2|2|2,1:0|1:0|1:0|1:0,1:0:0:0:
196,44,27863,5,0,1:0:0:0:
248,28,27952,1,0,1:0:0:0:
308,32,28041,1,0,1:0:0:0:
360,60,28130,1,0,1:0:0:0:
400,104,28220,1,0,1:0:0:0:
416,164,28309,1,0,1:0:0:0:
408,224,28398,1,0,1:0:0:0:
376,276,28487,1,0,1:0:0:0:
320,288,28578,6,2,L|276:274,1,35,2|2,1:0|1:0,1:0:0:0:
146,223,28756,2,2,L|202:190,1,35,2|2,1:0|1:0,1:0:0:0:
336,120,28935,1,8,3:0:0:0:
39,351,29292,5,0,0:0:0:0:
203,264,29470,1,0,0:0:0:0:
15,114,29649,2,8,L|106:111,1,70,8|8,3:0|3:0,3:0:0:0:
310,83,30006,1,0,0:0:0:0:
440,244,30185,5,0,0:0:0:0:
427,32,30363,1,8,3:0:0:0:
327,179,30542,2,0,L|240:172,1,70
39,159,30899,1,0,0:0:0:0:
302,216,31077,1,8,3:0:0:0:
114,142,31256,2,0,L|190:126,1,70
333,95,31613,1,0,0:0:0:0:
123,245,31792,2,8,L|212:260,1,70,8|8,3:0|3:0,3:0:0:0:
421,290,32149,5,0,0:0:0:0:
422,79,32327,1,0,0:0:0:0:
279,320,32506,2,8,L|201:304,1,70,8|8,3:0|3:0,3:0:0:0:
40,271,32863,1,0,0:0:0:0:
302,212,33042,1,0,0:0:0:0:
50,93,33220,2,8,L|143:96,1,70,8|8,3:0|3:0,3:0:0:0:
313,101,33578,5,0,0:0:0:0:
147,182,33756,1,0,0:0:0:0:
408,254,33935,1,8,3:0:0:0:
147,319,34113,6,0,L|290:296,1,140
453,256,34649,2,8,L|366:239,1,70,8|8,3:0|3:0,3:0:0:0:
460,64,35006,1,0,0:0:0:0:
384,242,35185,1,0,0:0:0:0:
254,31,35363,1,8,3:0:0:0:
174,216,35542,2,0,L|328:233,1,140
154,56,36077,5,8,3:0:0:0:
341,182,36256,1,0,0:0:0:0:
142,294,36435,2,0,L|146:219,1,70
154,56,36792,1,8,3:0:0:0:
40,211,36970,1,0,0:0:0:0:
246,197,37149,6,0,L|341:197,1,70
457,80,37506,1,8,3:0:0:0:
176,214,37685,1,0,0:0:0:0:
424,219,37863,1,0,0:0:0:0:
284,65,38042,1,0,0:0:0:0:
245,295,38220,1,8,3:0:0:0:
471,216,38399,6,0,L|380:205,1,70
161,169,38756,1,0,0:0:0:0:
460,299,38935,2,8,L|390:293,1,70,8|8,3:0|3:0,3:0:0:0:
70,267,39292,5,8,3:0:0:0:
422,231,39470,1,8,3:0:0:0:
68,176,39649,1,8,3:0:0:0:
420,144,39827,1,8,3:0:0:0:
252,40,40006,1,4,3:0:0:0:
406,107,40185,5,0,0:0:0:0:
396,164,40274,1,0,0:0:0:0:
376,212,40363,1,0,0:0:0:0:
340,252,40452,1,0,0:0:0:0:
296,280,40542,1,0,0:0:0:0:
248,292,40631,6,4,P|194:259|162:199,1,131.25,4|4,2:0|2:0,2:0:0:0:
231,45,41077,2,8,L|321:47,1,87.5,8|8,3:0|3:0,3:0:0:0:
474,49,41435,1,0,0:0:0:0:
280,105,41613,1,0,0:0:0:0:
466,273,41792,1,8,3:0:0:0:
335,263,41970,6,0,L|247:255,1,87.5
75,239,42327,1,0,0:0:0:0:
360,60,42506,1,8,3:0:0:0:
269,261,42685,1,0,0:0:0:0:
162,79,42863,6,0,P|126:117|132:164,1,87.5
384,265,43220,2,8,P|420:227|414:178,1,87.5,8|8,3:0|3:0,3:0:0:0:
267,50,43577,5,0,0:0:0:0:
473,166,43756,1,0,0:0:0:0:
158,241,43935,1,8,3:0:0:0:
353,143,44113,1,0,0:0:0:0:
172,48,44292,6,0,L|137:132,1,87.5
90,326,44649,2,8,L|144:209,1,87.5,8|8,3:0|3:0,3:0:0:0:
186,116,45006,5,0,0:0:0:0:
412,246,45185,1,0,0:0:0:0:
75,236,45363,1,8,3:0:0:0:
331,90,45542,1,0,0:0:0:0:
281,290,45720,1,0,0:0:0:0:
232,106,45899,1,0,0:0:0:0:
176,329,46077,1,8,3:0:0:0:
114,120,46256,5,0,0:0:0:0:
114,120,46345,1,0,0:0:0:0:
114,120,46435,2,0,L|206:117,1,87.5
472,110,46792,1,8,3:0:0:0:
116,268,46970,6,0,L|228:272,1,87.5
472,280,47327,1,0,0:0:0:0:
340,58,47506,1,8,3:0:0:0:
266,232,47685,1,0,1:0:0:0:
200,32,47863,6,0,L|187:121,1,87.5
162,328,48220,1,8,3:0:0:0:
64,178,48399,1,0,0:0:0:0:
422,310,48577,6,0,B|425:265|425:265|380:219,1,87.5
92,63,48935,1,8,3:0:0:0:
184,224,49113,1,0,0:0:0:0:
387,71,49292,5,0,0:0:0:0:
256,280,49470,1,0,0:0:0:0:
165,56,49649,1,8,3:0:0:0:
388,136,49827,5,0,0:0:0:0:
200,248,50006,1,8,3:0:0:0:
232,60,50185,1,0,0:0:0:0:
352,192,50363,5,8,3:0:0:0:
160,196,50542,1,0,0:0:0:0:
292,80,50720,1,8,3:0:0:0:
440,148,50899,5,0,0:0:0:0:
444,208,50988,1,0,0:0:0:0:
428,268,51077,1,0,0:0:0:0:
388,312,51166,1,0,0:0:0:0:
328,320,51256,1,0,0:0:0:0:
272,300,51345,1,0,0:0:0:0:
236,248,51434,1,0,0:0:0:0:
224,188,51523,1,0,0:0:0:0:
248,132,51613,2,2,L|303:111,4,43.75
47,195,52149,6,0,L|120:197,1,56
292,198,52506,1,8,3:0:0:0:
182,297,52685,1,0,0:0:0:0:
440,297,52863,2,0,L|375:295,1,56
182,297,53220,1,8,3:0:0:0:
252,205,53399,5,0,0:0:0:0:
252,205,53488,1,0,0:0:0:0:
252,205,53577,2,0,L|197:175,1,56
70,101,53935,1,8,3:0:0:0:
154,206,54113,2,0,L|214:171,1,56
318,150,54470,1,0,0:0:0:0:
102,185,54649,1,8,3:0:0:0:
222,296,54827,5,0,0:0:0:0:
222,296,54917,1,0,0:0:0:0:
222,296,55006,2,0,L|281:292,1,56
429,282,55363,1,8,3:0:0:0:
308,200,55542,1,0,0:0:0:0:
196,126,55720,2,0,L|121:127,1,56
196,126,56077,1,8,3:0:0:0:
284,216,56256,1,0,0:0:0:0:
205,251,56435,6,0,P|292:292|355:266,1,168
373,101,57149,1,0,0:0:0:0:
240,147,57327,1,0,0:0:0:0:
360,265,57506,2,8,B|392:266|392:266|411:229,1,56,8|8,3:0|3:0,3:0:0:0:
346,64,57863,6,0,P|313:46|273:51,1,56
53,117,58220,1,8,3:0:0:0:
232,167,58399,2,0,P|199:167|170:186,1,56
61,271,58756,1,0,0:0:0:0:
188,101,58935,1,8,3:0:0:0:
172,224,59113,5,0,0:0:0:0:
178,228,59202,1,0,0:0:0:0:
178,228,59292,2,0,L|239:218,1,56
403,193,59649,1,8,3:0:0:0:
310,132,59827,1,0,0:0:0:0:
407,79,60006,1,0,0:0:0:0:
184,93,60185,6,0,P|135:68|91:109,1,112
143,225,60720,2,0,B|210:128|283:302|357:195,1,224
445,135,61613,5,0,0:0:0:0:
188,127,61792,1,8,3:0:0:0:
226,67,61970,2,0,P|195:55|156:67,1,56
68,152,62327,5,0,0:0:0:0:
96,208,62416,1,0,0:0:0:0:
144,248,62505,1,0,0:0:0:0:
204,264,62594,1,0,0:0:0:0:
264,252,62685,2,0,L|294:209,1,28
301,132,62863,5,0,0:0:0:0:
272,76,62952,1,0,0:0:0:0:
216,48,63042,2,0,L|172:70,1,28
98,157,63220,1,0,0:0:0:0:
153,187,63310,1,0,0:0:0:0:
208,221,63399,1,0,0:0:0:0:
264,252,63488,1,0,0:0:0:0:
316,284,63577,6,4,P|264:318|206:300,1,105.000004005432,4|4,2:0|2:0,2:0:0:0:
29,114,63935,1,8,3:0:0:0:
364,84,64113,2,0,P|313:62|247:82,1,105.000004005432
58,273,64470,1,0,0:0:0:0:
308,132,64649,1,8,3:0:0:0:
145,95,64827,1,0,0:0:0:0:
360,68,65006,6,0,P|308:60|245:76,1,105.000004005432
60,286,65363,1,8,3:0:0:0:
368,304,65542,2,0,P|310:288|260:243,1,105.000004005432
52,129,65899,1,0,0:0:0:0:
356,228,66077,1,8,3:0:0:0:
179,320,66256,1,0,0:0:0:0:
404,172,66435,6,0,P|346:159|283:187,1,105.000004005432
111,262,66792,1,8,3:0:0:0:
309,332,66970,2,0,P|365:336|415:292,1,105.000004005432
432,127,67327,1,0,0:0:0:0:
161,311,67506,1,8,3:0:0:0:
236,146,67685,1,0,0:0:0:0:
403,309,67863,6,0,P|354:339|305:334,1,105.000004005432
68,158,68220,1,8,3:0:0:0:
245,57,68399,1,0,0:0:0:0:
239,295,68577,1,0,0:0:0:0:
34,99,68756,1,0,0:0:0:0:
408,141,68935,1,8,3:0:0:0:
49,310,69113,1,0,0:0:0:0:
272,55,69292,6,0,P|339:61|366:107,1,105.000004005432
260,304,69649,2,8,P|192:301|158:241,1,105.000004005432,8|8,3:0|3:0,3:0:0:0:
108,93,70006,2,0,P|157:59|225:65,1,105.000004005432
462,140,70363,1,8,3:0:0:0:
308,285,70542,1,0,0:0:0:0:
93,151,70720,1,0,0:0:0:0:
131,322,70899,5,0,3:0:0:0:
131,322,70988,1,0,3:0:0:0:
131,322,71077,1,0,3:0:0:0:
432,189,71256,5,0,3:0:0:0:
432,189,71345,1,0,3:0:0:0:
432,189,71435,1,0,3:0:0:0:
84,155,71613,5,0,3:0:0:0:
84,155,71702,1,0,3:0:0:0:
84,155,71792,1,0,3:0:0:0:
400,72,71970,5,0,3:0:0:0:
400,72,72060,1,0,3:0:0:0:
400,72,72149,2,0,P|345:72|285:106,1,105.000004005432,0|0,3:0|3:0,3:0:0:0:
74,263,72506,1,8,3:0:0:0:
340,320,72685,2,0,P|398:327|450:287,1,105.000004005432
475,144,73042,1,0,0:0:0:0:
120,195,73220,1,8,3:0:0:0:
324,318,73399,1,0,0:0:0:0:
341,80,73577,6,0,P|288:76|240:104,1,105.000004005432
124,332,73935,1,8,3:0:0:0:
275,207,74113,1,0,0:0:0:0:
74,112,74292,1,0,0:0:0:0:
220,317,74470,1,0,0:0:0:0:
254,41,74649,1,8,3:0:0:0:
115,187,74827,1,0,0:0:0:0:
348,220,75006,6,0,P|322:162|260:131,1,105.000004005432
33,67,75363,1,8,3:0:0:0:
172,216,75542,2,0,P|234:224|280:195,1,105.000004005432
352,83,75899,1,0,0:0:0:0:
81,43,76077,1,8,3:0:0:0:
221,197,76256,1,0,0:0:0:0:
287,37,76435,6,0,B|230:31|180:74,1,105.000004005432
58,221,76792,1,8,3:0:0:0:
264,264,76970,2,0,B|317:209|283:150,1,105.000004005432
220,38,77327,1,0,0:0:0:0:
64,171,77506,6,8,B|100:123|100:123|160:152,1,105.000004005432,8|8,3:0|3:0,3:0:0:0:
415,328,77863,1,0,3:0:0:0:
64,171,78042,1,0,3:0:0:0:
440,112,78220,1,0,3:0:0:0:
144,350,78399,1,0,3:0:0:0:
252,40,78577,1,0,3:0:0:0:
428,224,78756,1,0,3:0:0:0:
104,264,78935,1,0,3:0:0:0:
356,76,79113,1,0,3:0:0:0:
284,339,79292,1,8,3:0:0:0:
190,152,79470,5,0,0:0:0:0:
190,152,79560,1,0,0:0:0:0:
190,152,79649,1,0,0:0:0:0:
437,332,79827,1,8,3:0:0:0:
301,84,80006,5,0,0:0:0:0:
301,84,80095,1,0,0:0:0:0:
301,84,80185,1,0,0:0:0:0:
437,332,80363,1,8,3:0:0:0:
441,60,80542,5,0,0:0:0:0:
441,60,80631,1,0,0:0:0:0:
441,60,80720,2,0,L|340:69,1,87.5
101,92,81077,1,8,3:0:0:0:
293,150,81256,1,0,0:0:0:0:
84,192,81435,6,0,L|178:223,1,87.5
360,291,81792,1,8,3:0:0:0:
312,77,81970,1,0,0:0:0:0:
406,195,82149,6,0,L|320:179,1,87.5
74,148,82506,1,8,3:0:0:0:
153,307,82685,1,0,0:0:0:0:
258,185,82863,5,0,0:0:0:0:
246,132,82952,1,0,0:0:0:0:
208,94,83041,1,0,0:0:0:0:
155,83,83130,1,0,0:0:0:0:
105,103,83220,1,0,0:0:0:0:
74,148,83309,1,0,0:0:0:0:
68,200,83399,1,0,0:0:0:0:
92,244,83488,1,0,0:0:0:0:
136,276,83577,6,0,L|233:244,1,87.5
451,190,83935,2,8,P|420:157|371:147,1,87.5,8|8,3:0|3:0,3:0:0:0:
224,260,84292,2,8,P|174:264|140:227,1,87.5,8|8,3:0|3:0,3:0:0:0:
180,82,84649,1,0,0:0:0:0:
180,82,84738,1,0,0:0:0:0:
180,82,84827,1,0,0:0:0:0:
180,82,84916,5,0,3:0:0:0:
224,102,85006,1,0,3:0:0:0:
260,135,85095,1,0,3:0:0:0:
284,177,85184,1,0,3:0:0:0:
296,224,85274,1,0,3:0:0:0:
284,268,85363,2,2,L|168:284,1,87.5,2|2,2:0|2:0,2:0:0:0:
300,175,85720,2,2,L|200:112,1,87.5,2|2,2:0|2:0,2:0:0:0:
396,145,86077,2,2,L|377:29,1,87.5,2|2,2:0|2:0,2:0:0:0:
256,192,86435,5,4,3:0:0:0:
256,192,86524,12,0,90363,0:0:0:0:
