osu file format v14

[General]
AudioFilename: audio.mp3
AudioLeadIn: 0
PreviewTime: 43006
Countdown: 0
SampleSet: Soft
StackLeniency: 0.5
Mode: 0
LetterboxInBreaks: 0
WidescreenStoryboard: 1

[Editor]
Bookmarks: 22081,61681
DistanceSpacing: 1
BeatDivisor: 2
GridSize: 32
TimelineZoom: 1.2

[Metadata]
Title:Sail on Sunlight
TitleUnicode:Sail on Sunlight
Artist:Daisuke Achiwa
ArtistUnicode:阿知波大輔
Creator:Mocaotic
Version:Normal
Source:ソフィーのアトリエ2 ~不思議な夢の錬金術士~
Tags:Sophie no Atelier 2 ~Fushigi na Yume Renkinjutsushi~ The Alchemist of Mysterious Dream ソフィー・ノイエンミュラー Neuenmuller ラミゼル・エルレンマイヤー Ramizel Erlenmeyer エルヴィーラ Elvira instrumental video game videogame vgm battle theme ost original official soundtrack folk
BeatmapID:4526557
BeatmapSetID:2146064

[Difficulty]
HPDrainRate:3
CircleSize:3.4
OverallDifficulty:4.5
ApproachRate:5.5
SliderMultiplier:0.999999999999999
SliderTickRate:1

[Events]
//Background and Video events
0,0,"sophie.png",0,0
//Break Periods
//Storyboard Layer 0 (Background)
//Storyboard Layer 1 (Fail)
//Storyboard Layer 2 (Pass)
//Storyboard Layer 3 (Foreground)
//Storyboard Layer 4 (Overlay)
//Storyboard Sound Samples

[TimingPoints]
1681,300,4,2,2,86,1,0
11281,-100,4,2,2,30,0,0
11506,-100,4,2,2,40,0,0
11881,-100,4,2,2,50,0,0
12181,-100,4,2,2,60,0,0
12481,-117.647058823529,4,2,2,40,0,0
22081,-117.647058823529,4,2,2,60,0,0
22381,-105.263157894737,4,2,2,60,0,0
31681,-117.647058823529,4,2,2,50,0,0
41281,-105.263157894737,4,2,2,60,0,0
43081,-105.263157894737,4,2,2,70,0,0
43681,-100,4,2,2,86,0,1
52381,-100,4,2,2,50,0,1
52681,-100,4,2,2,60,0,1
52981,-100,4,2,2,70,0,1
53281,-100,4,2,2,86,0,1
61681,-100,4,2,2,86,0,0
61981,-100,4,2,2,60,0,0
62881,-100,4,2,2,70,0,0
65281,-100,4,2,2,60,0,0
67681,-111.111111111111,4,2,2,50,0,0
70081,-111.111111111111,4,2,2,35,0,0
71131,-111.111111111111,4,2,2,20,0,0
73681,-111.111111111111,4,2,2,10,0,0

[Colours]
Combo1 : 255,128,153
Combo2 : 255,170,221

[HitObjects]
53,377,1681,6,0,P|106:366|179:353,1,99.9999999999999,6|8,3:2|0:0,0:0:0:0:
247,383,2281,2,0,P|279:376|316:370,1,50,2|2,0:0|3:2,0:0:0:0:
334,341,2581,1,10,0:0:0:0:
334,341,2731,2,0,P|342:277|298:231,1,99.9999999999999,2|0,3:2|3:0,0:0:0:0:
279,226,3181,1,10,0:0:0:0:
183,254,3481,1,2,3:2:0:0:
128,170,3781,1,10,0:0:0:0:
192,93,4081,6,0,P|245:82|318:69,1,99.9999999999999,2|10,3:2|0:0,0:0:0:0:
340,68,4531,1,2,0:0:0:0:
416,3,4831,2,0,P|452:9|477:14,1,50,2|10,3:2|0:0,0:0:0:0:
509,36,5131,2,0,P|531:88|486:165,1,150,2|8,3:2|0:0,0:0:0:0:
424,242,5881,1,2,3:2:0:0:
503,302,6181,1,10,0:0:0:0:
436,376,6481,6,0,P|383:365|310:352,1,99.9999999999999,6|8,3:2|0:0,0:0:0:0:
241,382,7081,2,0,P|203:374|152:365,1,50,2|2,0:0|3:2,0:0:0:0:
156,345,7381,1,10,0:0:0:0:
156,345,7531,2,0,P|148:281|192:235,1,99.9999999999999,2|0,3:2|3:0,0:0:0:0:
205,223,7981,1,10,0:0:0:0:
294,267,8281,1,2,3:2:0:0:
363,194,8581,1,10,0:0:0:0:
312,107,8881,6,0,P|259:96|186:83,1,99.9999999999999,6|10,3:2|0:0,0:0:0:0:
164,78,9331,1,2,3:2:0:0:
98,0,9631,2,0,L|26:16,1,50,2|2,3:2|3:2,0:0:0:0:
0,21,9931,1,6,3:2:0:0:
256,192,10081,12,0,11281,1:0:0:0:
39,347,12481,5,4,3:2:0:0:
115,310,12781,2,0,P|109:279|104:261,2,42.5000008106231,2|2|2,1:2|0:0|0:0,0:0:0:0:
124,351,13231,1,2,3:2:0:0:
210,363,13531,2,0,P|272:350|311:345,1,85.0000016212463,2|2,3:2|3:2,0:0:0:0:
372,378,14131,1,2,0:0:0:0:
429,315,14431,6,0,P|442:247|391:191,1,127.500002431869,2|2,3:2|3:2,0:0:0:0:
333,180,15181,1,2,1:2:0:0:
333,180,15331,2,0,P|291:186|249:196,1,85.0000016212463,2|0,0:0|3:2,0:0:0:0:
183,249,15931,2,0,P|141:255|51:276,1,127.500002431869,2|0,3:2|1:0,0:0:0:0:
20,153,16831,2,0,P|-2:148|-42:138,2,42.5000008106231,2|0|2,3:2|1:0|0:0,0:0:0:0:
53,127,17281,6,0,P|102:114|152:107,1,85.0000016212463,6|0,3:2|1:0,0:0:0:0:
226,19,18031,2,0,P|267:28|285:31,1,42.5000008106231,2|2,3:2|1:2,0:0:0:0:
305,49,18331,2,0,P|354:36|445:24,1,127.500002431869,2|2,3:2|1:2,0:0:0:0:
502,70,19081,1,2,3:2:0:0:
454,140,19381,1,2,1:2:0:0:
506,211,19681,6,0,P|493:260|482:328,1,85.0000016212463,2|2,3:2|1:2,0:0:0:0:
462,328,20131,2,0,P|410:349|360:330,1,85.0000016212463,2|0,0:0|3:2,0:0:0:0:
306,306,20731,2,0,P|297:242|281:181,1,127.500002431869,2|4,3:2|0:2,0:0:0:0:
211,132,21481,2,0,P|219:97|225:79,2,42.5000008106231,0|0|8,1:0|1:0|0:0,0:0:0:0:
144,185,22081,1,4,3:2:0:0:
88,260,22381,6,0,P|94:284|99:309,1,47.4999987316131,2|2,1:2|0:0,0:0:0:0:
137,342,22681,1,2,0:0:0:0:
137,342,22831,1,2,3:2:0:0:
224,379,23131,2,0,P|286:365|333:359,1,94.9999974632263,2|2,3:2|3:2,0:0:0:0:
410,379,23731,1,2,0:0:0:0:
469,305,24031,1,2,3:2:0:0:
412,228,24331,6,0,P|365:220|318:209,1,94.9999974632263,2|0,0:0|0:0,0:0:0:0:
280,234,24781,1,2,1:2:0:0:
280,234,24931,2,0,P|233:222|186:215,1,94.9999974632263,2|2,0:0|3:2,0:0:0:0:
110,159,25531,2,0,P|88:98|150:28,1,142.499996194839,2|0,3:2|1:0,0:0:0:0:
216,2,26281,1,0,3:0:0:0:
301,43,26581,2,0,P|341:37|365:36,1,47.4999987316131,2|2,1:2|0:0,0:0:0:0:
387,9,26881,6,0,P|448:21|491:28,1,94.9999974632263,6|2,3:2|1:2,0:0:0:0:
506,66,27331,1,2,0:0:0:0:
477,159,27631,1,2,3:2:0:0:
477,159,27781,2,0,P|401:210|288:164,1,189.999994926453,2|0,1:2|1:0,0:0:0:0:
278,161,28531,1,2,0:0:0:0:
278,161,28681,1,2,3:2:0:0:
201,104,28981,2,0,P|177:107|154:113,1,47.4999987316131,2|2,1:2|0:0,0:0:0:0:
107,122,29281,6,0,P|92:201|88:261,1,94.9999974632263,0|0,3:0|1:0,0:0:0:0:
23,282,29881,1,0,3:0:0:0:
23,282,30031,2,0,P|31:322|35:357,1,47.4999987316131,2|0,1:2|0:0,0:0:0:0:
66,361,30331,2,0,P|133:381|191:338,1,142.499996194839,2|0,1:2|1:0,0:0:0:0:
272,297,31081,1,2,3:2:0:0:
348,353,31381,1,2,3:2:0:0:
435,318,31681,6,0,P|449:240|487:108,1,212.500004053116,6|2,3:2|0:0,0:0:0:0:
468,78,32581,1,2,0:0:0:0:
468,78,32731,1,2,3:2:0:0:
357,13,33181,2,0,P|301:14|266:63,1,85.0000016212463,2|2,0:0|1:2,0:0:0:0:
218,89,33781,1,2,3:2:0:0:
161,152,34081,6,0,P|125:174|83:169,1,85.0000016212463,6|2,3:2|0:0,0:0:0:0:
43,157,34531,2,0,P|12:108|80:7,1,170.000003242493,2|0,0:0|3:0,0:0:0:0:
268,19,35881,1,2,1:2:0:0:
201,72,36181,1,2,3:2:0:0:
124,33,36481,6,0,P|101:147|79:280,1,212.500004053116,6|2,3:2|0:0,0:0:0:0:
59,276,37381,1,2,0:0:0:0:
59,276,37531,1,2,3:2:0:0:
140,374,37981,2,0,P|198:373|225:348,1,85.0000016212463,2|2,0:0|1:2,0:0:0:0:
267,288,38581,1,2,3:2:0:0:
312,215,38881,6,0,P|348:194|389:198,1,85.0000016212463,6|2,3:2|0:0,0:0:0:0:
427,218,39331,2,0,P|474:282|436:374,1,170.000003242493,2|2,0:0|3:2,0:0:0:0:
367,381,40231,1,0,3:0:0:0:
246,340,40681,2,0,P|200:350|187:354,1,42.5000008106231,0|0,1:2|1:0,0:0:0:0:
162,357,40981,1,0,3:2:0:0:
92,292,41281,6,0,P|45:300|-3:312,2,94.9999974632263,6|0|0,3:2|3:0|3:0,0:0:0:0:
126,258,42031,2,0,P|167:249|184:246,1,47.4999987316131,2|2,3:2|0:0,0:0:0:0:
209,217,42331,1,2,1:2:0:0:
285,273,42631,1,0,1:0:0:0:
331,262,42781,1,0,1:0:0:0:
511,7,43681,6,0,P|430:21|399:25,1,99.9999999999999,6|8,3:2|0:0,0:0:0:0:
314,0,44281,2,0,P|257:9|235:12,1,50,2|2,0:0|3:2,0:0:0:0:
227,41,44581,1,10,0:0:0:0:
227,41,44731,2,0,P|224:108|282:145,1,99.9999999999999,2|0,3:2|3:0,0:0:0:0:
281,162,45181,1,10,0:0:0:0:
374,126,45481,1,2,3:2:0:0:
442,199,45781,1,10,0:0:0:0:
386,282,46081,6,0,P|305:296|274:300,1,99.9999999999999,2|10,3:2|0:0,0:0:0:0:
247,329,46531,1,2,0:0:0:0:
160,378,46831,2,0,P|114:369|93:367,1,50,2|10,3:2|0:2,0:0:0:0:
64,348,47131,2,0,P|35:275|92:199,1,150,2|8,3:2|0:0,0:0:0:0:
130,139,47881,1,2,3:2:0:0:
51,77,48181,1,10,0:2:0:0:
117,1,48481,6,0,P|186:12|239:16,1,99.9999999999999,6|8,3:2|0:0,0:0:0:0:
315,0,49081,2,0,P|370:8|412:12,1,50,2|2,0:0|3:2,0:0:0:0:
409,41,49381,1,10,0:2:0:0:
409,41,49531,2,0,P|434:112|400:154,1,99.9999999999999,2|0,3:2|3:0,0:0:0:0:
393,168,49981,1,10,0:0:0:0:
302,124,50281,1,2,3:2:0:0:
232,195,50581,1,10,0:2:0:0:
145,145,50881,6,0,P|76:157|23:162,1,99.9999999999999,6|10,3:2|0:0,0:0:0:0:
7,191,51331,1,2,3:2:0:0:
51,292,51631,1,2,3:2:0:0:
51,292,51781,1,10,0:0:0:0:
51,292,51931,2,0,P|114:329|203:289,1,150,6|0,3:2|1:2,0:0:0:0:
249,231,52681,2,0,P|280:237|311:247,1,50,2|0,1:2|1:0,0:0:0:0:
332,278,52981,2,0,P|325:302|320:326,1,50,2|0,1:2|1:0,0:0:0:0:
347,369,53281,6,0,P|416:354|462:348,1,99.9999999999999,6|10,3:2|0:2,0:0:0:0:
491,368,53731,1,2,3:2:0:0:
512,271,54031,2,0,P|520:235|528:208,1,50,2|10,3:2|0:0,0:0:0:0:
501,176,54331,2,0,P|450:133|354:168,1,150,2|8,3:2|0:0,0:0:0:0:
300,217,55081,1,2,3:2:0:0:
209,173,55381,1,10,0:0:0:0:
137,243,55681,6,0,P|68:228|22:222,1,99.9999999999999,6|10,3:2|0:0,0:0:0:0:
4,187,56131,1,2,0:0:0:0:
48,101,56431,1,2,3:2:0:0:
48,101,56581,1,10,0:0:0:0:
48,101,56731,2,0,P|96:60|196:91,1,150,6|8,3:2|0:0,0:0:0:0:
269,111,57481,1,2,3:2:0:0:
344,44,57781,1,10,0:2:0:0:
434,91,58081,6,0,P|488:80|537:72,2,99.9999999999999,6|8|0,3:2|0:0|3:0,0:0:0:0:
370,168,58981,1,10,0:0:0:0:
439,240,59281,2,0,P|414:330|409:360,1,99.9999999999999,2|8,3:2|0:0,0:0:0:0:
376,370,59731,2,0,P|321:374|285:346,1,99.9999999999999,2|0,0:0|3:0,0:0:0:0:
249,315,60181,2,0,P|207:289|159:296,1,99.9999999999999,10|6,0:0|3:2,0:0:0:0:
58,289,60781,6,0,P|49:251|44:229,1,50,0|0,1:0|1:0,0:0:0:0:
78,200,61081,2,0,P|69:162|64:140,1,50,0|0,1:0|1:0,0:0:0:0:
97,111,61381,2,0,P|88:73|83:51,1,50,0|0,1:0|1:0,0:0:0:0:
112,19,61681,1,0,3:2:0:0:
112,19,62881,6,0,P|57:-1|8:14,2,99.9999999999999,6|0|0,3:2|1:0|0:0,0:0:0:0:
179,100,63781,1,0,1:0:0:0:
179,100,63931,2,0,P|154:191|148:227,1,99.9999999999999,2|0,3:2|3:0,0:0:0:0:
143,245,64381,1,0,1:0:0:0:
83,325,64681,2,0,P|38:333|17:340,2,50,0|0|0,3:0|3:0|1:0,0:0:0:0:
169,374,65281,6,0,P|230:382|278:343,1,99.9999999999999,2|0,3:2|1:0,0:0:0:0:
318,281,65881,2,0,P|343:286|380:295,2,50,2|0|0,0:0|3:0|1:0,0:0:0:0:
280,247,66331,2,0,P|231:235|181:227,1,99.9999999999999,0|0,3:0|3:0,0:0:0:0:
134,244,66781,1,2,1:2:0:0:
53,184,67081,1,2,3:2:0:0:
99,95,67381,1,2,1:2:0:0:
185,120,67681,6,0,P|201:52|212:13,2,89.999997253418,6|0|0,3:2|1:0|0:0,0:0:0:0:
259,180,68581,1,0,1:0:0:0:
259,180,68731,2,0,P|303:173|348:169,1,89.999997253418,2|0,3:2|3:0,0:0:0:0:
393,166,69181,1,0,1:0:0:0:
455,231,69481,2,0,P|443:278|436:305,2,44.999998626709,0|0|0,3:0|3:0|1:0,0:0:0:0:
510,159,70081,6,0,P|507:84|301:51,1,314.999990386963,6|6,3:2|3:2,0:0:0:0:
256,192,71281,12,6,73681,0:2:0:0:
