osu file format v14

[General]
AudioFilename: audio.mp3
AudioLeadIn: 0
PreviewTime: 43006
Countdown: 0
SampleSet: Soft
StackLeniency: 0.3
Mode: 0
LetterboxInBreaks: 0
WidescreenStoryboard: 1

[Editor]
Bookmarks: 22081,61681
DistanceSpacing: 1.1
BeatDivisor: 4
GridSize: 32
TimelineZoom: 1.2

[Metadata]
Title:Sail on Sunlight
TitleUnicode:Sail on Sunlight
Artist:Daisuke Achiwa
ArtistUnicode:阿知波大輔
Creator:Mocaotic
Version:Insane
Source:ソフィーのアトリエ2 ~不思議な夢の錬金術士~
Tags:Sophie no Atelier 2 ~Fushigi na Yume Renkinjutsushi~ The Alchemist of Mysterious Dream ソフィー・ノイエンミュラー Neuenmuller ラミゼル・エルレンマイヤー Ramizel Erlenmeyer エルヴィーラ Elvira instrumental video game videogame vgm battle theme ost original official soundtrack folk
BeatmapID:4528554
BeatmapSetID:2146064

[Difficulty]
HPDrainRate:5
CircleSize:4
OverallDifficulty:8
ApproachRate:9
SliderMultiplier:1.64
SliderTickRate:1

[Events]
//Background and Video events
0,0,"sophie.png",0,0
//Break Periods
//Storyboard Layer 0 (Background)
//Storyboard Layer 1 (Fail)
//Storyboard Layer 2 (Pass)
//Storyboard Layer 3 (Foreground)
//Storyboard Layer 4 (Overlay)
//Storyboard Sound Samples

[TimingPoints]
1681,300,4,2,2,86,1,0
5131,-111.111111111111,4,2,2,86,0,0
6481,-100,4,2,2,86,0,0
9931,-250,4,2,2,86,0,0
11281,-250,4,2,2,30,0,0
11506,-250,4,2,2,40,0,0
11881,-250,4,2,2,50,0,0
12181,-250,4,2,2,60,0,0
12481,-133.333333333333,4,2,2,40,0,0
21481,-117.647058823529,4,2,2,40,0,0
22081,-111.111111111111,4,2,2,60,0,0
27331,-100,4,2,2,60,0,0
27631,-111.111111111111,4,2,2,60,0,0
28531,-100,4,2,2,60,0,0
28681,-111.111111111111,4,2,2,60,0,0
31381,-125,4,2,2,60,0,0
31681,-133.333333333333,4,2,2,50,0,0
41281,-111.111111111111,4,2,2,60,0,0
43081,-111.111111111111,4,2,2,70,0,0
43681,-86.9565217391304,4,2,2,86,0,1
43981,-100,4,2,2,86,0,1
48481,-83.3333333333333,4,2,2,86,0,1
48781,-100,4,2,2,86,0,1
51181,-83.3333333333333,4,2,2,86,0,1
51331,-100,4,2,2,86,0,1
52381,-90.9090909090909,4,2,2,50,0,1
52681,-83.3333333333333,4,2,2,60,0,1
52981,-83.3333333333333,4,2,2,70,0,1
53281,-100,4,2,2,86,0,1
61606,-100,4,2,2,86,0,0
61981,-100,4,2,2,60,0,0
62881,-111.111111111111,4,2,2,70,0,0
65281,-111.111111111111,4,2,2,60,0,0
67681,-111.111111111111,4,2,2,50,0,0
69181,-125,4,2,2,50,0,0
70081,-125,4,2,2,35,0,0
71131,-125,4,2,2,20,0,0
73681,-125,4,2,2,10,0,0

[Colours]
Combo1 : 255,128,153
Combo2 : 255,170,221

[HitObjects]
512,314,1081,5,2,0:0:0:0:
512,314,1381,1,2,0:0:0:0:
512,314,1681,6,0,B|498:326|488:342|488:342|381:364,1,123,6|0,3:2|0:0,0:0:0:0:
332,384,1981,2,0,P|280:375|244:323,1,82,8|0,0:0|0:0,0:0:0:0:
116,233,2281,1,2,0:0:0:0:
244,186,2431,1,2,3:2:0:0:
325,296,2581,1,10,0:0:0:0:
169,384,2731,6,0,P|157:299|140:193,1,164,2|0,3:2|3:0,0:0:0:0:
46,77,3181,2,0,P|48:120|72:156,1,82,10|0,0:0|0:0,0:0:0:0:
240,233,3481,2,0,P|238:190|214:154,1,82,2|0,3:2|3:0,0:0:0:0:
152,9,3781,2,0,L|142:102,1,82,10|0,0:0|0:0,0:0:0:0:
0,234,4081,6,0,P|48:177|136:180,1,164,2|10,3:2|0:0,0:0:0:0:
299,197,4531,2,0,P|248:222|194:204,1,82,2|0,0:0|0:0,0:0:0:0:
240,135,4831,1,2,3:2:0:0:
395,206,4981,1,10,0:0:0:0:
276,319,5131,6,0,P|203:307|130:296,1,147.599995495606,2|0,3:2|3:0,0:0:0:0:
0,198,5581,2,0,P|46:189|101:178,1,73.7999977478028,8|0,0:0|0:0,0:0:0:0:
162,208,5881,1,2,3:2:0:0:
162,208,6031,1,0,3:0:0:0:
57,351,6181,2,0,P|48:305|34:251,1,73.7999977478028,10|0,0:0|0:0,0:0:0:0:
0,99,6481,6,0,B|19:107|30:124|30:124|133:143,1,123,6|0,3:2|0:0,0:0:0:0:
184,111,6781,2,0,P|236:120|275:171,1,82,8|0,0:0|0:0,0:0:0:0:
407,256,7081,1,2,0:0:0:0:
275,302,7231,1,2,3:2:0:0:
195,190,7381,1,10,0:0:0:0:
341,106,7531,6,0,P|356:186|370:267,1,164,2|0,3:2|3:0,0:0:0:0:
485,363,7981,2,0,P|523:310|517:263,1,82,10|0,0:0|0:0,0:0:0:0:
363,272,8281,2,0,P|422:287|454:296,1,82,2|0,3:2|3:0,0:0:0:0:
261,372,8581,2,0,P|300:361|340:351,1,82,10|0,0:0|0:0,0:0:0:0:
455,133,8881,6,0,P|412:182|295:172,1,164,6|10,3:2|0:0,0:0:0:0:
81,173,9331,2,0,P|121:147|175:154,1,82,2|0,3:2|3:2,0:0:0:0:
364,114,9631,1,2,3:2:0:0:
142,226,9781,1,2,3:2:0:0:
271,328,9931,6,0,P|256:181|239:34,1,295.2,6|0,3:2|1:0,0:0:0:0:
256,192,11431,12,8,12181,0:0:0:0:
256,192,12481,5,4,3:2:0:0:
409,33,12781,5,2,1:2:0:0:
409,33,12931,1,2,0:0:0:0:
469,82,13081,1,2,0:0:0:0:
394,108,13231,2,0,P|336:121|320:126,1,61.5000023460389,2|0,3:2|1:2,0:0:0:0:
181,166,13531,5,2,3:2:0:0:
181,166,13831,2,0,P|229:202|299:177,2,123.000004692078,2|2|2,3:2|0:0|3:2,0:0:0:0:
122,117,14581,2,0,P|131:71|134:52,1,61.5000023460389,0|0,1:2|0:0,0:0:0:0:
22,0,14881,6,0,P|31:61|42:133,1,123.000004692078,2|2,3:2|1:2,0:0:0:0:
0,204,15331,2,0,P|57:199|118:247,1,123.000004692078,2|0,0:0|3:2,0:0:0:0:
334,311,15931,6,0,P|283:346|223:340,1,123.000004692078,2|0,3:2|3:2,0:0:0:0:
160,293,16381,1,0,1:0:0:0:
160,293,16681,1,0,3:2:0:0:
83,311,16831,2,0,P|42:301|19:297,2,61.5000023460389,2|0|2,3:2|1:0|0:0,0:0:0:0:
251,264,17281,6,0,P|238:324|227:384,2,123.000004692078,6|0|0,3:2|1:0|0:0,0:0:0:0:
159,191,18031,2,0,P|166:249|183:265,1,61.5000023460389,2|2,3:2|1:2,0:0:0:0:
323,309,18331,2,0,P|331:248|290:187,1,123.000004692078,2|0,3:2|3:2,0:0:0:0:
217,89,18781,6,0,P|236:157|239:169,1,61.5000023460389,2|0,1:2|0:0,0:0:0:0:
352,71,19081,2,0,P|302:121|293:130,1,61.5000023460389,2|0,3:2|3:2,0:0:0:0:
435,178,19381,2,0,P|366:160|354:157,1,61.5000023460389,2|0,1:2|0:0,0:0:0:0:
243,256,19681,6,0,B|310:214|306:280|377:229,1,123.000004692078,2|2,3:2|1:2,0:0:0:0:
440,238,20131,2,0,P|429:296|426:320,1,61.5000023460389,2|0,0:0|0:0,0:0:0:0:
512,384,20431,1,0,3:2:0:0:
512,384,20731,6,0,B|445:342|449:408|378:357,1,123.000004692078,2|0,3:2|3:2,0:0:0:0:
201,281,21181,2,0,L|274:269,1,61.5000023460389,4|0,0:2|0:0,0:0:0:0:
316,362,21481,1,0,1:0:0:0:
316,362,21556,1,0,1:0:0:0:
316,362,21631,2,0,L|324:314,2,34.850000664711,0|0|8,1:0|1:0|0:0,0:0:0:0:
98,384,22081,6,0,P|59:344|73:249,1,147.599995495606,4|2,3:2|1:2,0:0:0:0:
151,210,22531,1,2,0:0:0:0:
208,293,22681,1,2,0:0:0:0:
208,293,22831,2,0,P|162:301|123:308,1,73.7999977478028,2|0,3:2|1:0,0:0:0:0:
0,152,23131,6,0,P|36:158|72:164,1,73.7999977478028,2|0,3:2|0:0,0:0:0:0:
212,87,23431,2,0,P|208:47|189:21,1,73.7999977478028,2|0,3:2|1:0,0:0:0:0:
148,202,23731,2,0,P|129:240|138:280,1,73.7999977478028,2|0,0:0|3:0,0:0:0:0:
307,155,24031,2,0,P|271:161|235:167,1,73.7999977478028,2|0,3:2|1:0,0:0:0:0:
62,101,24331,1,2,0:0:0:0:
62,101,24406,1,2,0:0:0:0:
62,101,24481,6,0,P|137:116|199:68,1,147.599995495606,0|2,3:2|1:2,0:0:0:0:
348,25,24931,2,0,P|391:24|430:52,1,73.7999977478028,2|0,0:0|0:0,0:0:0:0:
282,92,25231,1,2,3:2:0:0:
257,2,25381,1,2,1:2:0:0:
369,109,25531,6,0,P|350:189|333:274,1,147.599995495606,2|0,3:2|3:0,0:0:0:0:
197,312,25981,2,0,P|204:348|211:384,1,73.7999977478028,0|0,1:0|0:0,0:0:0:0:
123,273,26281,2,0,P|181:231|249:249,1,147.599995495606,0|2,3:0|1:2,0:0:0:0:
292,329,26731,1,2,0:0:0:0:
470,384,26881,6,0,P|486:299|503:226,1,147.599995495606,6|2,3:2|1:2,0:0:0:0:
417,175,27331,2,0,B|396:170|396:170|353:192,2,41,2|0|0,0:0|0:0|0:0,0:0:0:0:
500,142,27631,1,2,3:2:0:0:
409,257,27781,1,2,1:2:0:0:
279,193,27931,6,0,P|263:108|246:35,1,147.599995495606,0|0,3:0|3:0,0:0:0:0:
376,0,28381,1,0,1:0:0:0:
451,49,28531,2,0,L|438:111,1,41,2|0,0:0|0:0,0:0:0:0:
368,181,28681,2,0,P|360:138|351:102,1,73.7999977478028,2|0,3:2|3:0,0:0:0:0:
512,218,28981,1,2,1:2:0:0:
415,311,29131,1,2,0:0:0:0:
431,233,29281,5,0,3:0:0:0:
354,200,29431,1,0,1:0:0:0:
354,200,29506,1,0,1:0:0:0:
354,200,29581,1,0,1:0:0:0:
292,256,29731,1,0,3:0:0:0:
209,237,29881,1,0,3:0:0:0:
136,286,30031,2,0,P|93:278|46:270,1,73.7999977478028,2|0,1:2|0:0,0:0:0:0:
16,124,30331,6,0,P|89:121|138:60,1,147.599995495606,2|2,1:2|0:0,0:0:0:0:
53,47,30781,1,0,1:0:0:0:
16,124,30931,2,0,P|3:120|-23:115,2,36.8999988739014,0|0|2,3:0|3:0|3:2,0:0:0:0:
84,178,31231,1,0,3:0:0:0:
28,249,31381,2,0,P|37:285|43:320,1,65.6,0|0,3:2|3:0,0:0:0:0:
186,365,31681,6,0,P|246:330|252:273,2,123.000004692078,6|0|0,3:2|0:0|1:0,0:0:0:0:
109,383,32431,1,2,0:0:0:0:
47,343,32581,1,2,0:0:0:0:
47,343,32731,2,0,P|1:290|16:235,1,123.000004692078,2|0,3:2|3:0,0:0:0:0:
70,188,33181,6,0,P|105:195|152:203,1,61.5000023460389,2|0,0:0|3:0,0:0:0:0:
217,264,33481,2,0,P|210:223|200:182,1,61.5000023460389,2|0,1:2|3:0,0:0:0:0:
294,116,33781,2,0,P|287:145|281:176,1,61.5000023460389,2|0,3:2|0:0,0:0:0:0:
438,195,34081,6,0,B|415:225|415:225|379:228|329:246,1,123.000004692078,6|2,3:2|0:0,0:0:0:0:
256,101,34531,2,0,B|279:131|279:131|315:134|365:152,1,123.000004692078,2|0,0:0|0:0,0:0:0:0:
409,331,35131,6,0,P|397:251|373:126,1,184.500007038117,2|0,3:2|0:0,0:0:0:0:
469,95,35881,1,2,1:2:0:0:
436,168,36181,1,2,3:2:0:0:
359,174,36481,6,0,P|304:151|287:93,2,123.000004692078,6|0|0,3:2|0:0|1:0,0:0:0:0:
437,193,37231,1,2,0:0:0:0:
497,145,37381,1,2,0:0:0:0:
497,145,37531,2,0,P|530:99|509:35,1,123.000004692078,2|0,3:2|3:0,0:0:0:0:
439,13,37981,6,0,P|396:21|367:26,1,61.5000023460389,2|0,0:0|3:0,0:0:0:0:
294,126,38281,2,0,P|299:95|305:65,1,61.5000023460389,2|0,1:2|3:0,0:0:0:0:
212,0,38581,2,0,P|217:30|222:66,1,61.5000023460389,2|0,3:2|0:0,0:0:0:0:
31,86,38881,6,0,B|53:59|53:59|100:50|149:36,1,123.000004692078,6|2,3:2|0:0,0:0:0:0:
241,174,39331,2,0,B|219:147|219:147|172:138|123:124,1,123.000004692078,2|0,0:0|0:0,0:0:0:0:
119,0,39931,6,0,P|96:91|73:207,1,184.500007038117,2|0,3:2|0:0,0:0:0:0:
1,224,40531,1,0,3:0:0:0:
1,224,40606,1,0,1:0:0:0:
1,224,40681,1,0,1:2:0:0:
72,185,40831,1,0,1:0:0:0:
153,206,40981,1,0,3:2:0:0:
196,277,41131,1,0,3:0:0:0:
260,384,41281,6,0,P|272:332|283:301,1,73.7999977478028,6|0,3:2|0:0,0:0:0:0:
231,113,41581,2,0,P|241:148|249:184,1,73.7999977478028,0|0,3:0|3:0,0:0:0:0:
249,184,41806,1,0,3:0:0:0:
249,184,41881,1,0,3:0:0:0:
208,262,42031,5,2,3:2:0:0:
342,206,42181,1,2,0:0:0:0:
231,113,42331,1,2,1:2:0:0:
256,192,42631,5,0,1:0:0:0:
294,0,42781,1,0,1:0:0:0:
214,384,43081,5,2,0:0:0:0:
214,384,43381,1,2,0:0:0:0:
214,384,43681,6,0,B|221:365|238:347|238:347|249:287|265:220,1,141.450002697945,6|0,3:2|0:0,0:0:0:0:
305,193,43981,2,0,P|295:141|284:82,1,82,8|0,0:0|0:0,0:0:0:0:
270,8,44281,1,2,0:0:0:0:
134,129,44431,1,2,3:2:0:0:
305,193,44581,1,10,0:0:0:0:
477,113,44731,6,0,L|311:96,1,164,2|0,3:2|3:0,0:0:0:0:
145,148,45181,2,0,P|179:168|220:167,1,82,10|0,0:0|0:0,0:0:0:0:
335,10,45481,2,0,P|274:13|240:49,1,82,2|0,3:2|3:0,0:0:0:0:
386,172,45781,1,10,0:0:0:0:
313,96,45931,1,2,0:0:0:0:
313,96,46006,1,2,0:0:0:0:
313,96,46081,6,0,P|294:196|283:272,1,164,2|10,3:2|0:0,0:0:0:0:
136,380,46531,2,0,P|128:321|113:265,1,82,2|0,0:0|0:0,0:0:0:0:
96,208,46831,1,2,3:2:0:0:
219,315,46981,1,10,0:2:0:0:
39,290,47131,6,0,P|-2:223|43:128,1,164,2|0,3:2|3:0,0:0:0:0:
126,34,47581,2,0,P|113:110|108:144,1,82,8|0,0:0|0:0,0:0:0:0:
118,130,47806,1,2,0:0:0:0:
118,130,47881,2,0,P|155:152|199:153,1,82,2|0,3:2|3:0,0:0:0:0:
392,271,48181,2,0,P|348:261|268:320,1,123,10|0,0:2|0:0,0:0:0:0:
278,386,48481,6,0,B|279:346|279:346|267:332|267:332|271:318|271:318|256:253|247:211,1,147.599995495606,6|0,3:2|0:0,0:0:0:0:
209,184,48781,2,0,L|227:80,1,82,8|0,0:0|0:0,0:0:0:0:
241,0,49081,1,2,0:0:0:0:
379,119,49231,1,2,3:2:0:0:
209,184,49381,1,10,0:2:0:0:
32,99,49531,6,0,L|198:82,1,164,2|0,3:2|3:0,0:0:0:0:
383,25,49981,2,0,P|342:2|285:12,1,82,10|0,0:0|0:0,0:0:0:0:
164,167,50281,2,0,P|209:169|263:131,1,82,2|0,3:2|3:0,0:0:0:0:
424,216,50581,1,10,0:2:0:0:
324,96,50731,1,2,0:0:0:0:
324,96,50806,1,2,0:0:0:0:
324,96,50881,6,0,P|333:148|339:199,1,82,6|0,3:2|0:0,0:0:0:0:
292,342,51181,2,0,P|328:350|357:359,1,49.1999984985352,10|0,0:0|0:0,0:0:0:0:
512,244,51331,2,0,P|454:226|360:302,1,164,2|2,3:2|3:2,0:0:0:0:
209,349,51781,1,10,0:0:0:0:
339,362,51931,6,0,B|307:355|291:327|291:327|169:305,1,164,6|0,3:2|3:0,0:0:0:0:
3,384,52381,2,0,L|61:372,3,45.1000013763428,0|0|0|0,1:2|1:0|1:0|1:0,0:0:0:0:
110,308,52681,1,2,1:2:0:0:
110,308,52756,1,0,1:0:0:0:
110,308,52831,2,0,L|95:236,1,49.1999984985352,0|0,1:0|1:0,0:0:0:0:
136,181,52981,1,2,1:2:0:0:
122,138,53056,1,0,1:0:0:0:
91,107,53131,1,0,1:0:0:0:
48,96,53206,1,0,1:0:0:0:
6,110,53281,6,0,P|52:149|177:118,1,164,6|10,3:2|0:2,0:0:0:0:
318,112,53731,2,0,P|285:95|212:105,1,82,2|0,3:2|0:0,0:0:0:0:
93,69,54031,1,2,3:2:0:0:
261,179,54181,1,10,0:0:0:0:
89,76,54331,6,0,P|109:166|126:267,1,164,2|0,3:2|3:0,0:0:0:0:
227,375,54781,2,0,B|250:338|250:338|226:288,1,82,8|0,0:0|0:0,0:0:0:0:
71,319,55081,1,2,3:2:0:0:
71,319,55381,2,0,P|111:325|154:333,1,82,10|0,0:0|0:0,0:0:0:0:
313,214,55681,6,0,P|256:197|159:266,1,164,6|10,3:2|0:0,0:0:0:0:
359,384,56131,2,0,P|399:385|448:344,1,82,2|0,0:0|0:0,0:0:0:0:
256,280,56431,1,2,3:2:0:0:
373,303,56581,1,10,0:0:0:0:
482,168,56731,6,0,P|492:79|504:-6,1,164,6|0,3:2|3:0,0:0:0:0:
303,172,57181,2,0,P|311:212|319:252,1,82,8|0,0:0|0:0,0:0:0:0:
394,167,57481,1,2,3:2:0:0:
238,103,57631,1,0,3:0:0:0:
361,0,57781,1,10,0:2:0:0:
339,87,57931,5,2,0:0:0:0:
339,87,58006,1,2,0:0:0:0:
339,87,58081,2,0,P|398:90|503:18,2,164,6|8|0,3:2|0:0|3:0,0:0:0:0:
256,64,58831,1,0,3:0:0:0:
98,62,58981,2,0,P|157:36|198:46,1,82,10|0,0:0|0:0,0:0:0:0:
176,197,59281,6,0,P|161:132|147:85,1,82,2|0,3:2|0:0,0:0:0:0:
256,64,59581,1,8,0:0:0:0:
336,197,59731,2,0,P|350:132|364:85,1,82,2|0,0:0|3:0,0:0:0:0:
258,229,60031,1,0,3:0:0:0:
258,229,60106,1,0,3:0:0:0:
258,229,60181,2,0,B|219:306|314:310|240:408,1,164,10|6,0:0|3:2,0:0:0:0:
185,343,60781,5,0,1:0:0:0:
332,268,60931,5,0,1:0:0:0:
170,210,61081,5,0,1:0:0:0:
350,133,61231,5,0,1:0:0:0:
156,69,61381,5,0,1:0:0:0:
264,0,61531,5,0,1:0:0:0:
256,40,61606,1,0,1:0:0:0:
251,80,61681,1,0,3:2:0:0:
374,90,62881,6,0,P|445:86|493:32,2,147.599995495606,6|0|0,3:2|1:0|0:0,0:0:0:0:
281,65,63631,1,0,3:0:0:0:
405,4,63781,1,0,1:0:0:0:
276,71,63931,6,0,P|205:56|145:95,1,147.599995495606,2|0,3:2|3:0,0:0:0:0:
212,216,64381,2,0,P|217:179|224:143,1,73.7999977478028,0|0,1:0|0:0,0:0:0:0:
145,94,64681,1,0,3:0:0:0:
80,151,64831,1,0,3:0:0:0:
0,24,64981,2,0,P|8:66|16:129,1,73.7999977478028,0|0,1:0|0:0,0:0:0:0:
0,282,65281,6,0,P|37:245|135:247,1,147.599995495606,2|0,3:2|1:0,0:0:0:0:
127,243,65881,1,0,0:0:0:0:
82,318,66031,1,0,3:0:0:0:
216,248,66181,1,0,1:0:0:0:
297,286,66331,6,0,P|260:323|162:321,1,147.599995495606,0|0,3:0|3:0,0:0:0:0:
199,176,66781,2,0,P|214:239|220:268,1,73.7999977478028,2|0,1:2|0:0,0:0:0:0:
297,112,67081,2,0,P|282:49|276:20,1,73.7999977478028,2|0,3:2|3:0,0:0:0:0:
412,142,67381,2,0,P|420:178|428:213,1,73.7999977478028,2|0,1:2|0:0,0:0:0:0:
512,347,67681,6,0,P|475:310|377:312,2,147.599995495606,6|0|0,3:2|1:0|0:0,0:0:0:0:
427,384,68431,1,0,3:0:0:0:
475,222,68581,1,0,1:0:0:0:
305,339,68731,6,0,P|233:345|177:300,1,147.599995495606,2|0,3:2|3:0,0:0:0:0:
248,198,69181,2,0,P|258:255|261:286,1,65.6,0|0,1:0|0:0,0:0:0:0:
168,215,69481,1,0,3:0:0:0:
168,215,69631,1,0,3:0:0:0:
60,343,69781,6,0,P|68:270|79:204,1,131.2,0|6,1:0|3:2,0:0:0:0:
78,213,70381,1,0,1:0:0:0:
43,142,70531,1,0,3:0:0:0:
74,70,70681,1,0,3:0:0:0:
148,45,70831,1,0,3:0:0:0:
225,60,70981,2,0,P|259:67|302:79,1,65.6,0|6,3:0|3:2,0:0:0:0:
256,192,71281,12,6,73681,0:2:0:0:
