osu file format v14

[General]
AudioFilename: audio.mp3
AudioLeadIn: 0
PreviewTime: 43006
Countdown: 0
SampleSet: Soft
StackLeniency: 0.3
Mode: 0
LetterboxInBreaks: 0
WidescreenStoryboard: 1

[Editor]
Bookmarks: 22081,61681
DistanceSpacing: 1.4
BeatDivisor: 4
GridSize: 32
TimelineZoom: 1.2

[Metadata]
Title:Sail on Sunlight
TitleUnicode:Sail on Sunlight
Artist:Daisuke Achiwa
ArtistUnicode:阿知波大輔
Creator:Mocaotic
Version:Hard
Source:ソフィーのアトリエ2 ~不思議な夢の錬金術士~
Tags:Sophie no Atelier 2 ~Fushigi na Yume Renkinjutsushi~ The Alchemist of Mysterious Dream ソフィー・ノイエンミュラー Neuenmuller ラミゼル・エルレンマイヤー Ramizel Erlenmeyer エルヴィーラ Elvira instrumental video game videogame vgm battle theme ost original official soundtrack folk
BeatmapID:4528192
BeatmapSetID:2146064

[Difficulty]
HPDrainRate:4
CircleSize:3.8
OverallDifficulty:6.5
ApproachRate:8
SliderMultiplier:1.35
SliderTickRate:1

[Events]
//Background and Video events
0,0,"sophie.png",0,0
//Break Periods
//Storyboard Layer 0 (Background)
//Storyboard Layer 1 (Fail)
//Storyboard Layer 2 (Pass)
//Storyboard Layer 3 (Foreground)
//Storyboard Layer 4 (Overlay)
//Storyboard Sound Samples

[TimingPoints]
1681,300,4,2,2,86,1,0
11281,-100,4,2,2,30,0,0
11506,-100,4,2,2,40,0,0
11881,-100,4,2,2,50,0,0
12181,-100,4,2,2,60,0,0
12481,-125,4,2,2,40,0,0
22081,-111.111111111111,4,2,2,60,0,0
31681,-125,4,2,2,50,0,0
41281,-111.111111111111,4,2,2,60,0,0
43081,-111.111111111111,4,2,2,70,0,0
43681,-100,4,2,2,86,0,1
52381,-100,4,2,2,50,0,1
52681,-90.9090909090909,4,2,2,60,0,1
52981,-90.9090909090909,4,2,2,70,0,1
53281,-100,4,2,2,86,0,1
61681,-100,4,2,2,86,0,0
61981,-100,4,2,2,60,0,0
62881,-100,4,2,2,70,0,0
65281,-100,4,2,2,60,0,0
67681,-111.111111111111,4,2,2,50,0,0
70081,-125,4,2,2,35,0,0
71131,-125,4,2,2,20,0,0
73681,-125,4,2,2,10,0,0

[Colours]
Combo1 : 255,128,153
Combo2 : 255,170,221

[HitObjects]
498,264,1681,6,0,B|489:273|484:286|484:286|393:308,1,101.25,6|0,3:2|0:0,0:0:0:0:
379,329,1981,2,0,L|304:343,1,67.5,8|0,0:0|0:0,0:0:0:0:
240,303,2281,1,2,0:0:0:0:
188,365,2431,1,2,3:2:0:0:
117,325,2581,1,10,0:0:0:0:
60,382,2731,6,0,P|12:313|35:251,1,135,2|0,3:2|3:0,0:0:0:0:
82,213,3181,2,0,L|157:227,1,67.5,10|0,0:0|0:0,0:0:0:0:
220,270,3481,2,0,L|232:203,1,67.5,2|0,3:2|3:0,0:0:0:0:
301,147,3781,2,0,L|313:213,1,67.5,10|0,0:0|0:0,0:0:0:0:
349,288,4081,6,0,P|418:297|477:261,1,135,2|10,3:2|0:0,0:0:0:0:
511,194,4531,2,0,P|498:125|484:47,1,135,2|2,0:0|3:2,0:0:0:0:
418,17,4981,1,10,0:0:0:0:
371,83,5131,2,0,P|384:152|398:230,1,135,2|0,3:2|3:0,0:0:0:0:
349,288,5581,1,8,0:0:0:0:
200,228,5881,2,0,P|150:221|108:213,1,67.5,2|0,3:2|3:0,0:0:0:0:
58,173,6181,2,0,P|51:223|43:265,1,67.5,10|0,0:0|0:0,0:0:0:0:
0,348,6481,6,0,B|15:337|22:327|22:327|97:316,1,101.25,6|0,3:2|0:0,0:0:0:0:
125,340,6781,2,0,L|209:329,1,67.5,8|0,0:0|0:0,0:0:0:0:
258,285,7081,1,2,0:0:0:0:
318,338,7231,1,2,3:2:0:0:
392,305,7381,1,10,0:0:0:0:
456,354,7531,6,0,P|500:299|475:223,1,135,2|0,3:2|3:0,0:0:0:0:
419,198,7981,2,0,P|374:205|325:211,1,67.5,10|0,0:0|0:0,0:0:0:0:
318,116,8281,2,0,P|351:120|384:125,1,67.5,2|0,3:2|3:0,0:0:0:0:
402,27,8581,2,0,P|357:34|308:40,1,67.5,10|0,0:0|0:0,0:0:0:0:
226,1,8881,6,0,B|237:34|252:42|252:42|235:132,1,135,6|10,3:2|0:0,0:0:0:0:
313,196,9331,2,0,L|152:225,1,135,2|2,3:2|3:2,0:0:0:0:
106,255,9781,1,2,3:2:0:0:
41,206,9931,1,6,3:2:0:0:
256,192,10081,12,8,12181,0:0:0:0:
70,342,12481,5,4,3:2:0:0:
70,342,12781,2,0,P|24:333|8:329,2,54,2|2|2,1:2|0:0|0:0,0:0:0:0:
135,303,13231,2,0,P|139:276|146:245,1,54,2|0,3:2|1:2,0:0:0:0:
201,199,13531,2,0,P|259:210|324:216,2,108,2|2|2,3:2|3:2|0:0,0:0:0:0:
62,138,14431,2,0,P|58:80|110:36,1,108,2|0,3:2|0:0,0:0:0:0:
157,12,14881,6,0,P|213:21|234:24,1,54,2|0,3:2|0:0,0:0:0:0:
276,68,15181,1,2,1:2:0:0:
276,68,15331,2,0,P|338:74|393:39,1,108,2|0,0:0|3:2,0:0:0:0:
512,0,15931,2,0,P|500:60|489:128,1,108,2|0,3:2|3:2,0:0:0:0:
472,179,16381,1,0,1:0:0:0:
351,332,16831,2,0,P|340:357|341:384,2,54,2|0|2,3:2|1:0|0:0,0:0:0:0:
407,282,17281,6,0,P|459:294|532:312,2,108,6|0|0,3:2|1:0|0:0,0:0:0:0:
353,229,18031,2,0,P|305:238|284:241,1,54,2|2,3:2|1:2,0:0:0:0:
250,296,18331,2,0,P|197:283|144:271,1,108,2|0,3:2|3:2,0:0:0:0:
108,204,18781,2,0,P|71:254|83:316,2,108,2|2|2,1:2|3:2|1:2,0:0:0:0:
243,136,19681,6,0,P|276:94|276:42,1,108,2|2,3:2|1:2,0:0:0:0:
209,6,20131,2,0,P|132:16|91:21,1,108,2|0,0:0|3:2,0:0:0:0:
11,140,20731,2,0,P|88:150|129:155,1,108,2|0,3:2|3:2,0:0:0:0:
178,199,21181,2,0,P|187:250|190:277,1,54,4|0,0:2|0:0,0:0:0:0:
248,297,21481,2,0,L|297:287,4,27,0|0|0|0|8,1:0|1:0|1:0|1:0|0:0,0:0:0:0:
95,371,22081,5,4,3:2:0:0:
95,371,22381,1,2,1:2:0:0:
28,329,22531,1,2,0:0:0:0:
63,260,22681,1,2,0:0:0:0:
63,260,22831,2,0,P|103:251|139:245,1,60.7499981460572,2|0,3:2|1:0,0:0:0:0:
197,273,23131,6,0,P|252:282|308:242,2,121.499996292114,2|2|2,3:2|3:2|0:0,0:0:0:0:
179,115,24031,2,0,P|188:75|194:39,1,60.7499981460572,2|0,3:2|1:0,0:0:0:0:
133,1,24331,2,0,P|78:-8|22:32,1,121.499996292114,2|0,0:0|0:0,0:0:0:0:
9,107,24781,1,2,1:2:0:0:
9,107,24931,2,0,P|38:112|68:119,1,60.7499981460572,2|0,0:0|0:0,0:0:0:0:
128,170,25231,1,2,3:2:0:0:
190,122,25381,1,2,1:2:0:0:
257,163,25531,6,0,P|237:271|233:307,1,121.499996292114,2|0,3:2|3:0,0:0:0:0:
292,338,25981,2,0,P|321:332|351:328,1,60.7499981460572,0|0,1:0|0:0,0:0:0:0:
425,356,26281,1,0,3:0:0:0:
511,223,26581,1,2,1:2:0:0:
453,168,26731,1,2,0:0:0:0:
378,195,26881,6,0,P|318:182|259:167,1,121.499996292114,6|2,3:2|1:2,0:0:0:0:
192,209,27331,2,0,P|155:217|118:227,1,60.7499981460572,2|0,0:0|0:0,0:0:0:0:
55,239,27631,1,2,3:2:0:0:
5,177,27781,2,0,P|32:129|158:123,1,182.249994438172,2|0,1:2|3:0,0:0:0:0:
217,156,28381,1,0,1:0:0:0:
283,112,28531,5,2,0:0:0:0:
283,112,28681,2,0,P|290:82|295:52,1,60.7499981460572,2|0,3:2|3:0,0:0:0:0:
231,4,28981,1,2,1:2:0:0:
165,48,29131,1,2,0:0:0:0:
78,19,29281,6,0,P|91:92|93:106,1,60.7499981460572,0|0,3:0|1:0,0:0:0:0:
65,110,29506,1,0,1:0:0:0:
39,139,29581,2,0,P|50:210|58:270,1,121.499996292114,0|0,1:0|3:0,0:0:0:0:
113,314,30031,2,0,P|157:313|183:291,1,60.7499981460572,2|0,1:2|0:0,0:0:0:0:
244,364,30331,6,0,P|251:304|264:233,1,121.499996292114,2|2,1:2|0:0,0:0:0:0:
309,180,30781,1,0,1:0:0:0:
250,128,30931,2,0,P|212:119|205:117,2,30.3749990730286,0|0|2,3:0|3:0|3:2,0:0:0:0:
311,78,31231,1,0,3:0:0:0:
273,8,31381,1,0,3:2:0:0:
394,106,31681,6,0,P|401:52|410:0,2,108,6|0|0,3:2|0:0|1:0,0:0:0:0:
431,171,32431,1,2,0:0:0:0:
510,149,32581,1,2,0:0:0:0:
510,149,32731,2,0,P|500:202|493:255,1,108,2|0,3:2|3:0,0:0:0:0:
433,303,33181,6,0,P|398:296|361:291,1,54,2|0,0:0|3:0,0:0:0:0:
314,331,33481,2,0,P|279:324|242:319,1,54,2|0,1:2|3:0,0:0:0:0:
189,352,33781,1,2,3:2:0:0:
189,352,34081,6,0,P|181:298|170:245,1,108,6|2,3:2|0:0,0:0:0:0:
225,193,34531,2,0,P|217:139|206:86,1,108,2|0,0:0|0:0,0:0:0:0:
57,60,35131,2,0,P|69:143|86:227,1,162,2|0,3:2|0:0,0:0:0:0:
135,362,35881,1,2,1:2:0:0:
135,362,36181,1,2,3:2:0:0:
135,362,36481,6,0,P|44:352|14:351,2,108,6|0|0,3:2|0:0|1:0,0:0:0:0:
185,304,37231,1,2,0:0:0:0:
154,228,37381,1,2,0:0:0:0:
154,228,37531,2,0,P|207:231|261:238,1,108,2|0,3:2|3:0,0:0:0:0:
333,277,37981,6,0,P|339:236|347:200,1,54,2|0,0:0|3:0,0:0:0:0:
402,178,38281,2,0,P|408:137|416:101,1,54,2|0,1:2|3:0,0:0:0:0:
457,57,38581,1,2,3:2:0:0:
457,57,38881,6,0,P|403:49|349:46,1,108,6|2,3:2|0:0,0:0:0:0:
286,89,39331,2,0,P|232:81|178:78,1,108,2|0,0:0|0:0,0:0:0:0:
47,2,39931,2,0,P|-21:49|7:132,1,162,2|0,3:2|0:0,0:0:0:0:
130,162,40681,2,0,P|169:156|199:151,1,54,0|0,1:2|1:0,0:0:0:0:
237,212,40981,2,0,P|232:237|229:264,1,54,0|0,3:2|3:0,0:0:0:0:
150,333,41281,6,0,P|207:340|266:398,1,121.499996292114,6|0,3:2|3:0,0:0:0:0:
330,366,41731,2,0,P|358:361|394:357,1,60.7499981460572,0|0,3:0|3:0,0:0:0:0:
464,375,42031,1,2,3:2:0:0:
504,307,42181,1,2,0:0:0:0:
453,245,42331,1,2,1:2:0:0:
285,162,42631,5,0,1:0:0:0:
234,224,42781,1,0,1:0:0:0:
0,6,43681,6,0,B|18:19|26:30|26:30|110:46,1,101.25,6|0,3:2|0:0,0:0:0:0:
119,73,43981,2,0,L|198:87,1,67.5,8|0,0:0|0:0,0:0:0:0:
252,33,44281,1,2,0:0:0:0:
327,71,44431,1,2,3:2:0:0:
392,17,44581,1,10,0:0:0:0:
468,52,44731,6,0,P|504:103|479:181,1,135,2|0,3:2|3:0,0:0:0:0:
413,207,45181,2,0,P|352:191|332:187,1,67.5,10|0,0:0|0:0,0:0:0:0:
274,237,45481,2,0,P|268:203|260:170,1,67.5,2|0,3:2|3:0,0:0:0:0:
191,115,45781,2,0,P|181:147|174:180,1,67.5,10|0,0:0|0:0,0:0:0:0:
108,233,46081,6,0,P|129:319|140:390,1,135,2|10,3:2|0:0,0:0:0:0:
54,384,46531,2,0,P|37:318|25:252,1,135,2|2,0:0|3:2,0:0:0:0:
50,170,46981,1,10,0:2:0:0:
2,100,47131,6,0,P|36:54|120:58,1,135,2|0,3:2|3:0,0:0:0:0:
179,96,47581,2,0,P|258:81|289:77,1,101.25,8|0,0:0|0:0,0:0:0:0:
311,52,47881,2,0,P|358:65|388:71,1,67.5,2|0,3:2|3:0,0:0:0:0:
465,58,48181,2,0,P|452:105|446:135,1,67.5,10|0,0:2|0:0,0:0:0:0:
501,240,48481,6,0,B|491:227|482:219|482:219|402:199,1,101.25,6|0,3:2|0:0,0:0:0:0:
371,215,48781,2,0,L|305:198,1,67.5,8|0,0:0|0:0,0:0:0:0:
236,149,49081,1,2,0:0:0:0:
171,203,49231,1,2,3:2:0:0:
92,171,49381,1,10,0:2:0:0:
33,231,49531,6,0,P|22:292|82:359,1,135,2|0,3:2|3:0,0:0:0:0:
145,384,49981,2,0,L|162:318,1,67.5,10|0,0:0|0:0,0:0:0:0:
230,256,50281,2,0,L|247:322,1,67.5,2|0,3:2|3:0,0:0:0:0:
317,366,50581,2,0,L|383:383,1,67.5,10|0,0:2|0:0,0:0:0:0:
489,384,50881,6,0,B|477:366|463:355|463:355|440:246,1,135,6|10,3:2|0:0,0:0:0:0:
512,189,51331,2,0,L|361:156,1,135,2|2,3:2|3:2,0:0:0:0:
302,194,51781,1,10,0:0:0:0:
231,119,51931,6,0,B|284:108|284:108|310:84|310:84|384:73,1,135,6|0,3:2|3:0,0:0:0:0:
417,20,52381,1,0,1:2:0:0:
502,58,52531,1,0,1:0:0:0:
502,58,52606,1,0,1:0:0:0:
502,58,52681,2,0,L|490:117,3,37.1250011329651,2|0|0|0,1:2|1:0|1:0|1:0,0:0:0:0:
512,138,52981,2,0,L|468:179,3,37.1250011329651,2|0|0|0,1:2|1:0|1:0|1:0,0:0:0:0:
465,206,53281,6,0,L|371:220,1,67.5,6|0,3:2|0:0,0:0:0:0:
316,191,53581,1,10,0:2:0:0:
268,260,53731,2,0,P|192:266|139:207,1,135,2|2,3:2|3:2,0:0:0:0:
95,165,54181,1,10,0:0:0:0:
20,204,54331,6,0,P|0:301|-9:363,1,135,2|0,3:2|3:0,0:0:0:0:
65,383,54781,2,0,P|102:376|144:371,1,67.5,8|0,0:0|0:0,0:0:0:0:
215,383,55081,1,2,3:2:0:0:
260,220,55381,1,10,0:0:0:0:
260,220,55681,6,0,P|226:215|193:209,1,67.5,6|0,3:2|0:0,0:0:0:0:
115,240,55981,1,10,0:0:0:0:
48,187,56131,2,0,P|9:123|28:52,1,135,2|2,0:0|3:2,0:0:0:0:
72,1,56581,1,10,0:0:0:0:
149,56,56731,6,0,P|214:39|281:28,1,135,6|0,3:2|3:0,0:0:0:0:
361,2,57181,2,0,P|407:16|485:30,1,101.25,8|0,0:0|0:0,0:0:0:0:
485,59,57481,2,0,P|471:105|463:140,1,67.5,2|0,3:2|3:0,0:0:0:0:
402,179,57781,2,0,P|416:225|424:260,1,67.5,10|0,0:2|0:0,0:0:0:0:
395,345,58081,6,0,P|474:332|517:373,2,135,6|8|0,3:2|0:0|3:0,0:0:0:0:
229,378,58981,2,0,P|174:371|153:369,1,67.5,10|0,0:0|0:0,0:0:0:0:
86,331,59281,2,0,P|70:266|128:212,1,135,2|8,3:2|0:0,0:0:0:0:
184,176,59731,2,0,P|224:125|208:62,1,135,2|0,0:0|3:0,0:0:0:0:
144,6,60181,2,0,P|86:15|69:19,1,67.5,10|0,0:0|0:0,0:0:0:0:
11,69,60481,1,6,3:2:0:0:
11,69,60781,5,0,1:0:0:0:
63,132,60931,1,0,1:0:0:0:
132,86,61081,1,0,1:0:0:0:
173,158,61231,1,0,1:0:0:0:
243,110,61381,1,0,1:0:0:0:
296,185,61531,1,0,1:0:0:0:
296,185,61606,1,0,1:0:0:0:
296,185,61681,1,0,3:2:0:0:
499,251,62881,6,0,P|489:319|480:387,2,135,6|0|0,3:2|1:0|0:0,0:0:0:0:
438,196,63631,1,0,3:0:0:0:
506,150,63781,1,0,1:0:0:0:
506,150,63931,6,0,P|426:114|369:147,1,135,2|0,3:2|3:0,0:0:0:0:
336,193,64381,2,0,P|343:243|346:283,1,67.5,0|0,1:0|0:0,0:0:0:0:
399,320,64681,2,0,P|432:323|465:328,2,67.5,0|0|0,3:0|3:0|1:0,0:0:0:0:
248,380,65281,6,0,P|180:370|112:361,2,135,2|0|0,3:2|1:0|0:0,0:0:0:0:
308,324,66031,1,0,3:0:0:0:
263,262,66181,1,0,1:0:0:0:
263,262,66331,6,0,P|200:227|142:247,1,135,0|0,3:0|3:0,0:0:0:0:
80,296,66781,2,0,P|23:287|2:283,1,67.5,2|0,1:2|0:0,0:0:0:0:
9,203,67081,2,0,P|42:197|75:192,1,67.5,2|0,3:2|3:0,0:0:0:0:
92,112,67381,2,0,P|35:103|14:99,1,67.5,2|0,1:2|0:0,0:0:0:0:
5,22,67681,6,0,P|73:12|136:4,1,121.499996292114,6|0,3:2|1:0,0:0:0:0:
275,53,68281,2,0,P|315:51|338:35,2,60.7499981460572,0|0|0,0:0|3:0|1:0,0:0:0:0:
212,102,68731,2,0,P|227:187|235:247,1,121.499996292114,2|0,3:2|3:0,0:0:0:0:
290,274,69181,2,0,P|281:328|277:355,1,60.7499981460572,0|0,1:0|0:0,0:0:0:0:
213,376,69481,2,0,P|173:374|150:358,2,60.7499981460572,0|0|0,3:0|3:0|1:0,0:0:0:0:
362,322,70081,5,6,3:2:0:0:
362,322,70381,2,0,P|417:305|433:302,1,54,0|0,1:0|3:0,0:0:0:0:
470,255,70681,2,0,P|453:200|450:184,1,54,0|0,3:0|3:0,0:0:0:0:
498,143,70981,1,0,3:0:0:0:
498,143,71131,1,6,3:2:0:0:
256,192,71281,12,6,73681,0:2:0:0:
