osu file format v14

[General]
AudioFilename: audio.mp3
AudioLeadIn: 0
PreviewTime: 43006
Countdown: 0
SampleSet: Soft
StackLeniency: 0.5
Mode: 0
LetterboxInBreaks: 0
WidescreenStoryboard: 0

[Editor]
Bookmarks: 22081,61681
DistanceSpacing: 1.1
BeatDivisor: 4
GridSize: 32
TimelineZoom: 1

[Metadata]
Title:Sail on Sunlight
TitleUnicode:Sail on Sunlight
Artist:Daisuke Achiwa
ArtistUnicode:阿知波大輔
Creator:Mocaotic
Version:Expert
Source:ソフィーのアトリエ2 ~不思議な夢の錬金術士~
Tags:Sophie no Atelier 2 ~Fushigi na Yume Renkinjutsushi~ The Alchemist of Mysterious Dream ソフィー・ノイエンミュラー Neuenmuller ラミゼル・エルレンマイヤー Ramizel Erlenmeyer エルヴィーラ Elvira instrumental video game videogame vgm battle theme ost original official soundtrack folk
BeatmapID:4520344
BeatmapSetID:2146064

[Difficulty]
HPDrainRate:6
CircleSize:4
OverallDifficulty:8.6
ApproachRate:9.3
SliderMultiplier:1.92
SliderTickRate:1

[Events]
//Background and Video events
0,0,"sophie.png",0,0
//Break Periods
//Storyboard Layer 0 (Background)
//Storyboard Layer 1 (Fail)
//Storyboard Layer 2 (Pass)
//Storyboard Layer 3 (Foreground)
//Storyboard Layer 4 (Overlay)
//Storyboard Sound Samples

[TimingPoints]
1681,300,4,2,2,86,1,0
1681,-83.3333333333333,4,2,2,86,0,0
1981,-100,4,2,2,86,0,0
3181,-83.3333333333333,4,2,2,86,0,0
3481,-100,4,2,2,86,0,0
6481,-83.3333333333333,4,2,2,86,0,0
6781,-100,4,2,2,86,0,0
8281,-83.3333333333333,4,2,2,86,0,0
8581,-100,4,2,2,86,0,0
8881,-83.3333333333333,4,2,2,86,0,0
9031,-83.3333333333333,4,2,2,86,0,0
9931,-250,4,2,2,86,0,0
11281,-250,4,2,2,30,0,0
11506,-250,4,2,2,40,0,0
11881,-250,4,2,2,50,0,0
12181,-250,4,2,2,60,0,0
12481,-125,4,2,2,40,0,0
22081,-111.111111111111,4,2,2,60,0,0
28531,-90.9090909090909,4,2,2,60,0,0
28681,-111.111111111111,4,2,2,60,0,0
30331,-111.111111111111,4,2,2,60,0,0
31681,-125,4,2,2,50,0,0
41281,-111.111111111111,4,2,2,60,0,0
43081,-100,4,2,2,70,0,0
43681,-76.9230769230769,4,2,2,86,0,1
43981,-90.9090909090909,4,2,2,86,0,1
45481,-83.3333333333333,4,2,2,86,0,1
45781,-90.9090909090909,4,2,2,86,0,1
47131,-100,4,2,2,86,0,1
48181,-71.4285714285714,4,2,2,86,0,1
48481,-76.9230769230769,4,2,2,86,0,1
48781,-90.9090909090909,4,2,2,86,0,1
51181,-83.3333333333333,4,2,2,86,0,1
51331,-76.9230769230769,4,2,2,86,0,1
52381,-76.9230769230769,4,2,2,50,0,1
52681,-76.9230769230769,4,2,2,60,0,1
52981,-76.9230769230769,4,2,2,70,0,1
53281,-90.9090909090909,4,2,2,86,0,1
55381,-100,4,2,2,86,0,1
55681,-90.9090909090909,4,2,2,86,0,1
57181,-90.9090909090909,4,2,2,86,0,1
61681,-90.9090909090909,4,2,2,86,0,0
61981,-181.818181818182,4,2,2,60,0,0
62881,-83.3333333333333,4,2,2,70,0,0
63181,-111.111111111111,4,2,2,70,0,0
65281,-111.111111111111,4,2,2,60,0,0
67381,-125,4,2,2,60,0,0
67681,-83.3333333333333,4,2,2,50,0,0
67981,-111.111111111111,4,2,2,50,0,0
70081,-111.111111111111,4,2,2,35,0,0
70981,-142.857142857143,4,2,2,35,0,0
71131,-142.857142857143,4,2,2,20,0,0
73681,-142.857142857143,4,2,2,10,0,0

[Colours]
Combo1 : 255,128,153
Combo2 : 255,170,221

[HitObjects]
507,299,1081,5,2,0:0:0:0:
507,299,1381,1,2,0:0:0:0:
507,299,1681,6,0,B|485:312|477:332|477:332|330:358,1,172.799994726563,6|0,3:2|0:0,0:0:0:0:
280,384,1981,2,0,P|224:363|202:299,1,96,8|0,0:0|0:0,0:0:0:0:
404,148,2281,1,2,0:0:0:0:
281,299,2431,1,2,3:2:0:0:
103,215,2581,1,10,0:0:0:0:
274,9,2731,6,0,P|259:112|245:217,1,192,2|0,3:2|3:0,0:0:0:0:
112,336,3181,2,0,B|37:349|13:271|70:280|67:310,1,115.199996484375,10|0,0:0|0:0,0:0:0:0:
325,232,3481,2,0,P|396:258|408:287,1,96,2|0,3:2|3:0,0:0:0:0:
213,384,3781,2,0,P|204:319|191:257,1,96,10|0,0:0|0:0,0:0:0:0:
13,116,4081,6,0,P|46:166|187:176,1,192,2|10,3:2|0:0,0:0:0:0:
435,171,4531,2,0,P|367:129|332:133,1,96,2|0,0:0|0:0,0:0:0:0:
168,185,4831,1,2,3:2:0:0:
361,213,4981,1,10,0:0:0:0:
237,27,5131,6,0,B|239:65|274:91|274:91|257:225,1,192,2|0,3:2|3:0,0:0:0:0:
323,15,5581,1,8,0:0:0:0:
180,131,5731,1,0,0:0:0:0:
357,185,5881,2,0,P|414:173|463:165,1,96,2|0,3:2|3:0,0:0:0:0:
174,125,6181,2,0,P|117:137|68:145,1,96,10|0,0:0|0:0,0:0:0:0:
0,362,6481,6,0,B|33:383|33:383|94:367|208:349,1,172.799994726563,6|0,3:2|0:0,0:0:0:0:
240,369,6781,2,0,P|285:342|303:290,1,96,8|0,0:0|0:0,0:0:0:0:
204,113,7081,1,2,0:0:0:0:
35,220,7231,1,2,3:2:0:0:
222,287,7381,1,10,0:0:0:0:
444,227,7531,6,0,L|243:195,1,192,2|0,3:2|3:0,0:0:0:0:
27,76,7981,2,0,P|67:24|126:19,1,96,10|0,0:0|0:0,0:0:0:0:
202,282,8281,2,0,P|146:323|103:323,1,115.199996484375,2|0,3:2|3:0,0:0:0:0:
0,163,8581,6,0,L|166:135,1,144,10|0,0:0|0:0,0:0:0:0:
219,155,8881,2,0,B|226:124|226:124|212:102,1,57.5999982421876,6|0,3:2|0:0,0:0:0:0:
130,56,9031,5,0,0:0:0:0:
319,120,9181,1,10,0:0:0:0:
165,246,9331,2,0,B|104:261|104:261|30:214,1,115.199996484375,2|0,3:2|3:2,0:0:0:0:
385,81,9631,6,0,P|358:47|322:28,1,57.5999982421876,2|0,3:2|0:0,0:0:0:0:
139,51,9781,2,0,P|173:25|212:16,1,57.5999982421876,2|0,3:2|0:0,0:0:0:0:
275,0,9931,6,0,B|256:51|245:97|341:134|334:199|266:273|163:188|259:110,1,345.6,6|0,3:2|1:0,0:0:0:0:
256,192,11431,12,8,12181,0:0:0:0:
256,192,12481,5,4,3:2:0:0:
487,39,12781,5,2,1:2:0:0:
423,101,12931,1,2,0:0:0:0:
397,15,13081,1,2,0:0:0:0:
508,130,13231,2,0,P|486:199|479:233,1,76.8,2|0,3:2|1:2,0:0:0:0:
512,384,13531,5,2,3:2:0:0:
512,384,13831,2,0,P|474:358|423:356,1,76.8,2|0,3:2|1:2,0:0:0:0:
429,269,14131,2,0,P|387:288|360:332,1,76.8,2|0,0:0|3:2,0:0:0:0:
287,283,14431,2,0,P|282:328|307:374,2,76.8,2|0|0,3:2|1:2|0:0,0:0:0:0:
149,290,14881,6,0,P|190:271|217:227,1,76.8,2|0,3:2|0:0,0:0:0:0:
205,363,15181,1,2,1:2:0:0:
88,384,15331,2,0,P|53:305|-28:260,1,153.6,2|0,0:0|3:2,0:0:0:0:
0,267,15931,6,0,P|-7:226|99:203,1,153.6,2|0,3:2|3:2,0:0:0:0:
160,221,16381,1,0,1:0:0:0:
86,182,16681,5,0,3:2:0:0:
166,216,16831,1,2,3:2:0:0:
233,159,16981,1,0,1:0:0:0:
233,159,17131,2,0,P|241:127|253:93,1,38.4,2|0,0:0|0:0,0:0:0:0:
411,0,17281,6,0,P|394:69|318:79,2,153.6,6|0|0,3:2|1:0|0:0,0:0:0:0:
210,44,18031,1,2,3:2:0:0:
315,76,18181,1,2,1:2:0:0:
204,39,18331,6,0,P|132:49|113:119,1,153.6,2|0,3:2|3:2,0:0:0:0:
1,175,18781,2,0,P|54:189|94:204,1,76.8,2|0,1:2|0:0,0:0:0:0:
180,254,19081,2,0,P|142:264|106:276,1,76.8,2|0,3:2|3:2,0:0:0:0:
74,355,19381,1,2,1:2:0:0:
74,355,19681,6,0,P|47:347|-11:332,1,76.8,2|0,3:2|0:0,0:0:0:0:
159,384,19981,1,2,1:2:0:0:
181,297,20131,2,0,P|146:181|124:123,1,153.6,2|0,0:0|3:2,0:0:0:0:
288,307,20731,2,0,P|326:192|343:133,1,153.6,2|0,3:2|3:2,0:0:0:0:
358,380,21181,2,0,P|385:372|443:357,1,76.8,4|0,0:2|0:0,0:0:0:0:
512,285,21481,5,0,1:0:0:0:
512,285,21556,1,0,1:0:0:0:
512,285,21631,1,0,1:0:0:0:
512,285,21706,1,0,1:0:0:0:
512,285,21781,2,0,P|450:263|423:252,1,76.8,8|0,0:0|0:0,0:0:0:0:
316,192,22081,6,0,P|326:228|341:291,1,86.3999973632813,4|0,3:2|0:0,0:0:0:0:
495,157,22381,1,2,1:2:0:0:
400,128,22531,1,2,0:0:0:0:
424,221,22681,1,2,0:0:0:0:
469,60,22831,6,0,P|424:32|378:28,1,86.3999973632813,2|0,3:2|1:0,0:0:0:0:
210,133,23131,2,0,P|277:200|367:186,1,172.799994726563,2|2,3:2|3:2,0:0:0:0:
321,27,23581,1,0,1:0:0:0:
321,27,23731,6,0,P|312:70|302:131,1,86.3999973632813,2|0,0:0|3:0,0:0:0:0:
434,276,24031,2,0,P|443:233|453:172,1,86.3999973632813,2|0,3:2|1:0,0:0:0:0:
309,126,24331,1,2,0:0:0:0:
309,126,24406,1,2,0:0:0:0:
309,126,24481,6,0,P|221:139|121:155,1,172.799994726563,0|2,3:2|1:2,0:0:0:0:
28,87,24931,2,0,B|14:46|14:46|62:-11,1,86.3999973632813,2|0,0:0|0:0,0:0:0:0:
112,66,25231,1,2,3:2:0:0:
0,206,25381,1,2,1:2:0:0:
152,296,25531,6,0,B|198:224|198:224|156:131,1,172.799994726563,2|0,3:2|3:0,0:0:0:0:
0,206,25981,2,0,P|51:211|93:216,1,86.3999973632813,0|0,1:0|0:0,0:0:0:0:
225,348,26281,2,0,P|182:382|122:373,1,86.3999973632813,0|0,3:0|3:0,0:0:0:0:
51,335,26581,1,2,1:2:0:0:
181,208,26731,1,2,0:0:0:0:
343,294,26881,6,0,P|441:313|537:334,1,172.799994726563,6|2,3:2|1:2,0:0:0:0:
399,151,27331,1,2,0:0:0:0:
399,151,27406,1,2,0:0:0:0:
399,151,27481,1,0,0:0:0:0:
285,193,27631,1,2,3:2:0:0:
434,277,27781,1,2,1:2:0:0:
496,102,27931,6,0,P|427:45|326:74,1,172.799994726563,0|0,3:0|3:0,0:0:0:0:
260,193,28381,1,0,1:0:0:0:
351,209,28531,2,0,P|350:178|333:143,1,52.8000016113282,2|0,0:0|0:0,0:0:0:0:
182,71,28681,2,0,P|219:95|273:92,1,86.3999973632813,2|0,3:2|3:0,0:0:0:0:
426,0,28981,1,2,1:2:0:0:
385,81,29131,1,2,0:0:0:0:
243,14,29281,5,0,3:0:0:0:
485,86,29431,1,0,1:0:0:0:
485,86,29506,1,0,1:0:0:0:
485,86,29581,1,0,1:0:0:0:
291,227,29731,1,0,3:0:0:0:
355,112,29881,5,0,3:0:0:0:
466,318,30031,2,0,P|422:325|345:339,1,86.3999973632813,2|0,1:2|0:0,0:0:0:0:
97,185,30331,6,0,P|199:124|273:158,1,172.799994726563,2|2,1:2|0:0,0:0:0:0:
310,375,30781,2,0,P|258:377|212:342,1,86.3999973632813,0|0,1:0|3:0,0:0:0:0:
220,355,31006,1,0,3:0:0:0:
214,346,31081,1,2,3:2:0:0:
313,254,31231,1,0,3:0:0:0:
184,214,31381,1,0,3:2:0:0:
237,273,31531,5,0,3:0:0:0:
84,358,31681,2,0,P|18:353|-21:273,2,153.6,6|0|0,3:2|0:0|1:0,0:0:0:0:
196,337,32431,1,2,0:0:0:0:
90,362,32581,1,2,0:0:0:0:
201,342,32731,2,0,P|255:304|252:213,1,153.6,2|0,3:2|3:0,0:0:0:0:
129,131,33181,6,0,P|164:158|208:160,1,76.8,2|0,0:0|3:0,0:0:0:0:
335,92,33481,2,0,P|293:109|269:146,1,76.8,2|0,1:2|3:0,0:0:0:0:
266,289,33781,2,0,P|272:244|252:205,1,76.8,2|0,3:2|0:0,0:0:0:0:
62,258,34081,6,0,B|82:297|119:297|119:297|148:264|216:256,1,153.6,6|2,3:2|0:0,0:0:0:0:
470,166,34531,2,0,B|466:209|431:223|431:223|392:203|326:221,1,153.6,2|0,0:0|0:0,0:0:0:0:
297,384,35131,2,0,P|284:293|257:155,1,230.4,2|0,3:2|3:0,0:0:0:0:
347,31,35881,6,0,P|335:67|324:110,1,76.8,2|0,1:2|3:0,0:0:0:0:
129,90,36181,2,0,P|155:117|183:151,1,76.8,2|0,3:2|3:0,0:0:0:0:
379,170,36481,6,0,P|443:159|477:83,2,153.6,6|0|0,3:2|0:0|1:0,0:0:0:0:
257,144,37231,1,2,0:0:0:0:
373,176,37381,1,2,0:0:0:0:
252,150,37531,2,0,P|188:112|184:38,1,153.6,2|0,3:2|3:0,0:0:0:0:
347,29,37981,6,0,P|327:105|322:128,1,76.8,2|0,0:0|3:0,0:0:0:0:
405,241,38281,2,0,P|348:185|331:170,1,76.8,2|0,1:2|3:0,0:0:0:0:
192,185,38581,2,0,P|267:163|290:156,1,76.8,2|0,3:2|0:0,0:0:0:0:
452,30,38881,6,0,B|421:74|421:74|372:75|318:108,1,153.6,6|2,3:2|0:0,0:0:0:0:
19,118,39331,2,0,B|63:148|63:148|109:132|171:145,1,153.6,2|0,0:0|0:0,0:0:0:0:
251,172,39781,1,2,0:0:0:0:
219,22,39931,2,0,P|253:178|258:204,1,153.6,2|0,3:2|3:0,0:0:0:0:
277,265,40381,1,2,0:0:0:0:
342,200,40531,5,0,3:0:0:0:
342,200,40606,1,0,1:0:0:0:
342,200,40681,1,0,1:2:0:0:
196,236,40831,1,0,1:0:0:0:
301,343,40981,1,0,3:2:0:0:
277,265,41131,5,0,3:0:0:0:
150,363,41281,6,0,P|104:355|39:342,1,86.3999973632813,6|0,3:2|0:0,0:0:0:0:
387,272,41581,2,0,P|433:264|498:251,1,86.3999973632813,0|0,3:0|3:0,0:0:0:0:
471,256,41806,1,0,3:0:0:0:
471,256,41881,1,0,3:0:0:0:
398,173,42031,5,2,3:2:0:0:
247,126,42181,1,2,0:0:0:0:
113,210,42331,2,0,P|63:225|4:239,1,86.3999973632813,2|0,1:2|0:0,0:0:0:0:
398,173,42631,5,0,1:0:0:0:
113,210,42781,1,0,1:0:0:0:
512,220,43081,5,2,0:0:0:0:
0,164,43381,1,2,0:0:0:0:
252,2,43681,6,0,B|286:44|286:44|268:101|259:188,1,187.199991430664,6|0,3:2|0:0,0:0:0:0:
248,357,43981,2,0,P|241:303|231:242,1,105.600003222656,8|0,0:0|0:0,0:0:0:0:
195,65,44281,1,2,0:0:0:0:
3,199,44431,1,2,3:2:0:0:
233,253,44581,1,10,0:0:0:0:
462,179,44731,6,0,P|359:162|247:144,1,211.200006445313,2|0,3:2|3:0,0:0:0:0:
37,40,45181,2,0,P|97:-1|147:6,1,105.600003222656,10|0,0:0|0:0,0:0:0:0:
280,234,45481,2,0,P|207:230|168:192,1,115.199996484375,2|0,3:2|3:0,0:0:0:0:
110,85,45781,1,10,0:0:0:0:
254,148,45931,1,2,0:0:0:0:
254,148,46006,1,2,0:0:0:0:
254,148,46081,5,2,3:2:0:0:
0,217,46231,1,0,0:0:0:0:
99,79,46381,1,10,0:0:0:0:
148,265,46531,6,0,P|231:283|272:294,1,105.600003222656,2|0,0:0|0:0,0:0:0:0:
99,170,46831,5,2,3:2:0:0:
42,313,46981,1,10,0:2:0:0:
195,366,47131,2,0,P|292:374|346:281,1,192,2|0,3:2|3:0,0:0:0:0:
483,138,47581,2,0,P|427:103|373:112,1,96,8|0,0:0|0:0,0:0:0:0:
392,107,47806,1,2,0:0:0:0:
387,113,47881,6,0,P|359:134|324:139,1,48,2|0,3:2|0:0,0:0:0:0:
236,85,48031,2,0,P|247:104|265:120,1,48,0|0,3:0|0:0,0:0:0:0:
427,196,48181,2,0,B|372:192|347:137|347:137|344:195|255:223,1,201.599993847656,10|0,0:2|0:0,0:0:0:0:
294,384,48481,6,0,B|291:358|287:349|287:349|292:324|299:307|299:307|279:281|279:281|271:245|256:174,1,187.199991430664,6|0,3:2|0:0,0:0:0:0:
268,19,48781,2,0,P|256:70|246:122,1,105.600003222656,8|0,0:0|0:0,0:0:0:0:
210,323,49081,5,2,0:0:0:0:
27,189,49231,1,2,3:2:0:0:
246,123,49381,1,10,0:2:0:0:
497,226,49531,6,0,P|396:238|267:257,1,211.200006445313,2|0,3:2|3:0,0:0:0:0:
230,123,49981,5,10,0:0:0:0:
282,261,50131,1,0,0:0:0:0:
309,58,50281,5,2,3:2:0:0:
203,326,50431,1,0,3:0:0:0:
216,5,50581,5,10,0:2:0:0:
296,379,50806,5,2,0:0:0:0:
296,379,50881,2,0,P|218:385|134:325,1,158.400004833985,6|0,3:2|0:0,0:0:0:0:
81,384,51181,2,0,P|66:343|77:307,1,57.5999982421876,10|0,0:0|0:0,0:0:0:0:
0,191,51331,6,0,P|66:148|217:167,1,187.199991430664,2|0,3:2|0:0,0:0:0:0:
246,171,51631,1,2,3:2:0:0:
160,27,51781,6,0,P|182:56|224:74,1,62.3999971435548,10|0,0:0|0:0,0:0:0:0:
319,211,51931,2,0,P|385:220|515:92,1,249.599988574219,6|0,3:2|3:0,0:0:0:0:
512,0,52381,5,0,1:2:0:0:
512,0,52456,1,0,1:0:0:0:
512,0,52531,2,0,P|454:14|424:48,1,62.3999971435548,0|0,1:0|1:0,0:0:0:0:
349,55,52681,5,2,1:2:0:0:
325,97,52756,1,0,1:0:0:0:
330,144,52831,1,0,1:0:0:0:
365,178,52906,1,0,1:0:0:0:
435,185,52981,5,2,1:2:0:0:
493,226,53056,1,0,1:0:0:0:
511,295,53131,1,0,1:0:0:0:
476,358,53206,1,0,1:0:0:0:
409,382,53281,6,0,P|348:371|286:365,1,105.600003222656,6|0,3:2|0:0,0:0:0:0:
139,247,53581,1,10,0:2:0:0:
8,350,53731,2,0,B|111:283|113:396|228:300,1,211.200006445313,2|2,3:2|3:2,0:0:0:0:
426,260,54181,1,10,0:0:0:0:
345,160,54331,6,0,P|324:251|304:367,1,211.200006445313,2|0,3:2|3:0,0:0:0:0:
178,103,54781,2,0,P|169:51|157:0,1,105.600003222656,8|0,0:0|0:0,0:0:0:0:
14,192,55081,5,2,3:2:0:0:
20,198,55381,2,0,B|36:212|49:216|49:216|84:203|132:202,1,96,10|0,0:0|0:0,0:0:0:0:
469,119,55681,6,0,P|398:103|306:173,1,158.400004833985,6|0,3:2|0:0,0:0:0:0:
245,149,55981,2,0,P|252:173|257:199,1,52.8000016113282,10|0,0:0|0:0,0:0:0:0:
123,341,56131,2,0,P|50:338|2:291,1,105.600003222656,2|0,0:0|0:0,0:0:0:0:
158,243,56431,1,2,3:2:0:0:
262,373,56581,1,10,0:0:0:0:
54,132,56731,6,0,P|118:118|260:198,1,211.200006445313,6|0,3:2|0:0,0:0:0:0:
503,295,57181,2,0,P|456:323|389:304,1,105.600003222656,8|0,0:0|0:0,0:0:0:0:
255,175,57481,5,2,3:2:0:0:
399,307,57631,1,0,3:0:0:0:
202,365,57781,1,10,0:2:0:0:
313,279,57931,1,2,0:0:0:0:
313,279,58006,1,2,0:0:0:0:
313,279,58081,6,0,P|303:333|290:388,1,105.600003222656,6|0,3:2|0:0,0:0:0:0:
199,105,58381,2,0,P|209:51|223:-5,1,105.600003222656,8|0,0:0|0:0,0:0:0:0:
316,182,58681,1,0,3:0:0:0:
190,213,58831,1,0,3:0:0:0:
88,131,58981,2,0,P|98:77|112:22,1,105.600003222656,10|0,0:0|0:0,0:0:0:0:
421,251,59281,6,0,P|432:302|441:354,1,105.600003222656,2|0,3:2|0:0,0:0:0:0:
150,205,59581,1,8,0:0:0:0:
362,179,59731,1,2,0:0:0:0:
362,179,59806,1,2,0:0:0:0:
362,179,59881,1,0,3:0:0:0:
273,287,60031,1,0,3:0:0:0:
239,97,60181,1,10,0:0:0:0:
256,192,60331,5,0,0:0:0:0:
321,0,60481,5,6,3:2:0:0:
321,0,60781,5,0,1:0:0:0:
166,73,60931,5,0,1:0:0:0:
381,154,61081,5,0,1:0:0:0:
92,249,61231,5,0,1:0:0:0:
434,323,61381,5,0,1:0:0:0:
264,384,61531,5,0,1:0:0:0:
257,332,61606,1,0,1:0:0:0:
250,280,61681,1,0,3:2:0:0:
250,280,61981,6,0,P|258:332|264:384,2,105.600003222656,2|2|2,0:0|0:0|0:0,0:0:0:0:
0,44,62881,6,0,B|15:105|76:108|76:108|103:78|156:80,1,172.799994726563,6|0,3:2|0:0,0:0:0:0:
208,56,63181,2,0,P|253:67|300:77,2,86.3999973632813,0|0|0,1:0|0:0|0:0,0:0:0:0:
142,160,63631,1,0,3:0:0:0:
103,3,63781,1,0,1:0:0:0:
0,203,63931,6,0,P|80:259|177:231,1,172.799994726563,2|0,3:2|3:0,0:0:0:0:
316,184,64381,2,0,P|252:189|220:221,1,86.3999973632813,0|0,1:0|0:0,0:0:0:0:
200,338,64681,1,0,3:0:0:0:
295,269,64831,1,0,3:0:0:0:
134,164,64981,2,0,P|143:208|150:251,1,86.3999973632813,0|0,1:0|0:0,0:0:0:0:
302,365,65281,6,0,P|394:366|452:294,2,172.799994726563,2|0|0,3:2|1:0|0:0,0:0:0:0:
170,324,66031,1,0,3:0:0:0:
353,283,66181,1,0,1:0:0:0:
164,328,66331,2,0,P|150:255|128:157,1,172.799994726563,0|0,3:0|3:0,0:0:0:0:
370,47,66781,5,2,1:2:0:0:
199,119,66931,1,0,0:0:0:0:
443,153,67081,1,2,3:2:0:0:
258,32,67231,1,0,3:0:0:0:
507,0,67381,2,0,P|493:62|484:114,1,76.8,2|0,1:2|0:0,0:0:0:0:
512,300,67681,6,0,P|452:241|361:256,1,172.799994726563,6|0,3:2|0:0,0:0:0:0:
307,301,67981,2,0,B|277:318|256:321|256:321|235:306|219:305,2,86.3999973632813,0|0|0,1:0|0:0|0:0,0:0:0:0:
424,317,68431,1,0,3:0:0:0:
261,230,68581,1,0,1:0:0:0:
151,354,68731,6,0,P|90:367|19:285,1,172.799994726563,2|0,3:2|3:0,0:0:0:0:
133,197,69181,2,0,P|113:252|103:297,1,86.3999973632813,0|0,1:0|0:0,0:0:0:0:
43,176,69481,1,0,3:0:0:0:
198,128,69631,1,0,3:0:0:0:
0,16,69781,6,0,P|20:71|147:47,1,172.799994726563,0|6,1:0|3:2,0:0:0:0:
122,79,70381,1,0,1:0:0:0:
197,36,70531,1,0,3:0:0:0:
282,49,70681,1,0,3:0:0:0:
341,112,70831,1,0,3:0:0:0:
331,197,70981,2,0,P|307:274|304:286,1,67.1999979492188,0|6,3:0|3:2,0:0:0:0:
256,192,71281,12,6,73681,0:2:0:0:
