osu file format v14

[General]
AudioFilename: audio.mp3
AudioLeadIn: 0
PreviewTime: 43006
Countdown: 0
SampleSet: Soft
StackLeniency: 0.5
Mode: 0
LetterboxInBreaks: 0
WidescreenStoryboard: 1

[Editor]
Bookmarks: 22081,61681
DistanceSpacing: 1
BeatDivisor: 2
GridSize: 32
TimelineZoom: 1.2

[Metadata]
Title:Sail on Sunlight
TitleUnicode:Sail on Sunlight
Artist:Daisuke Achiwa
ArtistUnicode:阿知波大輔
Creator:Mocaotic
Version:Easy
Source:ソフィーのアトリエ2 ~不思議な夢の錬金術士~
Tags:Sophie no Atelier 2 ~Fushigi na Yume Renkinjutsushi~ The Alchemist of Mysterious Dream ソフィー・ノイエンミュラー Neuenmuller ラミゼル・エルレンマイヤー Ramizel Erlenmeyer エルヴィーラ Elvira instrumental video game videogame vgm battle theme ost original official soundtrack folk
BeatmapID:4520855
BeatmapSetID:2146064

[Difficulty]
HPDrainRate:2
CircleSize:3
OverallDifficulty:2
ApproachRate:4
SliderMultiplier:0.849999999999999
SliderTickRate:1

[Events]
//Background and Video events
0,0,"sophie.png",0,0
//Break Periods
//Storyboard Layer 0 (Background)
//Storyboard Layer 1 (Fail)
//Storyboard Layer 2 (Pass)
//Storyboard Layer 3 (Foreground)
//Storyboard Layer 4 (Overlay)
//Storyboard Sound Samples

[TimingPoints]
1681,300,4,2,2,86,1,0
11281,-100,4,2,2,30,0,0
11506,-100,4,2,2,40,0,0
11881,-100,4,2,2,50,0,0
12181,-100,4,2,2,60,0,0
12481,-105.263157894737,4,2,2,40,0,0
22081,-100,4,2,2,60,0,0
31681,-105.263157894737,4,2,2,50,0,0
41281,-105.263157894737,4,2,2,60,0,0
43081,-105.263157894737,4,2,2,70,0,0
43681,-100,4,2,2,86,0,1
52381,-100,4,2,2,50,0,1
52681,-100,4,2,2,60,0,1
52981,-100,4,2,2,70,0,1
53281,-100,4,2,2,86,0,1
61681,-100,4,2,2,86,0,0
61981,-100,4,2,2,60,0,0
62881,-100,4,2,2,70,0,0
65281,-100,4,2,2,60,0,0
67681,-100,4,2,2,50,0,0
70081,-100,4,2,2,35,0,0
71131,-100,4,2,2,20,0,0
73681,-100,4,2,2,10,0,0

[Colours]
Combo1 : 255,128,153
Combo2 : 255,170,221

[HitObjects]
211,323,1681,6,0,L|304:335,1,84.9999999999999,6|8,3:2|0:0,0:0:0:0:
374,364,2281,2,0,L|467:376,1,84.9999999999999,2|10,0:0|0:0,0:0:0:0:
498,362,2731,2,0,P|527:294|499:228,1,127.5,2|10,3:2|0:0,0:0:0:0:
449,187,3481,1,2,3:2:0:0:
368,213,3781,1,10,0:0:0:0:
303,157,4081,6,0,P|289:95|317:40,1,127.5,2|2,3:2|0:0,0:0:0:0:
399,15,4831,1,2,3:2:0:0:
463,70,5131,2,0,P|476:131|448:186,1,127.5,2|8,3:2|0:0,0:0:0:0:
368,213,5881,1,2,3:2:0:0:
396,293,6181,1,10,0:0:0:0:
320,332,6481,6,0,L|227:344,1,84.9999999999999,6|8,3:2|0:0,0:0:0:0:
157,310,7081,2,0,L|64:322,1,84.9999999999999,2|10,0:0|0:0,0:0:0:0:
33,303,7531,2,0,P|5:236|35:170,1,127.5,2|10,3:2|0:0,0:0:0:0:
84,130,8281,1,2,3:2:0:0:
163,159,8581,1,10,0:0:0:0:
229,106,8881,6,0,P|235:62|215:24,1,84.9999999999999,6|10,3:2|0:0,0:0:0:0:
181,3,9331,2,0,L|72:17,1,84.9999999999999,2|2,3:2|3:2,0:0:0:0:
12,25,9931,1,6,3:2:0:0:
12,25,12481,6,0,L|-14:241,1,201.874994609356,4|2,3:2|3:2,0:0:0:0:
20,299,13531,2,0,P|56:315|98:307,1,80.7499978437423,2|2,3:2|3:2,0:0:0:0:
167,267,14131,1,2,0:0:0:0:
167,267,14431,2,0,P|238:263|295:318,1,121.124996765614,2|2,3:2|3:2,0:0:0:0:
323,355,15181,2,0,L|458:338,1,121.124996765614,2|0,1:2|3:2,0:0:0:0:
509,293,15931,1,2,3:2:0:0:
509,293,16981,5,0,1:0:0:0:
464,225,17281,2,0,P|377:165|276:210,1,201.874994609356,6|2,3:2|3:2,0:0:0:0:
225,237,18331,2,0,L|77:257,1,121.124996765614,2|2,3:2|1:2,0:0:0:0:
35,212,19081,1,2,3:2:0:0:
72,140,19381,1,2,1:2:0:0:
6,93,19681,6,0,P|59:60|120:74,1,121.124996765614,2|2,3:2|0:0,0:0:0:0:
194,101,20431,1,0,3:2:0:0:
194,101,20731,2,0,L|329:87,1,121.124996765614,2|4,3:2|0:2,0:0:0:0:
376,36,21481,2,0,B|417:26|417:26|462:59,1,80.7499978437423,0|0,1:0|0:0,0:0:0:0:
512,103,22081,1,4,3:2:0:0:
455,165,22381,6,0,L|435:299,1,127.5,2|2,1:2|3:2,0:0:0:0:
375,348,23131,2,0,L|276:362,1,84.9999999999999,2|2,3:2|3:2,0:0:0:0:
213,324,23731,2,0,L|114:338,1,84.9999999999999,2|2,0:0|3:2,0:0:0:0:
53,296,24331,2,0,P|11:218|64:133,1,170,2|2,0:0|0:0,0:0:0:0:
110,99,25231,1,2,3:2:0:0:
180,147,25531,2,0,L|402:176,1,212.5,2|0,3:2|3:0,0:0:0:0:
462,220,26581,1,2,1:2:0:0:
510,150,26881,6,0,P|519:87|472:36,1,127.5,6|2,3:2|0:0,0:0:0:0:
359,1,27781,2,0,L|185:18,1,170,2|0,1:2|1:0,0:0:0:0:
106,1,28681,1,2,3:2:0:0:
56,69,28981,1,2,1:2:0:0:
113,132,29281,6,0,B|132:172|132:172|90:233,1,84.9999999999999,0|0,3:0|1:0,0:0:0:0:
22,299,30031,1,2,1:2:0:0:
78,362,30331,2,0,B|129:355|129:355|150:367|150:367|224:357,1,127.5,2|0,1:2|1:0,0:0:0:0:
282,333,31081,1,2,3:2:0:0:
351,381,31381,1,2,3:2:0:0:
431,348,31681,6,0,P|482:282|427:165,1,201.874994609356,6|2,3:2|0:0,0:0:0:0:
369,154,32731,2,0,L|237:178,1,121.124996765614,2|2,3:2|0:0,0:0:0:0:
172,149,33481,2,0,L|83:166,1,80.7499978437423,2|2,1:2|3:2,0:0:0:0:
19,130,34081,2,0,P|7:63|43:20,1,121.124996765614,6|2,3:2|0:0,0:0:0:0:
36,23,35881,1,2,1:2:0:0:
99,72,36181,1,2,3:2:0:0:
50,136,36481,6,0,L|78:358,1,201.874994609356,6|2,3:2|0:0,0:0:0:0:
146,374,37531,2,0,P|221:380|264:356,1,121.124996765614,2|2,3:2|0:0,0:0:0:0:
303,291,38281,2,0,L|289:186,1,80.7499978437423,2|2,1:2|3:2,0:0:0:0:
344,149,38881,2,0,P|398:125|457:134,1,121.124996765614,6|2,3:2|0:0,0:0:0:0:
457,134,40681,1,0,1:2:0:0:
508,196,40981,1,0,3:2:0:0:
443,244,41281,6,0,P|337:265|258:193,1,201.874994609356,6|2,3:2|3:2,0:0:0:0:
233,138,42331,2,0,L|98:160,1,121.124996765614,0|0,1:0|1:0,0:0:0:0:
4,382,43681,6,0,L|104:366,1,84.9999999999999,6|8,3:2|0:0,0:0:0:0:
171,383,44281,2,0,L|271:367,1,84.9999999999999,2|10,0:0|0:0,0:0:0:0:
289,345,44731,2,0,P|302:267|262:220,1,127.5,2|10,3:2|0:0,0:0:0:0:
198,195,45481,1,2,3:2:0:0:
132,248,45781,1,10,0:0:0:0:
53,216,46081,6,0,P|23:160|40:101,1,127.5,2|2,3:2|0:0,0:0:0:0:
97,37,46831,1,2,3:2:0:0:
174,71,47131,2,0,B|329:45,1,127.5,2|8,3:2|0:0,0:0:0:0:
373,7,47881,1,2,3:2:0:0:
444,52,48181,1,10,0:2:0:0:
403,126,48481,6,0,B|279:146,1,84.9999999999999,6|8,3:2|0:0,0:0:0:0:
238,114,49081,2,0,B|114:134,1,84.9999999999999,2|10,0:0|0:2,0:0:0:0:
123,157,49531,2,0,P|112:238|165:289,1,127.5,2|10,3:2|0:0,0:0:0:0:
199,329,50281,1,2,3:2:0:0:
277,295,50581,1,10,0:2:0:0:
336,355,50881,6,0,B|459:334,1,84.9999999999999,6|10,3:2|0:0,0:0:0:0:
446,307,51331,2,0,P|449:247|422:215,1,84.9999999999999,2|2,3:2|3:2,0:0:0:0:
366,179,51931,2,0,P|343:135|373:46,1,127.5,6|0,3:2|1:2,0:0:0:0:
419,2,52681,1,2,1:2:0:0:
496,37,52981,1,2,1:2:0:0:
475,119,53281,6,0,L|487:215,1,84.9999999999999,6|10,3:2|0:2,0:0:0:0:
461,237,53731,2,0,L|473:333,1,84.9999999999999,2|2,3:2|3:2,0:0:0:0:
409,379,54331,2,0,L|248:358,1,127.5,2|8,3:2|0:0,0:0:0:0:
204,329,55081,1,2,3:2:0:0:
136,380,55381,1,10,0:0:0:0:
59,343,55681,6,0,L|71:246,1,84.9999999999999,6|10,3:2|0:0,0:0:0:0:
45,224,56131,2,0,L|57:127,1,84.9999999999999,2|2,0:0|3:2,0:0:0:0:
110,74,56731,2,0,P|170:41|236:61,1,127.5,6|8,3:2|0:0,0:0:0:0:
292,104,57481,1,2,3:2:0:0:
353,44,57781,1,10,0:2:0:0:
427,85,58081,6,0,L|519:72,2,84.9999999999999,6|8|0,3:2|0:0|3:0,0:0:0:0:
366,145,58981,1,10,0:0:0:0:
292,104,59281,2,0,L|200:117,1,84.9999999999999,2|8,3:2|0:0,0:0:0:0:
171,93,59731,2,0,L|20:113,1,127.5,2|10,0:0|0:0,0:0:0:0:
1,183,60481,5,6,3:2:0:0:
52,253,60781,1,0,1:0:0:0:
136,241,61081,1,0,1:0:0:0:
197,299,61381,1,0,1:0:0:0:
156,373,61681,1,0,3:2:0:0:
156,373,62881,6,0,L|138:252,1,84.9999999999999,6|0,3:2|1:0,0:0:0:0:
128,205,63481,2,0,P|67:194|4:244,2,127.5,2|2|0,0:0|3:2|1:0,0:0:0:0:
167,131,64681,1,0,3:0:0:0:
167,131,64981,1,0,1:0:0:0:
250,148,65281,6,0,L|268:269,1,84.9999999999999,2|0,3:2|1:0,0:0:0:0:
321,293,65881,2,0,P|380:309|440:275,2,127.5,2|0|2,0:0|3:0|1:2,0:0:0:0:
269,360,67081,1,2,3:2:0:0:
194,320,67381,1,2,1:2:0:0:
137,383,67681,6,0,L|18:370,1,84.9999999999999,6|0,3:2|1:0,0:0:0:0:
1,305,68281,2,0,P|-5:230|48:172,1,127.5,2|2,0:0|3:2,0:0:0:0:
140,140,69181,2,0,L|224:149,1,84.9999999999999,0|0,1:0|3:0,0:0:0:0:
292,199,69781,1,0,1:0:0:0:
368,161,70081,2,0,P|361:72|184:58,1,297.5,6|6,3:2|3:2,0:0:0:0:
256,192,71281,12,6,73681,0:2:0:0:
