osu file format v14

[General]
AudioFilename: audio.mp3
AudioLeadIn: 0
PreviewTime: 17638
Countdown: 0
SampleSet: Normal
StackLeniency: 0.3
Mode: 1
LetterboxInBreaks: 0
WidescreenStoryboard: 1

[Editor]
Bookmarks: 3100,10484,17869,47407,76946,106484,136023,165561,195100
DistanceSpacing: 0.1
BeatDivisor: 4
GridSize: 32
TimelineZoom: 1.5

[Metadata]
Title:BASARA
TitleUnicode:BASARA
Artist:Daisuke Achiwa
ArtistUnicode:Daisuke Achiwa
Creator:Firmatorenio
Version:Inner Oni
Source:Ar tonelico II
Tags:2
BeatmapID:1497218
BeatmapSetID:708147

[Difficulty]
HPDrainRate:5
CircleSize:2
OverallDifficulty:6
ApproachRate:4
SliderMultiplier:1.4
SliderTickRate:2

[Events]
//Background and Video events
0,0,"basara.jpg",0,0
//Break Periods
//Storyboard Layer 0 (Background)
//Storyboard Layer 1 (Fail)
//Storyboard Layer 2 (Pass)
//Storyboard Layer 3 (Foreground)
//Storyboard Sound Samples

[TimingPoints]
3100,461.538461538462,4,1,0,80,1,0
10484,-83.3333333333333,4,1,0,80,0,0
14176,-82.6446280991736,4,1,0,80,0,0
14292,-81.9672131147541,4,1,0,80,0,0
14407,-81.3008130081301,4,1,0,80,0,0
14523,-80.6451612903226,4,1,0,80,0,0
14638,-80,4,1,0,80,0,0
14753,-79.3650793650794,4,1,0,80,0,0
14869,-78.7401574803149,4,1,0,80,0,0
14984,-78.125,4,1,0,80,0,0
15100,-76.9230769230769,4,1,0,80,0,0
15215,-76.3358778625954,4,1,0,80,0,0
15330,-75.7575757575758,4,1,0,80,0,0
15446,-75.187969924812,4,1,0,80,0,0
15561,-74.0740740740741,4,1,0,80,0,0
15676,-73.5294117647059,4,1,0,80,0,0
15792,-72.992700729927,4,1,0,80,0,0
15907,-72.463768115942,4,1,0,80,0,0
16023,-71.4285714285714,4,1,0,80,0,0
16138,-70.9219858156028,4,1,0,80,0,0
16253,-70.4225352112676,4,1,0,80,0,0
16369,-69.9300699300699,4,1,0,80,0,0
16484,-68.9655172413793,4,1,0,80,0,0
16600,-68.4931506849315,4,1,0,80,0,0
16715,-68.0272108843537,4,1,0,80,0,0
16830,-67.5675675675676,4,1,0,80,0,0
16946,-66.6666666666667,4,1,0,80,0,0
17061,-66.2251655629139,4,1,0,80,0,0
17176,-65.7894736842105,4,1,0,80,0,0
17292,-65.359477124183,4,1,0,80,0,0
17407,-64.5161290322581,4,1,0,80,0,0
17523,-64.1025641025641,4,1,0,80,0,0
17638,-63.6942675159236,4,1,0,80,0,0
17715,-63.2911392405063,4,1,0,80,0,0
17792,-62.8930817610063,4,1,0,80,0,0
17869,-71.4285714285714,4,1,0,80,0,1
30792,-66.6666666666667,4,1,0,80,0,1
31023,-71.4285714285714,4,1,0,80,0,1
31253,-76.9230769230769,4,1,0,80,0,1
31484,-83.3333333333333,4,1,0,80,0,1
31715,-90.9090909090909,4,1,0,80,0,1
31946,-100,4,1,0,80,0,1
32176,-111.111111111111,4,1,0,80,0,1
32407,-125,4,1,0,80,0,1
32638,-71.4285714285714,4,1,0,80,0,1
46600,-72.463768115942,4,1,0,80,0,1
46715,-74.0740740740741,4,1,0,80,0,1
46830,-75.187969924812,4,1,0,80,0,1
46946,-76.9230769230769,4,1,0,80,0,1
47023,-78.125,4,1,0,80,0,1
47100,-78.7401574803149,4,1,0,80,0,1
47176,-80,4,1,0,80,0,1
47292,-81.9672131147541,4,1,0,80,0,1
47407,-83.3333333333333,4,1,0,80,0,0
104638,-66.6666666666667,4,1,0,80,0,0
104869,-71.4285714285714,4,1,0,80,0,0
105100,-76.9230769230769,4,1,0,80,0,0
105330,-83.3333333333333,4,1,0,80,0,0
105561,-90.9090909090909,4,1,0,80,0,0
105792,-100,4,1,0,80,0,0
105907,-105.263157894737,4,1,0,80,0,0
106023,-111.111111111111,4,1,0,80,0,0
106138,-117.647058823529,4,1,0,80,0,0
106253,-125,4,1,0,80,0,0
106484,-71.4285714285714,4,1,0,80,0,1
135792,-75.187969924812,4,1,0,80,0,1
135907,-79.3650793650794,4,1,0,80,0,1
136023,-83.3333333333333,4,1,0,80,0,0
148946,-71.4285714285714,4,1,0,80,0,0
149176,-62.5,4,1,0,80,0,0
149407,-55.5555555555556,4,1,0,80,0,0
149638,-50,4,1,0,80,0,0
149869,-83.3333333333333,4,1,0,80,0,0
164869,-81.9672131147541,4,1,0,80,0,0
164946,-80.6451612903226,4,1,0,80,0,0
165023,-79.3650793650794,4,1,0,80,0,0
165100,-78.125,4,1,0,80,0,0
165176,-76.9230769230769,4,1,0,80,0,0
165253,-75.7575757575758,4,1,0,80,0,0
165330,-74.6268656716418,4,1,0,80,0,0
165407,-73.5294117647059,4,1,0,80,0,0
165484,-72.463768115942,4,1,0,80,0,0
165561,-71.4285714285714,4,1,0,80,0,1
178484,-66.6666666666667,4,1,0,80,0,1
178715,-71.4285714285714,4,1,0,80,0,1
178946,-76.9230769230769,4,1,0,80,0,1
179176,-83.3333333333333,4,1,0,80,0,1
179407,-90.9090909090909,4,1,0,80,0,1
179523,-95.2380952380952,4,1,0,80,0,1
179638,-100,4,1,0,80,0,1
179869,-111.111111111111,4,1,0,80,0,1
179984,-117.647058823529,4,1,0,80,0,1
180100,-125,4,1,0,80,0,1
180215,-133.333333333333,4,1,0,80,0,1
180330,-71.4285714285714,4,1,0,80,0,1
194753,-74.0740740740741,4,1,0,80,0,1
194869,-76.9230769230769,4,1,0,80,0,1
194984,-80,4,1,0,80,0,1
195100,-83.3333333333333,4,1,0,80,0,0
197176,-100,4,1,0,80,0,0

[HitObjects]
256,192,3100,5,0,0:0:0:0:
256,192,3330,1,0,0:0:0:0:
256,192,3446,1,0,0:0:0:0:
256,192,3561,1,2,0:0:0:0:
256,192,3792,1,0,0:0:0:0:
256,192,3907,1,0,0:0:0:0:
256,192,4023,1,2,0:0:0:0:
256,192,4138,1,2,0:0:0:0:
256,192,4253,1,0,0:0:0:0:
256,192,4369,1,2,0:0:0:0:
256,192,4484,1,0,0:0:0:0:
256,192,4715,1,0,0:0:0:0:
256,192,4946,1,0,0:0:0:0:
256,192,5176,1,0,0:0:0:0:
256,192,5292,1,0,0:0:0:0:
256,192,5407,1,2,0:0:0:0:
256,192,5638,1,0,0:0:0:0:
256,192,5753,1,2,0:0:0:0:
256,192,5869,1,2,0:0:0:0:
256,192,5984,1,2,0:0:0:0:
256,192,6100,1,0,0:0:0:0:
256,192,6215,1,2,0:0:0:0:
256,192,6330,1,0,0:0:0:0:
256,192,6446,1,0,0:0:0:0:
256,192,6561,1,2,0:0:0:0:
256,192,6792,1,2,0:0:0:0:
256,192,6907,1,0,0:0:0:0:
256,192,7023,1,0,0:0:0:0:
256,192,7138,1,2,0:0:0:0:
256,192,7253,1,0,0:0:0:0:
256,192,7484,1,0,0:0:0:0:
256,192,7600,1,2,0:0:0:0:
256,192,7715,1,0,0:0:0:0:
256,192,7946,1,0,0:0:0:0:
256,192,8061,1,2,0:0:0:0:
256,192,8176,1,0,0:0:0:0:
256,192,8292,1,0,0:0:0:0:
256,192,8407,1,2,0:0:0:0:
256,192,8638,1,0,0:0:0:0:
256,192,8869,1,0,0:0:0:0:
256,192,8984,1,0,0:0:0:0:
256,192,9100,1,2,0:0:0:0:
256,192,9215,1,2,0:0:0:0:
256,192,9330,1,0,0:0:0:0:
256,192,9561,1,2,0:0:0:0:
256,192,9676,1,2,0:0:0:0:
256,192,9792,1,0,0:0:0:0:
256,192,9907,1,2,0:0:0:0:
256,192,10023,1,2,0:0:0:0:
256,192,10253,1,2,0:0:0:0:
256,192,10484,1,4,0:0:0:0:
256,192,10715,1,2,0:0:0:0:
256,192,10830,1,2,0:0:0:0:
256,192,10946,1,0,0:0:0:0:
256,192,11176,1,2,0:0:0:0:
256,192,11407,1,0,0:0:0:0:
256,192,11523,1,0,0:0:0:0:
256,192,11638,1,2,0:0:0:0:
256,192,11869,1,0,0:0:0:0:
256,192,12100,1,2,0:0:0:0:
256,192,12330,1,0,0:0:0:0:
256,192,12561,1,2,0:0:0:0:
256,192,12676,1,2,0:0:0:0:
256,192,12792,1,0,0:0:0:0:
256,192,13023,1,2,0:0:0:0:
256,192,13253,1,0,0:0:0:0:
256,192,13484,1,2,0:0:0:0:
256,192,13600,1,2,0:0:0:0:
256,192,13715,1,0,0:0:0:0:
256,192,13946,1,2,0:0:0:0:
256,192,14176,1,0,0:0:0:0:
256,192,14292,1,0,0:0:0:0:
256,192,14407,1,2,0:0:0:0:
256,192,14523,1,2,0:0:0:0:
256,192,14638,1,0,0:0:0:0:
256,192,14753,1,0,0:0:0:0:
256,192,14869,1,2,0:0:0:0:
256,192,14984,1,2,0:0:0:0:
256,192,15100,1,0,0:0:0:0:
256,192,15215,1,0,0:0:0:0:
256,192,15330,1,2,0:0:0:0:
256,192,15446,1,2,0:0:0:0:
256,192,15561,1,0,0:0:0:0:
256,192,15676,1,0,0:0:0:0:
256,192,15792,1,2,0:0:0:0:
256,192,15907,1,2,0:0:0:0:
256,192,16023,1,0,0:0:0:0:
256,192,16138,1,2,0:0:0:0:
256,192,16253,1,2,0:0:0:0:
256,192,16369,1,2,0:0:0:0:
256,192,16484,1,0,0:0:0:0:
256,192,16600,1,2,0:0:0:0:
256,192,16715,1,2,0:0:0:0:
256,192,16830,1,2,0:0:0:0:
256,192,16946,1,0,0:0:0:0:
256,192,17061,1,0,0:0:0:0:
256,192,17176,1,2,0:0:0:0:
256,192,17292,1,2,0:0:0:0:
256,192,17407,1,2,0:0:0:0:
256,192,17523,1,0,0:0:0:0:
256,192,17638,1,2,0:0:0:0:
256,192,17715,1,2,0:0:0:0:
256,192,17792,1,2,0:0:0:0:
256,192,17869,1,4,0:0:0:0:
256,192,18100,1,0,0:0:0:0:
256,192,18215,1,0,0:0:0:0:
256,192,18330,1,2,0:0:0:0:
256,192,18446,1,2,0:0:0:0:
256,192,18561,1,0,0:0:0:0:
256,192,18676,1,0,0:0:0:0:
256,192,18792,1,2,0:0:0:0:
256,192,18869,1,2,0:0:0:0:
256,192,18946,1,2,0:0:0:0:
256,192,19023,1,0,0:0:0:0:
256,192,19138,1,2,0:0:0:0:
256,192,19253,1,0,0:0:0:0:
256,192,19484,1,0,0:0:0:0:
256,192,19715,1,0,0:0:0:0:
256,192,19946,1,0,0:0:0:0:
256,192,20061,1,0,0:0:0:0:
256,192,20176,1,2,0:0:0:0:
256,192,20253,1,0,0:0:0:0:
256,192,20330,1,0,0:0:0:0:
256,192,20407,1,2,0:0:0:0:
256,192,20523,1,2,0:0:0:0:
256,192,20638,1,0,0:0:0:0:
256,192,20753,1,0,0:0:0:0:
256,192,20869,1,2,0:0:0:0:
256,192,20984,1,0,0:0:0:0:
256,192,21100,1,2,0:0:0:0:
256,192,21215,1,2,0:0:0:0:
256,192,21330,1,0,0:0:0:0:
256,192,21446,1,2,0:0:0:0:
256,192,21561,1,0,0:0:0:0:
256,192,21638,1,2,0:0:0:0:
256,192,21715,1,2,0:0:0:0:
256,192,21792,1,0,0:0:0:0:
256,192,21907,1,2,0:0:0:0:
256,192,22023,1,0,0:0:0:0:
256,192,22253,1,2,0:0:0:0:
256,192,22484,1,0,0:0:0:0:
256,192,22715,1,2,0:0:0:0:
256,192,22830,1,0,0:0:0:0:
256,192,22946,1,0,0:0:0:0:
256,192,23061,1,0,0:0:0:0:
256,192,23176,1,2,0:0:0:0:
256,192,23407,1,0,0:0:0:0:
256,192,23523,1,2,0:0:0:0:
256,192,23638,1,0,0:0:0:0:
256,192,23753,1,0,0:0:0:0:
256,192,23869,1,2,0:0:0:0:
256,192,23984,1,2,0:0:0:0:
256,192,24100,1,0,0:0:0:0:
256,192,24330,1,2,0:0:0:0:
256,192,24446,1,0,0:0:0:0:
256,192,24561,1,0,0:0:0:0:
256,192,24676,1,2,0:0:0:0:
256,192,24792,1,0,0:0:0:0:
256,192,25023,1,2,0:0:0:0:
256,192,25253,1,4,0:0:0:0:
256,192,25484,1,2,0:0:0:0:
256,192,25600,1,2,0:0:0:0:
256,192,25715,1,0,0:0:0:0:
256,192,25946,1,2,0:0:0:0:
256,192,26061,1,0,0:0:0:0:
256,192,26176,1,0,0:0:0:0:
256,192,26407,1,2,0:0:0:0:
256,192,26638,1,0,0:0:0:0:
256,192,26869,1,2,0:0:0:0:
256,192,27100,1,0,0:0:0:0:
256,192,27215,1,0,0:0:0:0:
256,192,27330,1,2,0:0:0:0:
256,192,27446,1,2,0:0:0:0:
256,192,27561,1,0,0:0:0:0:
256,192,27792,1,2,0:0:0:0:
256,192,27907,1,2,0:0:0:0:
256,192,28023,1,0,0:0:0:0:
256,192,28253,1,2,0:0:0:0:
256,192,28484,1,0,0:0:0:0:
256,192,28600,1,0,0:0:0:0:
256,192,28715,1,2,0:0:0:0:
256,192,28830,1,0,0:0:0:0:
256,192,28946,1,0,0:0:0:0:
256,192,29176,1,0,0:0:0:0:
256,192,29407,1,2,0:0:0:0:
256,192,29638,1,2,0:0:0:0:
256,192,29715,1,2,0:0:0:0:
256,192,29792,1,2,0:0:0:0:
256,192,29869,1,0,0:0:0:0:
256,192,30100,1,2,0:0:0:0:
256,192,30330,1,0,0:0:0:0:
256,192,30561,1,0,0:0:0:0:
256,192,30792,1,2,0:0:0:0:
256,192,31023,1,2,0:0:0:0:
256,192,31253,1,2,0:0:0:0:
256,192,31484,1,2,0:0:0:0:
256,192,31715,1,0,0:0:0:0:
256,192,31946,1,0,0:0:0:0:
256,192,32176,1,0,0:0:0:0:
256,192,32407,1,0,0:0:0:0:
256,192,32638,1,4,0:0:0:0:
256,192,32869,1,2,0:0:0:0:
256,192,32984,1,0,0:0:0:0:
256,192,33100,1,2,0:0:0:0:
256,192,33176,1,2,0:0:0:0:
256,192,33253,1,2,0:0:0:0:
256,192,33330,1,0,0:0:0:0:
256,192,33446,1,0,0:0:0:0:
256,192,33561,1,2,0:0:0:0:
256,192,33638,1,0,0:0:0:0:
256,192,33715,1,0,0:0:0:0:
256,192,33792,1,2,0:0:0:0:
256,192,33907,1,2,0:0:0:0:
256,192,34023,1,0,0:0:0:0:
256,192,34253,1,0,0:0:0:0:
256,192,34484,1,0,0:0:0:0:
256,192,34715,1,0,0:0:0:0:
256,192,34830,1,0,0:0:0:0:
256,192,34946,1,2,0:0:0:0:
256,192,35061,1,2,0:0:0:0:
256,192,35176,1,0,0:0:0:0:
256,192,35292,1,0,0:0:0:0:
256,192,35407,1,2,0:0:0:0:
256,192,35523,1,0,0:0:0:0:
256,192,35638,1,2,0:0:0:0:
256,192,35715,1,2,0:0:0:0:
256,192,35792,1,2,0:0:0:0:
256,192,35869,1,0,0:0:0:0:
256,192,35984,1,0,0:0:0:0:
256,192,36100,1,2,0:0:0:0:
256,192,36215,1,2,0:0:0:0:
256,192,36330,1,0,0:0:0:0:
256,192,36407,1,0,0:0:0:0:
256,192,36484,1,0,0:0:0:0:
256,192,36561,1,2,0:0:0:0:
256,192,36676,1,2,0:0:0:0:
256,192,36792,1,0,0:0:0:0:
256,192,37023,1,2,0:0:0:0:
256,192,37253,1,0,0:0:0:0:
256,192,37484,1,2,0:0:0:0:
256,192,37600,1,2,0:0:0:0:
256,192,37715,1,0,0:0:0:0:
256,192,37830,1,0,0:0:0:0:
256,192,37946,1,2,0:0:0:0:
256,192,38176,1,0,0:0:0:0:
256,192,38407,1,2,0:0:0:0:
256,192,38523,1,0,0:0:0:0:
256,192,38638,1,2,0:0:0:0:
256,192,38753,1,2,0:0:0:0:
256,192,38869,1,0,0:0:0:0:
256,192,39100,1,2,0:0:0:0:
256,192,39176,1,2,0:0:0:0:
256,192,39253,1,0,0:0:0:0:
256,192,39330,1,2,0:0:0:0:
256,192,39446,1,2,0:0:0:0:
256,192,39561,1,0,0:0:0:0:
256,192,39792,1,2,0:0:0:0:
256,192,40023,1,4,0:0:0:0:
256,192,40253,1,0,0:0:0:0:
256,192,40369,1,0,0:0:0:0:
256,192,40484,1,2,0:0:0:0:
256,192,40715,1,0,0:0:0:0:
256,192,40946,1,0,0:0:0:0:
256,192,41061,1,0,0:0:0:0:
256,192,41176,1,2,0:0:0:0:
256,192,41292,1,2,0:0:0:0:
256,192,41407,1,0,0:0:0:0:
256,192,41638,1,2,0:0:0:0:
256,192,41753,1,2,0:0:0:0:
256,192,41869,1,0,0:0:0:0:
256,192,42100,1,2,0:0:0:0:
256,192,42215,1,2,0:0:0:0:
256,192,42330,1,0,0:0:0:0:
256,192,42561,1,2,0:0:0:0:
256,192,42676,1,0,0:0:0:0:
256,192,42792,1,0,0:0:0:0:
256,192,42907,1,2,0:0:0:0:
256,192,43023,1,0,0:0:0:0:
256,192,43138,1,2,0:0:0:0:
256,192,43253,1,0,0:0:0:0:
256,192,43484,1,2,0:0:0:0:
256,192,43600,1,2,0:0:0:0:
256,192,43715,1,0,0:0:0:0:
256,192,43830,1,2,0:0:0:0:
256,192,43946,1,0,0:0:0:0:
256,192,44061,1,0,0:0:0:0:
256,192,44176,1,2,0:0:0:0:
256,192,44253,1,2,0:0:0:0:
256,192,44330,1,2,0:0:0:0:
256,192,44407,1,0,0:0:0:0:
256,192,44638,1,0,0:0:0:0:
256,192,44753,1,0,0:0:0:0:
256,192,44869,1,2,0:0:0:0:
256,192,44984,1,0,0:0:0:0:
256,192,45100,1,2,0:0:0:0:
256,192,45176,1,2,0:0:0:0:
256,192,45253,1,2,0:0:0:0:
256,192,45330,1,0,0:0:0:0:
256,192,45561,1,0,0:0:0:0:
256,192,45676,1,2,0:0:0:0:
256,192,45792,1,0,0:0:0:0:
256,192,45907,1,0,0:0:0:0:
256,192,46023,1,2,0:0:0:0:
256,192,46100,1,2,0:0:0:0:
256,192,46176,1,0,0:0:0:0:
256,192,46253,1,2,0:0:0:0:
256,192,46484,1,0,0:0:0:0:
256,192,46600,1,2,0:0:0:0:
256,192,46715,1,2,0:0:0:0:
256,192,46830,1,0,0:0:0:0:
256,192,46946,1,2,0:0:0:0:
256,192,47023,1,0,0:0:0:0:
256,192,47100,1,0,0:0:0:0:
256,192,47176,1,2,0:0:0:0:
256,192,47292,1,2,0:0:0:0:
256,192,47407,1,4,0:0:0:0:
256,192,47753,1,0,0:0:0:0:
256,192,47869,1,2,0:0:0:0:
256,192,47984,1,2,0:0:0:0:
256,192,48100,1,0,0:0:0:0:
256,192,48330,1,0,0:0:0:0:
256,192,48676,1,0,0:0:0:0:
256,192,48792,1,2,0:0:0:0:
256,192,49023,1,0,0:0:0:0:
256,192,49253,1,0,0:0:0:0:
256,192,49369,1,2,0:0:0:0:
256,192,49484,1,2,0:0:0:0:
256,192,49600,1,0,0:0:0:0:
256,192,49715,1,2,0:0:0:0:
256,192,49946,1,2,0:0:0:0:
256,192,50061,1,2,0:0:0:0:
256,192,50176,1,0,0:0:0:0:
256,192,50407,1,0,0:0:0:0:
256,192,50638,1,2,0:0:0:0:
256,192,50753,1,0,0:0:0:0:
256,192,50869,1,0,0:0:0:0:
256,192,50984,1,0,0:0:0:0:
256,192,51100,1,2,0:0:0:0:
256,192,51446,1,2,0:0:0:0:
256,192,51676,1,0,0:0:0:0:
256,192,51792,1,2,0:0:0:0:
256,192,52023,1,2,0:0:0:0:
256,192,52369,1,2,0:0:0:0:
256,192,52484,1,0,0:0:0:0:
256,192,52600,1,0,0:0:0:0:
256,192,52715,1,2,0:0:0:0:
256,192,52946,1,2,0:0:0:0:
256,192,53061,1,0,0:0:0:0:
256,192,53176,1,0,0:0:0:0:
256,192,53292,1,2,0:0:0:0:
256,192,53407,1,2,0:0:0:0:
256,192,53523,1,0,0:0:0:0:
256,192,53753,1,0,0:0:0:0:
256,192,53869,1,2,0:0:0:0:
256,192,53984,1,0,0:0:0:0:
256,192,54100,1,2,0:0:0:0:
256,192,54330,1,0,0:0:0:0:
256,192,54446,1,0,0:0:0:0:
256,192,54561,1,2,0:0:0:0:
256,192,54676,1,2,0:0:0:0:
256,192,54792,1,4,0:0:0:0:
256,192,55138,1,0,0:0:0:0:
256,192,55253,1,2,0:0:0:0:
256,192,55600,1,2,0:0:0:0:
256,192,55715,1,0,0:0:0:0:
256,192,55946,1,0,0:0:0:0:
256,192,56176,1,2,0:0:0:0:
256,192,56407,1,0,0:0:0:0:
256,192,56638,1,0,0:0:0:0:
256,192,56753,1,0,0:0:0:0:
256,192,56869,1,2,0:0:0:0:
256,192,56984,1,0,0:0:0:0:
256,192,57100,1,2,0:0:0:0:
256,192,57215,1,0,0:0:0:0:
256,192,57446,1,0,0:0:0:0:
256,192,57561,1,2,0:0:0:0:
256,192,57676,1,0,0:0:0:0:
256,192,57907,1,0,0:0:0:0:
256,192,58023,1,2,0:0:0:0:
256,192,58253,1,2,0:0:0:0:
256,192,58484,1,0,0:0:0:0:
256,192,58600,1,0,0:0:0:0:
256,192,58715,1,0,0:0:0:0:
256,192,58830,1,2,0:0:0:0:
256,192,59061,1,0,0:0:0:0:
256,192,59176,1,2,0:0:0:0:
256,192,59407,1,0,0:0:0:0:
256,192,59753,1,2,0:0:0:0:
256,192,59984,1,0,0:0:0:0:
256,192,60100,1,2,0:0:0:0:
256,192,60330,1,0,0:0:0:0:
256,192,60446,1,2,0:0:0:0:
256,192,60561,1,0,0:0:0:0:
256,192,60676,1,2,0:0:0:0:
256,192,60907,1,0,0:0:0:0:
256,192,61023,1,2,0:0:0:0:
256,192,61253,1,2,0:0:0:0:
256,192,61484,1,0,0:0:0:0:
256,192,61600,1,2,0:0:0:0:
256,192,61715,1,0,0:0:0:0:
256,192,61830,1,2,0:0:0:0:
256,192,61946,1,0,0:0:0:0:
256,192,62061,1,2,0:0:0:0:
256,192,62176,1,4,0:0:0:0:
256,192,62407,1,0,0:0:0:0:
256,192,62523,1,2,0:0:0:0:
256,192,62638,1,2,0:0:0:0:
256,192,62753,1,0,0:0:0:0:
256,192,62869,1,2,0:0:0:0:
256,192,63100,1,0,0:0:0:0:
256,192,63330,1,0,0:0:0:0:
256,192,63446,1,2,0:0:0:0:
256,192,63561,1,2,0:0:0:0:
256,192,63792,1,0,0:0:0:0:
256,192,64023,1,0,0:0:0:0:
256,192,64138,1,2,0:0:0:0:
256,192,64253,1,2,0:0:0:0:
256,192,64369,1,0,0:0:0:0:
256,192,64484,1,2,0:0:0:0:
256,192,64600,1,0,0:0:0:0:
256,192,64830,1,0,0:0:0:0:
256,192,64946,1,2,0:0:0:0:
256,192,65176,1,0,0:0:0:0:
256,192,65292,1,2,0:0:0:0:
256,192,65407,1,2,0:0:0:0:
256,192,65638,1,2,0:0:0:0:
256,192,65869,1,0,0:0:0:0:
256,192,65946,1,2,0:0:0:0:
256,192,66023,1,2,0:0:0:0:
256,192,66100,1,0,0:0:0:0:
256,192,66215,1,2,0:0:0:0:
256,192,66330,1,0,0:0:0:0:
256,192,66561,1,2,0:0:0:0:
256,192,66792,1,0,0:0:0:0:
256,192,67023,1,0,0:0:0:0:
256,192,67138,1,2,0:0:0:0:
256,192,67253,1,2,0:0:0:0:
256,192,67369,1,2,0:0:0:0:
256,192,67484,1,0,0:0:0:0:
256,192,67715,1,0,0:0:0:0:
256,192,68061,1,0,0:0:0:0:
256,192,68176,1,2,0:0:0:0:
256,192,68407,1,2,0:0:0:0:
256,192,68523,1,0,0:0:0:0:
256,192,68638,1,2,0:0:0:0:
256,192,68753,1,2,0:0:0:0:
256,192,68869,1,0,0:0:0:0:
256,192,68984,1,2,0:0:0:0:
256,192,69100,1,0,0:0:0:0:
256,192,69215,1,0,0:0:0:0:
256,192,69330,1,2,0:0:0:0:
256,192,69446,1,0,0:0:0:0:
256,192,69561,1,6,0:0:0:0:
256,192,69792,1,0,0:0:0:0:
256,192,69907,1,2,0:0:0:0:
256,192,70023,1,2,0:0:0:0:
256,192,70253,1,0,0:0:0:0:
256,192,70369,1,2,0:0:0:0:
256,192,70484,1,2,0:0:0:0:
256,192,70600,1,0,0:0:0:0:
256,192,70830,1,0,0:0:0:0:
256,192,70946,1,2,0:0:0:0:
256,192,71061,1,2,0:0:0:0:
256,192,71176,1,0,0:0:0:0:
256,192,71407,1,2,0:0:0:0:
256,192,71523,1,0,0:0:0:0:
256,192,71638,1,2,0:0:0:0:
256,192,71753,1,2,0:0:0:0:
256,192,71869,1,2,0:0:0:0:
256,192,71984,1,0,0:0:0:0:
256,192,72100,1,2,0:0:0:0:
256,192,72215,1,2,0:0:0:0:
256,192,72330,1,0,0:0:0:0:
256,192,72561,1,0,0:0:0:0:
256,192,72792,1,2,0:0:0:0:
256,192,72907,1,0,0:0:0:0:
256,192,73023,1,2,0:0:0:0:
256,192,73138,1,2,0:0:0:0:
256,192,73253,1,0,0:0:0:0:
256,192,73484,1,0,0:0:0:0:
256,192,73600,1,2,0:0:0:0:
256,192,73715,1,2,0:0:0:0:
256,192,73830,1,0,0:0:0:0:
256,192,73946,1,2,0:0:0:0:
256,192,74176,1,2,0:0:0:0:
256,192,74292,1,0,0:0:0:0:
256,192,74407,1,2,0:0:0:0:
256,192,74523,1,2,0:0:0:0:
256,192,74638,1,0,0:0:0:0:
256,192,74869,1,0,0:0:0:0:
256,192,74984,1,2,0:0:0:0:
256,192,75100,1,2,0:0:0:0:
256,192,75215,1,0,0:0:0:0:
256,192,75330,1,2,0:0:0:0:
256,192,75561,1,0,0:0:0:0:
256,192,75676,1,2,0:0:0:0:
256,192,75792,1,2,0:0:0:0:
256,192,76023,1,2,0:0:0:0:
256,192,76138,1,0,0:0:0:0:
256,192,76253,1,2,0:0:0:0:
256,192,76369,1,0,0:0:0:0:
256,192,76484,1,2,0:0:0:0:
256,192,76600,1,2,0:0:0:0:
256,192,76715,1,0,0:0:0:0:
256,192,76830,1,2,0:0:0:0:
256,192,76946,1,4,0:0:0:0:
256,192,77176,1,0,0:0:0:0:
256,192,77292,1,0,0:0:0:0:
256,192,77407,1,2,0:0:0:0:
256,192,77638,1,0,0:0:0:0:
256,192,77753,1,2,0:0:0:0:
256,192,77869,1,0,0:0:0:0:
256,192,78100,1,0,0:0:0:0:
256,192,78215,1,0,0:0:0:0:
256,192,78330,1,2,0:0:0:0:
256,192,78446,1,0,0:0:0:0:
256,192,78561,1,0,0:0:0:0:
256,192,78676,1,2,0:0:0:0:
256,192,78792,1,0,0:0:0:0:
256,192,79023,1,0,0:0:0:0:
256,192,79138,1,0,0:0:0:0:
256,192,79253,1,2,0:0:0:0:
256,192,79484,1,0,0:0:0:0:
256,192,79600,1,2,0:0:0:0:
256,192,79715,1,0,0:0:0:0:
256,192,79830,1,0,0:0:0:0:
256,192,79946,1,2,0:0:0:0:
256,192,80061,1,2,0:0:0:0:
256,192,80176,1,2,0:0:0:0:
256,192,80292,1,0,0:0:0:0:
256,192,80407,1,2,0:0:0:0:
256,192,80523,1,2,0:0:0:0:
256,192,80638,1,0,0:0:0:0:
256,192,80869,1,0,0:0:0:0:
256,192,81100,1,2,0:0:0:0:
256,192,81330,1,0,0:0:0:0:
256,192,81446,1,0,0:0:0:0:
256,192,81561,1,2,0:0:0:0:
256,192,81792,1,0,0:0:0:0:
256,192,81907,1,2,0:0:0:0:
256,192,82023,1,2,0:0:0:0:
256,192,82253,1,2,0:0:0:0:
256,192,82330,1,2,0:0:0:0:
256,192,82407,1,2,0:0:0:0:
256,192,82484,1,0,0:0:0:0:
256,192,82715,1,0,0:0:0:0:
256,192,82830,1,0,0:0:0:0:
256,192,82946,1,2,0:0:0:0:
256,192,83176,1,0,0:0:0:0:
256,192,83292,1,0,0:0:0:0:
256,192,83407,1,2,0:0:0:0:
256,192,83523,1,0,0:0:0:0:
256,192,83638,1,0,0:0:0:0:
256,192,83753,1,2,0:0:0:0:
256,192,83869,1,2,0:0:0:0:
256,192,83984,1,0,0:0:0:0:
256,192,84100,1,2,0:0:0:0:
256,192,84215,1,2,0:0:0:0:
256,192,84330,1,4,0:0:0:0:
256,192,84561,1,0,0:0:0:0:
256,192,84676,1,0,0:0:0:0:
256,192,84792,1,2,0:0:0:0:
256,192,85023,1,0,0:0:0:0:
256,192,85253,1,2,0:0:0:0:
256,192,85369,1,0,0:0:0:0:
256,192,85484,1,0,0:0:0:0:
256,192,85600,1,0,0:0:0:0:
256,192,85715,1,2,0:0:0:0:
256,192,85830,1,0,0:0:0:0:
256,192,85946,1,2,0:0:0:0:
256,192,86061,1,2,0:0:0:0:
256,192,86176,1,0,0:0:0:0:
256,192,86407,1,2,0:0:0:0:
256,192,86523,1,0,0:0:0:0:
256,192,86638,1,2,0:0:0:0:
256,192,86753,1,2,0:0:0:0:
256,192,86869,1,0,0:0:0:0:
256,192,87100,1,2,0:0:0:0:
256,192,87215,1,0,0:0:0:0:
256,192,87330,1,2,0:0:0:0:
256,192,87446,1,2,0:0:0:0:
256,192,87561,1,2,0:0:0:0:
256,192,87676,1,0,0:0:0:0:
256,192,87792,1,0,0:0:0:0:
256,192,87907,1,2,0:0:0:0:
256,192,88023,1,2,0:0:0:0:
256,192,88253,1,0,0:0:0:0:
256,192,88369,1,2,0:0:0:0:
256,192,88484,1,2,0:0:0:0:
256,192,88600,1,0,0:0:0:0:
256,192,88715,1,2,0:0:0:0:
256,192,88792,1,2,0:0:0:0:
256,192,88869,1,2,0:0:0:0:
256,192,88946,1,0,0:0:0:0:
256,192,89061,1,0,0:0:0:0:
256,192,89176,1,2,0:0:0:0:
256,192,89292,1,0,0:0:0:0:
256,192,89407,1,2,0:0:0:0:
256,192,89523,1,2,0:0:0:0:
256,192,89638,1,0,0:0:0:0:
256,192,89869,1,0,0:0:0:0:
256,192,89946,1,2,0:0:0:0:
256,192,90023,1,2,0:0:0:0:
256,192,90100,1,0,0:0:0:0:
256,192,90215,1,0,0:0:0:0:
256,192,90330,1,2,0:0:0:0:
256,192,90561,1,2,0:0:0:0:
256,192,90638,1,2,0:0:0:0:
256,192,90715,1,2,0:0:0:0:
256,192,90792,1,0,0:0:0:0:
256,192,91023,1,0,0:0:0:0:
256,192,91138,1,0,0:0:0:0:
256,192,91253,1,2,0:0:0:0:
256,192,91369,1,0,0:0:0:0:
256,192,91484,1,0,0:0:0:0:
256,192,91715,1,6,0:0:0:0:
256,192,91946,1,0,0:0:0:0:
256,192,92176,1,2,0:0:0:0:
256,192,92292,1,0,0:0:0:0:
256,192,92407,1,0,0:0:0:0:
256,192,92523,1,0,0:0:0:0:
256,192,92638,1,2,0:0:0:0:
256,192,92753,1,2,0:0:0:0:
256,192,92869,1,0,0:0:0:0:
256,192,92984,1,2,0:0:0:0:
256,192,93100,1,2,0:0:0:0:
256,192,93215,1,0,0:0:0:0:
256,192,93330,1,0,0:0:0:0:
256,192,93446,1,2,0:0:0:0:
256,192,93561,1,0,0:0:0:0:
256,192,93792,1,0,0:0:0:0:
256,192,93907,1,0,0:0:0:0:
256,192,94023,1,2,0:0:0:0:
256,192,94138,1,0,0:0:0:0:
256,192,94253,1,2,0:0:0:0:
256,192,94369,1,2,0:0:0:0:
256,192,94484,1,0,0:0:0:0:
256,192,94600,1,0,0:0:0:0:
256,192,94715,1,2,0:0:0:0:
256,192,94830,1,0,0:0:0:0:
256,192,94946,1,2,0:0:0:0:
256,192,95061,1,2,0:0:0:0:
256,192,95176,1,2,0:0:0:0:
256,192,95292,1,0,0:0:0:0:
256,192,95407,1,2,0:0:0:0:
256,192,95638,1,0,0:0:0:0:
256,192,95753,1,0,0:0:0:0:
256,192,95869,1,2,0:0:0:0:
256,192,96100,1,2,0:0:0:0:
256,192,96215,1,2,0:0:0:0:
256,192,96330,1,0,0:0:0:0:
256,192,96446,1,2,0:0:0:0:
256,192,96561,1,0,0:0:0:0:
256,192,96676,1,0,0:0:0:0:
256,192,96792,1,2,0:0:0:0:
256,192,97023,1,2,0:0:0:0:
256,192,97253,1,0,0:0:0:0:
256,192,97484,1,2,0:0:0:0:
256,192,97600,1,2,0:0:0:0:
256,192,97715,1,0,0:0:0:0:
256,192,97830,1,0,0:0:0:0:
256,192,97946,1,2,0:0:0:0:
256,192,98061,1,2,0:0:0:0:
256,192,98176,1,0,0:0:0:0:
256,192,98292,1,0,0:0:0:0:
256,192,98407,1,2,0:0:0:0:
256,192,98523,1,0,0:0:0:0:
256,192,98638,1,0,0:0:0:0:
256,192,98753,1,0,0:0:0:0:
256,192,98869,1,2,0:0:0:0:
256,192,98984,1,2,0:0:0:0:
256,192,99100,1,4,0:0:0:0:
256,192,99330,1,2,0:0:0:0:
256,192,99446,1,2,0:0:0:0:
256,192,99561,1,0,0:0:0:0:
256,192,99792,1,2,0:0:0:0:
256,192,99907,1,0,0:0:0:0:
256,192,100023,1,0,0:0:0:0:
256,192,100253,1,2,0:0:0:0:
256,192,100369,1,2,0:0:0:0:
256,192,100484,1,0,0:0:0:0:
256,192,100715,1,2,0:0:0:0:
256,192,100946,1,0,0:0:0:0:
256,192,101176,1,0,0:0:0:0:
256,192,101292,1,0,0:0:0:0:
256,192,101407,1,2,0:0:0:0:
256,192,101638,1,2,0:0:0:0:
256,192,101869,1,0,0:0:0:0:
256,192,102100,1,2,0:0:0:0:
256,192,102330,1,0,0:0:0:0:
256,192,102446,1,0,0:0:0:0:
256,192,102561,1,2,0:0:0:0:
256,192,102676,1,0,0:0:0:0:
256,192,102792,1,2,0:0:0:0:
256,192,103138,1,0,0:0:0:0:
256,192,103253,1,2,0:0:0:0:
256,192,103484,1,0,0:0:0:0:
256,192,103600,1,0,0:0:0:0:
256,192,103715,1,2,0:0:0:0:
256,192,103946,1,0,0:0:0:0:
256,192,104176,1,2,0:0:0:0:
256,192,104407,1,0,0:0:0:0:
256,192,104638,1,0,0:0:0:0:
256,192,104869,1,2,0:0:0:0:
256,192,105100,1,2,0:0:0:0:
256,192,105330,1,0,0:0:0:0:
256,192,105561,1,2,0:0:0:0:
256,192,105792,1,0,0:0:0:0:
256,192,105907,1,2,0:0:0:0:
256,192,106023,1,0,0:0:0:0:
256,192,106138,1,2,0:0:0:0:
256,192,106253,1,0,0:0:0:0:
256,192,106484,1,4,0:0:0:0:
256,192,106715,1,0,0:0:0:0:
256,192,106830,1,0,0:0:0:0:
256,192,106946,1,2,0:0:0:0:
256,192,107023,1,2,0:0:0:0:
256,192,107100,1,0,0:0:0:0:
256,192,107176,1,0,0:0:0:0:
256,192,107292,1,2,0:0:0:0:
256,192,107407,1,2,0:0:0:0:
256,192,107484,1,2,0:0:0:0:
256,192,107561,1,2,0:0:0:0:
256,192,107638,1,0,0:0:0:0:
256,192,107753,1,2,0:0:0:0:
256,192,107869,1,0,0:0:0:0:
256,192,108100,1,0,0:0:0:0:
256,192,108330,1,0,0:0:0:0:
256,192,108561,1,0,0:0:0:0:
256,192,108676,1,0,0:0:0:0:
256,192,108792,1,2,0:0:0:0:
256,192,108869,1,2,0:0:0:0:
256,192,108946,1,2,0:0:0:0:
256,192,109023,1,0,0:0:0:0:
256,192,109138,1,2,0:0:0:0:
256,192,109253,1,0,0:0:0:0:
256,192,109369,1,0,0:0:0:0:
256,192,109484,1,2,0:0:0:0:
256,192,109600,1,0,0:0:0:0:
256,192,109715,1,0,0:0:0:0:
256,192,109792,1,0,0:0:0:0:
256,192,109869,1,2,0:0:0:0:
256,192,109946,1,0,0:0:0:0:
256,192,110061,1,2,0:0:0:0:
256,192,110176,1,0,0:0:0:0:
256,192,110253,1,0,0:0:0:0:
256,192,110330,1,0,0:0:0:0:
256,192,110407,1,2,0:0:0:0:
256,192,110523,1,0,0:0:0:0:
256,192,110638,1,2,0:0:0:0:
256,192,110869,1,0,0:0:0:0:
256,192,110984,1,2,0:0:0:0:
256,192,111100,1,2,0:0:0:0:
256,192,111330,1,0,0:0:0:0:
256,192,111446,1,2,0:0:0:0:
256,192,111561,1,0,0:0:0:0:
256,192,111676,1,0,0:0:0:0:
256,192,111792,1,2,0:0:0:0:
256,192,112023,1,0,0:0:0:0:
256,192,112138,1,0,0:0:0:0:
256,192,112253,1,2,0:0:0:0:
256,192,112369,1,0,0:0:0:0:
256,192,112484,1,2,0:0:0:0:
256,192,112600,1,2,0:0:0:0:
256,192,112715,1,0,0:0:0:0:
256,192,112830,1,0,0:0:0:0:
256,192,112946,1,2,0:0:0:0:
256,192,113061,1,0,0:0:0:0:
256,192,113176,1,0,0:0:0:0:
256,192,113253,1,2,0:0:0:0:
256,192,113330,1,2,0:0:0:0:
256,192,113407,1,2,0:0:0:0:
256,192,113638,1,2,0:0:0:0:
256,192,113753,1,2,0:0:0:0:
256,192,113869,1,4,0:0:0:0:
256,192,114100,1,2,0:0:0:0:
256,192,114215,1,2,0:0:0:0:
256,192,114330,1,0,0:0:0:0:
256,192,114446,1,0,0:0:0:0:
256,192,114561,1,0,0:0:0:0:
256,192,114676,1,2,0:0:0:0:
256,192,114792,1,0,0:0:0:0:
256,192,115023,1,2,0:0:0:0:
256,192,115138,1,2,0:0:0:0:
256,192,115253,1,0,0:0:0:0:
256,192,115484,1,2,0:0:0:0:
256,192,115715,1,0,0:0:0:0:
256,192,115830,1,0,0:0:0:0:
256,192,115946,1,2,0:0:0:0:
256,192,116061,1,2,0:0:0:0:
256,192,116176,1,0,0:0:0:0:
256,192,116407,1,2,0:0:0:0:
256,192,116484,1,2,0:0:0:0:
256,192,116561,1,2,0:0:0:0:
256,192,116638,1,0,0:0:0:0:
256,192,116869,1,2,0:0:0:0:
256,192,117100,1,0,0:0:0:0:
256,192,117215,1,0,0:0:0:0:
256,192,117330,1,2,0:0:0:0:
256,192,117446,1,2,0:0:0:0:
256,192,117561,1,0,0:0:0:0:
256,192,117792,1,0,0:0:0:0:
256,192,117907,1,0,0:0:0:0:
256,192,118023,1,2,0:0:0:0:
256,192,118253,1,2,0:0:0:0:
256,192,118369,1,2,0:0:0:0:
256,192,118484,1,0,0:0:0:0:
256,192,118715,1,2,0:0:0:0:
256,192,118830,1,0,0:0:0:0:
256,192,118946,1,2,0:0:0:0:
256,192,119176,1,0,0:0:0:0:
256,192,119292,1,2,0:0:0:0:
256,192,119407,1,0,0:0:0:0:
256,192,119523,1,2,0:0:0:0:
256,192,119638,1,0,0:0:0:0:
256,192,119753,1,2,0:0:0:0:
256,192,119869,1,0,0:0:0:0:
256,192,119984,1,2,0:0:0:0:
256,192,120100,1,0,0:0:0:0:
256,192,120215,1,2,0:0:0:0:
256,192,120330,1,0,0:0:0:0:
256,192,120446,1,2,0:0:0:0:
256,192,120561,1,2,0:0:0:0:
256,192,120676,1,0,0:0:0:0:
256,192,120792,1,2,0:0:0:0:
256,192,120907,1,2,0:0:0:0:
256,192,121023,1,0,0:0:0:0:
256,192,121138,1,2,0:0:0:0:
256,192,121253,1,4,0:0:0:0:
256,192,121484,1,0,0:0:0:0:
256,192,121600,1,0,0:0:0:0:
256,192,121715,1,2,0:0:0:0:
256,192,121792,1,2,0:0:0:0:
256,192,121869,1,2,0:0:0:0:
256,192,121946,1,0,0:0:0:0:
256,192,122061,1,0,0:0:0:0:
256,192,122176,1,2,0:0:0:0:
256,192,122253,1,2,0:0:0:0:
256,192,122330,1,2,0:0:0:0:
256,192,122407,1,0,0:0:0:0:
256,192,122523,1,2,0:0:0:0:
256,192,122638,1,0,0:0:0:0:
256,192,122869,1,0,0:0:0:0:
256,192,123100,1,0,0:0:0:0:
256,192,123330,1,0,0:0:0:0:
256,192,123407,1,0,0:0:0:0:
256,192,123484,1,2,0:0:0:0:
256,192,123561,1,0,0:0:0:0:
256,192,123638,1,0,0:0:0:0:
256,192,123715,1,2,0:0:0:0:
256,192,123792,1,0,0:0:0:0:
256,192,123907,1,0,0:0:0:0:
256,192,124023,1,2,0:0:0:0:
256,192,124138,1,0,0:0:0:0:
256,192,124253,1,2,0:0:0:0:
256,192,124330,1,2,0:0:0:0:
256,192,124407,1,2,0:0:0:0:
256,192,124484,1,0,0:0:0:0:
256,192,124561,1,0,0:0:0:0:
256,192,124638,1,0,0:0:0:0:
256,192,124715,1,2,0:0:0:0:
256,192,124830,1,0,0:0:0:0:
256,192,124946,1,0,0:0:0:0:
256,192,125023,1,2,0:0:0:0:
256,192,125100,1,2,0:0:0:0:
256,192,125176,1,0,0:0:0:0:
256,192,125292,1,0,0:0:0:0:
256,192,125407,1,2,0:0:0:0:
256,192,125638,1,0,0:0:0:0:
256,192,125869,1,2,0:0:0:0:
256,192,126100,1,0,0:0:0:0:
256,192,126215,1,0,0:0:0:0:
256,192,126330,1,2,0:0:0:0:
256,192,126446,1,0,0:0:0:0:
256,192,126561,1,0,0:0:0:0:
256,192,126792,1,0,0:0:0:0:
256,192,126869,1,0,0:0:0:0:
256,192,126946,1,0,0:0:0:0:
256,192,127023,1,2,0:0:0:0:
256,192,127138,1,0,0:0:0:0:
256,192,127253,1,2,0:0:0:0:
256,192,127369,1,2,0:0:0:0:
256,192,127484,1,0,0:0:0:0:
256,192,127715,1,2,0:0:0:0:
256,192,127830,1,0,0:0:0:0:
256,192,127946,1,2,0:0:0:0:
256,192,128023,1,2,0:0:0:0:
256,192,128100,1,2,0:0:0:0:
256,192,128176,1,0,0:0:0:0:
256,192,128407,1,0,0:0:0:0:
256,192,128523,1,2,0:0:0:0:
256,192,128638,1,4,0:0:0:0:
256,192,128869,1,0,0:0:0:0:
256,192,128984,1,2,0:0:0:0:
256,192,129100,1,0,0:0:0:0:
256,192,129330,1,2,0:0:0:0:
256,192,129446,1,2,0:0:0:0:
256,192,129561,1,0,0:0:0:0:
256,192,129792,1,0,0:0:0:0:
256,192,129869,1,2,0:0:0:0:
256,192,129946,1,2,0:0:0:0:
256,192,130023,1,0,0:0:0:0:
256,192,130253,1,2,0:0:0:0:
256,192,130369,1,2,0:0:0:0:
256,192,130484,1,0,0:0:0:0:
256,192,130600,1,0,0:0:0:0:
256,192,130715,1,2,0:0:0:0:
256,192,130830,1,2,0:0:0:0:
256,192,130946,1,0,0:0:0:0:
256,192,131176,1,0,0:0:0:0:
256,192,131253,1,2,0:0:0:0:
256,192,131330,1,2,0:0:0:0:
256,192,131407,1,0,0:0:0:0:
256,192,131638,1,2,0:0:0:0:
256,192,131753,1,2,0:0:0:0:
256,192,131869,1,0,0:0:0:0:
256,192,131984,1,0,0:0:0:0:
256,192,132100,1,2,0:0:0:0:
256,192,132215,1,2,0:0:0:0:
256,192,132330,1,0,0:0:0:0:
256,192,132407,1,0,0:0:0:0:
256,192,132484,1,0,0:0:0:0:
256,192,132561,1,2,0:0:0:0:
256,192,132676,1,2,0:0:0:0:
256,192,132792,1,0,0:0:0:0:
256,192,132869,1,0,0:0:0:0:
256,192,132946,1,0,0:0:0:0:
256,192,133023,1,2,0:0:0:0:
256,192,133138,1,2,0:0:0:0:
256,192,133253,1,0,0:0:0:0:
256,192,133330,1,0,0:0:0:0:
256,192,133407,1,0,0:0:0:0:
256,192,133484,1,2,0:0:0:0:
256,192,133600,1,2,0:0:0:0:
256,192,133715,1,0,0:0:0:0:
256,192,133792,1,0,0:0:0:0:
256,192,133869,1,0,0:0:0:0:
256,192,133946,1,2,0:0:0:0:
256,192,134061,1,2,0:0:0:0:
256,192,134176,1,0,0:0:0:0:
256,192,134253,1,2,0:0:0:0:
256,192,134330,1,2,0:0:0:0:
256,192,134407,1,2,0:0:0:0:
256,192,134523,1,0,0:0:0:0:
256,192,134638,1,2,0:0:0:0:
256,192,134753,1,2,0:0:0:0:
256,192,134869,1,0,0:0:0:0:
256,192,134984,1,2,0:0:0:0:
256,192,135100,1,2,0:0:0:0:
256,192,135215,1,2,0:0:0:0:
256,192,135330,1,0,0:0:0:0:
256,192,135446,1,0,0:0:0:0:
256,192,135561,1,2,0:0:0:0:
256,192,135792,1,0,0:0:0:0:
256,192,135907,1,2,0:0:0:0:
256,192,136023,1,4,0:0:0:0:
256,192,136253,1,0,0:0:0:0:
256,192,136369,1,0,0:0:0:0:
256,192,136484,1,2,0:0:0:0:
256,192,136561,1,2,0:0:0:0:
256,192,136638,1,2,0:0:0:0:
256,192,136715,1,0,0:0:0:0:
256,192,136830,1,2,0:0:0:0:
256,192,136946,1,0,0:0:0:0:
256,192,137023,1,2,0:0:0:0:
256,192,137100,1,2,0:0:0:0:
256,192,137176,1,0,0:0:0:0:
256,192,137292,1,2,0:0:0:0:
256,192,137407,1,0,0:0:0:0:
256,192,137638,1,0,0:0:0:0:
256,192,137869,1,0,0:0:0:0:
256,192,138100,1,0,0:0:0:0:
256,192,138215,1,0,0:0:0:0:
256,192,138330,1,2,0:0:0:0:
256,192,138446,1,2,0:0:0:0:
256,192,138561,1,0,0:0:0:0:
256,192,138638,1,2,0:0:0:0:
256,192,138715,1,2,0:0:0:0:
256,192,138792,1,0,0:0:0:0:
256,192,139023,1,0,0:0:0:0:
256,192,139100,1,0,0:0:0:0:
256,192,139176,1,2,0:0:0:0:
256,192,139253,1,0,0:0:0:0:
256,192,139369,1,0,0:0:0:0:
256,192,139484,1,0,0:0:0:0:
256,192,139600,1,2,0:0:0:0:
256,192,139715,1,2,0:0:0:0:
256,192,139792,1,2,0:0:0:0:
256,192,139869,1,0,0:0:0:0:
256,192,139946,1,2,0:0:0:0:
256,192,140061,1,2,0:0:0:0:
256,192,140176,1,0,0:0:0:0:
256,192,140407,1,2,0:0:0:0:
256,192,140638,1,0,0:0:0:0:
256,192,140869,1,2,0:0:0:0:
256,192,140984,1,2,0:0:0:0:
256,192,141100,1,0,0:0:0:0:
256,192,141215,1,0,0:0:0:0:
256,192,141330,1,2,0:0:0:0:
256,192,141446,1,2,0:0:0:0:
256,192,141561,1,0,0:0:0:0:
256,192,141792,1,2,0:0:0:0:
256,192,141907,1,0,0:0:0:0:
256,192,142023,1,2,0:0:0:0:
256,192,142138,1,2,0:0:0:0:
256,192,142253,1,0,0:0:0:0:
256,192,142484,1,2,0:0:0:0:
256,192,142600,1,0,0:0:0:0:
256,192,142715,1,0,0:0:0:0:
256,192,142792,1,2,0:0:0:0:
256,192,142869,1,2,0:0:0:0:
256,192,142946,1,0,0:0:0:0:
256,192,143176,1,0,0:0:0:0:
256,192,143292,1,2,0:0:0:0:
256,192,143407,1,4,0:0:0:0:
256,192,143638,1,2,0:0:0:0:
256,192,143753,1,2,0:0:0:0:
256,192,143869,1,0,0:0:0:0:
256,192,144100,1,2,0:0:0:0:
256,192,144330,1,0,0:0:0:0:
256,192,144561,1,2,0:0:0:0:
256,192,144676,1,2,0:0:0:0:
256,192,144792,1,0,0:0:0:0:
256,192,145023,1,2,0:0:0:0:
256,192,145138,1,2,0:0:0:0:
256,192,145253,1,0,0:0:0:0:
256,192,145330,1,2,0:0:0:0:
256,192,145407,1,0,0:0:0:0:
256,192,145484,1,2,0:0:0:0:
256,192,145600,1,2,0:0:0:0:
256,192,145715,1,0,0:0:0:0:
256,192,145830,1,0,0:0:0:0:
256,192,145946,1,2,0:0:0:0:
256,192,146061,1,2,0:0:0:0:
256,192,146176,1,0,0:0:0:0:
256,192,146407,1,2,0:0:0:0:
256,192,146484,1,2,0:0:0:0:
256,192,146561,1,2,0:0:0:0:
256,192,146638,1,0,0:0:0:0:
256,192,146869,1,2,0:0:0:0:
256,192,146984,1,2,0:0:0:0:
256,192,147100,1,0,0:0:0:0:
256,192,147330,1,2,0:0:0:0:
256,192,147446,1,0,0:0:0:0:
256,192,147561,1,2,0:0:0:0:
256,192,147792,1,2,0:0:0:0:
256,192,148023,1,0,0:0:0:0:
256,192,148253,1,2,0:0:0:0:
256,192,148369,1,0,0:0:0:0:
256,192,148484,1,2,0:0:0:0:
256,192,148715,1,2,0:0:0:0:
256,192,148946,1,2,0:0:0:0:
256,192,149176,1,2,0:0:0:0:
256,192,149407,1,2,0:0:0:0:
256,192,149638,1,2,0:0:0:0:
256,192,149869,1,0,0:0:0:0:
256,192,149946,1,0,0:0:0:0:
256,192,150023,1,2,0:0:0:0:
256,192,150100,1,0,0:0:0:0:
256,192,150176,1,2,0:0:0:0:
256,192,150253,1,2,0:0:0:0:
256,192,150330,1,0,0:0:0:0:
256,192,150446,1,0,0:0:0:0:
256,192,150561,1,2,0:0:0:0:
256,192,150676,1,2,0:0:0:0:
256,192,150792,1,4,0:0:0:0:
256,192,151023,1,0,0:0:0:0:
256,192,151100,1,0,0:0:0:0:
256,192,151176,1,0,0:0:0:0:
256,192,151253,1,2,0:0:0:0:
256,192,151369,1,0,0:0:0:0:
256,192,151484,1,2,0:0:0:0:
256,192,151600,1,2,0:0:0:0:
256,192,151715,1,0,0:0:0:0:
256,192,151792,1,0,0:0:0:0:
256,192,151869,1,2,0:0:0:0:
256,192,151946,1,0,0:0:0:0:
256,192,152061,1,0,0:0:0:0:
256,192,152176,1,0,0:0:0:0:
256,192,152407,1,0,0:0:0:0:
256,192,152638,1,0,0:0:0:0:
256,192,152869,1,2,0:0:0:0:
256,192,152946,1,0,0:0:0:0:
256,192,153023,1,0,0:0:0:0:
256,192,153100,1,2,0:0:0:0:
256,192,153176,1,2,0:0:0:0:
256,192,153253,1,2,0:0:0:0:
256,192,153330,1,0,0:0:0:0:
256,192,153446,1,2,0:0:0:0:
256,192,153561,1,2,0:0:0:0:
256,192,153792,1,2,0:0:0:0:
256,192,153869,1,2,0:0:0:0:
256,192,153946,1,2,0:0:0:0:
256,192,154023,1,0,0:0:0:0:
256,192,154138,1,0,0:0:0:0:
256,192,154253,1,2,0:0:0:0:
256,192,154369,1,0,0:0:0:0:
256,192,154484,1,2,0:0:0:0:
256,192,154561,1,2,0:0:0:0:
256,192,154638,1,0,0:0:0:0:
256,192,154715,1,2,0:0:0:0:
256,192,154830,1,2,0:0:0:0:
256,192,154946,1,0,0:0:0:0:
256,192,155176,1,0,0:0:0:0:
256,192,155407,1,0,0:0:0:0:
256,192,155638,1,2,0:0:0:0:
256,192,155753,1,2,0:0:0:0:
256,192,155869,1,0,0:0:0:0:
256,192,155984,1,2,0:0:0:0:
256,192,156100,1,2,0:0:0:0:
256,192,156330,1,0,0:0:0:0:
256,192,156446,1,0,0:0:0:0:
256,192,156561,1,2,0:0:0:0:
256,192,156676,1,0,0:0:0:0:
256,192,156792,1,2,0:0:0:0:
256,192,156907,1,2,0:0:0:0:
256,192,157023,1,0,0:0:0:0:
256,192,157253,1,2,0:0:0:0:
256,192,157369,1,2,0:0:0:0:
256,192,157484,1,0,0:0:0:0:
256,192,157561,1,0,0:0:0:0:
256,192,157638,1,2,0:0:0:0:
256,192,157715,1,2,0:0:0:0:
256,192,157946,1,2,0:0:0:0:
256,192,158061,1,2,0:0:0:0:
256,192,158176,1,0,0:0:0:0:
256,192,158407,1,0,0:0:0:0:
256,192,158523,1,0,0:0:0:0:
256,192,158638,1,2,0:0:0:0:
256,192,158753,1,0,0:0:0:0:
256,192,158869,1,2,0:0:0:0:
256,192,159100,1,0,0:0:0:0:
256,192,159330,1,2,0:0:0:0:
256,192,159446,1,0,0:0:0:0:
256,192,159561,1,2,0:0:0:0:
256,192,159676,1,2,0:0:0:0:
256,192,159792,1,0,0:0:0:0:
256,192,159907,1,2,0:0:0:0:
256,192,160023,1,0,0:0:0:0:
256,192,160253,1,0,0:0:0:0:
256,192,160369,1,0,0:0:0:0:
256,192,160484,1,2,0:0:0:0:
256,192,160561,1,2,0:0:0:0:
256,192,160638,1,2,0:0:0:0:
256,192,160715,1,0,0:0:0:0:
256,192,160830,1,2,0:0:0:0:
256,192,160946,1,0,0:0:0:0:
256,192,161176,1,0,0:0:0:0:
256,192,161292,1,0,0:0:0:0:
256,192,161407,1,2,0:0:0:0:
256,192,161484,1,2,0:0:0:0:
256,192,161561,1,0,0:0:0:0:
256,192,161638,1,2,0:0:0:0:
256,192,161753,1,2,0:0:0:0:
256,192,161869,1,0,0:0:0:0:
256,192,162100,1,0,0:0:0:0:
256,192,162176,1,2,0:0:0:0:
256,192,162253,1,2,0:0:0:0:
256,192,162330,1,0,0:0:0:0:
256,192,162561,1,2,0:0:0:0:
256,192,162676,1,2,0:0:0:0:
256,192,162792,1,0,0:0:0:0:
256,192,162907,1,0,0:0:0:0:
256,192,163023,1,2,0:0:0:0:
256,192,163138,1,2,0:0:0:0:
256,192,163253,1,0,0:0:0:0:
256,192,163484,1,2,0:0:0:0:
256,192,163561,1,0,0:0:0:0:
256,192,163638,1,0,0:0:0:0:
256,192,163715,1,2,0:0:0:0:
256,192,163946,1,2,0:0:0:0:
256,192,164023,1,2,0:0:0:0:
256,192,164100,1,2,0:0:0:0:
256,192,164176,1,0,0:0:0:0:
256,192,164407,1,0,0:0:0:0:
256,192,164484,1,0,0:0:0:0:
256,192,164561,1,0,0:0:0:0:
256,192,164638,1,2,0:0:0:0:
256,192,164869,1,0,0:0:0:0:
256,192,164946,1,0,0:0:0:0:
256,192,165023,1,0,0:0:0:0:
256,192,165100,1,2,0:0:0:0:
256,192,165176,1,0,0:0:0:0:
256,192,165253,1,0,0:0:0:0:
256,192,165330,1,2,0:0:0:0:
256,192,165407,1,2,0:0:0:0:
256,192,165484,1,0,0:0:0:0:
256,192,165561,1,6,0:0:0:0:
256,192,165792,1,0,0:0:0:0:
256,192,165907,1,0,0:0:0:0:
256,192,166023,1,2,0:0:0:0:
256,192,166100,1,2,0:0:0:0:
256,192,166176,1,2,0:0:0:0:
256,192,166253,1,0,0:0:0:0:
256,192,166369,1,0,0:0:0:0:
256,192,166484,1,2,0:0:0:0:
256,192,166561,1,2,0:0:0:0:
256,192,166638,1,0,0:0:0:0:
256,192,166715,1,2,0:0:0:0:
256,192,166830,1,2,0:0:0:0:
256,192,166946,1,0,0:0:0:0:
256,192,167176,1,0,0:0:0:0:
256,192,167407,1,0,0:0:0:0:
256,192,167638,1,0,0:0:0:0:
256,192,167715,1,2,0:0:0:0:
256,192,167792,1,2,0:0:0:0:
256,192,167869,1,0,0:0:0:0:
256,192,167984,1,0,0:0:0:0:
256,192,168100,1,2,0:0:0:0:
256,192,168215,1,2,0:0:0:0:
256,192,168330,1,0,0:0:0:0:
256,192,168446,1,2,0:0:0:0:
256,192,168561,1,0,0:0:0:0:
256,192,168638,1,0,0:0:0:0:
256,192,168715,1,0,0:0:0:0:
256,192,168792,1,2,0:0:0:0:
256,192,168907,1,0,0:0:0:0:
256,192,169023,1,2,0:0:0:0:
256,192,169138,1,2,0:0:0:0:
256,192,169253,1,0,0:0:0:0:
256,192,169330,1,2,0:0:0:0:
256,192,169407,1,0,0:0:0:0:
256,192,169484,1,2,0:0:0:0:
256,192,169600,1,2,0:0:0:0:
256,192,169715,1,0,0:0:0:0:
256,192,169946,1,0,0:0:0:0:
256,192,170061,1,2,0:0:0:0:
256,192,170176,1,0,0:0:0:0:
256,192,170407,1,0,0:0:0:0:
256,192,170523,1,2,0:0:0:0:
256,192,170638,1,0,0:0:0:0:
256,192,170753,1,0,0:0:0:0:
256,192,170869,1,2,0:0:0:0:
256,192,171100,1,0,0:0:0:0:
256,192,171176,1,0,0:0:0:0:
256,192,171253,1,2,0:0:0:0:
256,192,171330,1,0,0:0:0:0:
256,192,171407,1,0,0:0:0:0:
256,192,171484,1,0,0:0:0:0:
256,192,171561,1,2,0:0:0:0:
256,192,171676,1,2,0:0:0:0:
256,192,171792,1,0,0:0:0:0:
256,192,172023,1,2,0:0:0:0:
256,192,172138,1,2,0:0:0:0:
256,192,172253,1,0,0:0:0:0:
256,192,172330,1,2,0:0:0:0:
256,192,172407,1,2,0:0:0:0:
256,192,172484,1,0,0:0:0:0:
256,192,172715,1,0,0:0:0:0:
256,192,172946,1,4,0:0:0:0:
256,192,173176,1,2,0:0:0:0:
256,192,173292,1,2,0:0:0:0:
256,192,173407,1,0,0:0:0:0:
256,192,173638,1,0,0:0:0:0:
256,192,173753,1,2,0:0:0:0:
256,192,173869,1,0,0:0:0:0:
256,192,174100,1,0,0:0:0:0:
256,192,174215,1,2,0:0:0:0:
256,192,174330,1,0,0:0:0:0:
256,192,174561,1,2,0:0:0:0:
256,192,174676,1,2,0:0:0:0:
256,192,174792,1,0,0:0:0:0:
256,192,174907,1,0,0:0:0:0:
256,192,175023,1,2,0:0:0:0:
256,192,175100,1,2,0:0:0:0:
256,192,175176,1,2,0:0:0:0:
256,192,175253,1,0,0:0:0:0:
256,192,175484,1,2,0:0:0:0:
256,192,175600,1,2,0:0:0:0:
256,192,175715,1,0,0:0:0:0:
256,192,175946,1,0,0:0:0:0:
256,192,176061,1,2,0:0:0:0:
256,192,176176,1,0,0:0:0:0:
256,192,176407,1,2,0:0:0:0:
256,192,176484,1,2,0:0:0:0:
256,192,176561,1,2,0:0:0:0:
256,192,176638,1,0,0:0:0:0:
256,192,176753,1,0,0:0:0:0:
256,192,176869,1,2,0:0:0:0:
256,192,176984,1,0,0:0:0:0:
256,192,177100,1,2,0:0:0:0:
256,192,177215,1,2,0:0:0:0:
256,192,177330,1,2,0:0:0:0:
256,192,177561,1,0,0:0:0:0:
256,192,177676,1,2,0:0:0:0:
256,192,177792,1,2,0:0:0:0:
256,192,177907,1,0,0:0:0:0:
256,192,178023,1,2,0:0:0:0:
256,192,178138,1,2,0:0:0:0:
256,192,178253,1,2,0:0:0:0:
256,192,178484,1,2,0:0:0:0:
256,192,178715,1,2,0:0:0:0:
256,192,178946,1,0,0:0:0:0:
256,192,179176,1,2,0:0:0:0:
256,192,179407,1,2,0:0:0:0:
256,192,179523,1,2,0:0:0:0:
256,192,179638,1,0,0:0:0:0:
256,192,179869,1,2,0:0:0:0:
256,192,179984,1,0,0:0:0:0:
256,192,180100,1,2,0:0:0:0:
256,192,180215,1,2,0:0:0:0:
256,192,180330,1,4,0:0:0:0:
256,192,180561,1,2,0:0:0:0:
256,192,180676,1,0,0:0:0:0:
256,192,180792,1,2,0:0:0:0:
256,192,180869,1,2,0:0:0:0:
256,192,180946,1,0,0:0:0:0:
256,192,181023,1,2,0:0:0:0:
256,192,181138,1,2,0:0:0:0:
256,192,181253,1,2,0:0:0:0:
256,192,181330,1,2,0:0:0:0:
256,192,181407,1,2,0:0:0:0:
256,192,181484,1,0,0:0:0:0:
256,192,181600,1,2,0:0:0:0:
256,192,181715,1,0,0:0:0:0:
256,192,181946,1,0,0:0:0:0:
256,192,182176,1,0,0:0:0:0:
256,192,182407,1,2,0:0:0:0:
256,192,182484,1,0,0:0:0:0:
256,192,182561,1,0,0:0:0:0:
256,192,182638,1,2,0:0:0:0:
256,192,182715,1,2,0:0:0:0:
256,192,182792,1,0,0:0:0:0:
256,192,182869,1,2,0:0:0:0:
256,192,182984,1,2,0:0:0:0:
256,192,183100,1,0,0:0:0:0:
256,192,183215,1,0,0:0:0:0:
256,192,183330,1,2,0:0:0:0:
256,192,183407,1,2,0:0:0:0:
256,192,183484,1,2,0:0:0:0:
256,192,183561,1,0,0:0:0:0:
256,192,183676,1,0,0:0:0:0:
256,192,183792,1,0,0:0:0:0:
256,192,183907,1,2,0:0:0:0:
256,192,184023,1,0,0:0:0:0:
256,192,184100,1,2,0:0:0:0:
256,192,184176,1,2,0:0:0:0:
256,192,184253,1,2,0:0:0:0:
256,192,184369,1,0,0:0:0:0:
256,192,184484,1,2,0:0:0:0:
256,192,184715,1,2,0:0:0:0:
256,192,184946,1,0,0:0:0:0:
256,192,185176,1,2,0:0:0:0:
256,192,185292,1,2,0:0:0:0:
256,192,185407,1,0,0:0:0:0:
256,192,185523,1,0,0:0:0:0:
256,192,185638,1,2,0:0:0:0:
256,192,185869,1,0,0:0:0:0:
256,192,186100,1,2,0:0:0:0:
256,192,186215,1,0,0:0:0:0:
256,192,186330,1,2,0:0:0:0:
256,192,186446,1,2,0:0:0:0:
256,192,186561,1,0,0:0:0:0:
256,192,186792,1,2,0:0:0:0:
256,192,186907,1,2,0:0:0:0:
256,192,187023,1,0,0:0:0:0:
256,192,187100,1,2,0:0:0:0:
256,192,187176,1,2,0:0:0:0:
256,192,187253,1,0,0:0:0:0:
256,192,187484,1,0,0:0:0:0:
256,192,187600,1,2,0:0:0:0:
256,192,187715,1,4,0:0:0:0:
256,192,187946,1,2,0:0:0:0:
256,192,188061,1,2,0:0:0:0:
256,192,188176,1,0,0:0:0:0:
256,192,188407,1,2,0:0:0:0:
256,192,188638,1,0,0:0:0:0:
256,192,188753,1,0,0:0:0:0:
256,192,188869,1,2,0:0:0:0:
256,192,188984,1,2,0:0:0:0:
256,192,189100,1,0,0:0:0:0:
256,192,189330,1,2,0:0:0:0:
256,192,189446,1,2,0:0:0:0:
256,192,189561,1,0,0:0:0:0:
256,192,189792,1,2,0:0:0:0:
256,192,189869,1,2,0:0:0:0:
256,192,189946,1,2,0:0:0:0:
256,192,190023,1,0,0:0:0:0:
256,192,190253,1,2,0:0:0:0:
256,192,190369,1,2,0:0:0:0:
256,192,190484,1,0,0:0:0:0:
256,192,190715,1,2,0:0:0:0:
256,192,190792,1,2,0:0:0:0:
256,192,190869,1,2,0:0:0:0:
256,192,190946,1,0,0:0:0:0:
256,192,191176,1,2,0:0:0:0:
256,192,191292,1,2,0:0:0:0:
256,192,191407,1,0,0:0:0:0:
256,192,191484,1,0,0:0:0:0:
256,192,191561,1,0,0:0:0:0:
256,192,191638,1,2,0:0:0:0:
256,192,191753,1,0,0:0:0:0:
256,192,191869,1,2,0:0:0:0:
256,192,191946,1,2,0:0:0:0:
256,192,192023,1,2,0:0:0:0:
256,192,192100,1,2,0:0:0:0:
256,192,192215,1,2,0:0:0:0:
256,192,192330,1,0,0:0:0:0:
256,192,192561,1,0,0:0:0:0:
256,192,192676,1,0,0:0:0:0:
256,192,192792,1,2,0:0:0:0:
256,192,192869,1,2,0:0:0:0:
256,192,192946,1,0,0:0:0:0:
256,192,193023,1,2,0:0:0:0:
256,192,193138,1,2,0:0:0:0:
256,192,193253,1,0,0:0:0:0:
256,192,193484,1,2,0:0:0:0:
256,192,193600,1,0,0:0:0:0:
256,192,193715,1,2,0:0:0:0:
256,192,193830,1,2,0:0:0:0:
256,192,193946,1,0,0:0:0:0:
256,192,194061,1,2,0:0:0:0:
256,192,194176,1,0,0:0:0:0:
256,192,194292,1,0,0:0:0:0:
256,192,194407,1,2,0:0:0:0:
256,192,194484,1,2,0:0:0:0:
256,192,194561,1,2,0:0:0:0:
256,192,194638,1,0,0:0:0:0:
256,192,194753,1,2,0:0:0:0:
256,192,194869,1,2,0:0:0:0:
256,192,194984,1,2,0:0:0:0:
256,192,195100,1,4,0:0:0:0:
256,192,195330,1,4,0:0:0:0:
256,192,195561,1,4,0:0:0:0:
256,192,195792,1,4,0:0:0:0:
256,192,196023,1,6,0:0:0:0:
256,192,196253,1,0,0:0:0:0:
256,192,196330,1,0,0:0:0:0:
256,192,196407,1,0,0:0:0:0:
256,192,196484,1,2,0:0:0:0:
256,192,196715,1,2,0:0:0:0:
256,192,196792,1,2,0:0:0:0:
256,192,196869,1,2,0:0:0:0:
256,192,196946,1,0,0:0:0:0:
256,192,197176,12,0,200638,0:0:0:0:
256,192,200984,5,0,0:0:0:0:
256,192,201042,1,0,0:0:0:0:
256,192,201100,1,2,0:0:0:0:
