osu file format v14

[General]
AudioFilename: audio.mp3
AudioLeadIn: 0
PreviewTime: 53854
Countdown: 0
SampleSet: Soft
StackLeniency: 0.7
Mode: 0
LetterboxInBreaks: 0
WidescreenStoryboard: 0

[Editor]
DistanceSpacing: 1
BeatDivisor: 4
GridSize: 4
TimelineZoom: 1.7

[Metadata]
Title:Natsumeku Sakamichi (TV Size)
TitleUnicode:夏めく坂道 (TV Size)
Artist:Daisuke
ArtistUnicode:ダイスケ
Creator:leo16834
Version:Hard
Source:ポケットモンスター ベストウイッシュ シーズン2 デコロラアドベンチャー
Tags:Pokemon pocket monster black and white best wishes Satoshi Pikachu Pokémon gary00737 Anime Japanese
BeatmapID:1261510
BeatmapSetID:596618

[Difficulty]
HPDrainRate:6
CircleSize:3.7
OverallDifficulty:6
ApproachRate:7
SliderMultiplier:1.4
SliderTickRate:1

[Events]
//Background and Video events
Video,716,"Pokemon Best Wishes Da! Opening Japanese.AVI"
0,0,"BW142.jpg",0,0
//Break Periods
//Storyboard Layer 0 (Background)
//Storyboard Layer 1 (Fail)
//Storyboard Layer 2 (Pass)
//Storyboard Layer 3 (Foreground)
//Storyboard Layer 4 (Overlay)
//Storyboard Sound Samples

[TimingPoints]
1066,384.615384615385,4,2,22,60,1,0
2604,-100,4,2,22,83,0,0
3179,-100,4,2,22,83,0,0
4333,-100,4,2,22,83,0,0
10487,-100,4,2,22,83,0,0
12218,-100,4,2,22,83,0,0
17989,-100,4,2,22,60,0,0
27603,-100,4,2,22,60,0,0
39526,-100,4,2,22,65,0,0
41835,-100,4,2,22,65,0,0
42603,-100,4,2,22,60,0,0
48372,-100,4,2,22,70,0,0
50487,-100,4,2,22,70,0,0
54142,-100,4,2,22,83,0,0
54719,-100,4,2,22,83,0,1
58084,-100,4,2,22,5,0,1
58180,-100,4,2,22,83,0,1
64238,-100,4,2,22,5,0,1
64334,-100,4,2,22,83,0,1
67315,-100,4,2,22,5,0,1
67411,-100,4,2,22,83,0,1
70392,-100,4,2,22,5,0,1
70488,-100,4,2,22,83,0,1
76450,-100,4,2,22,83,0,0
81258,-100,4,2,22,83,0,0
85104,-100,4,2,22,83,0,0
85296,-100,4,2,22,83,0,0
92604,-100,4,2,22,5,0,0

[Colours]
Combo1 : 83,83,83
Combo2 : 255,255,81
Combo3 : 128,255,128
Combo4 : 255,128,64
Combo5 : 255,106,106
Combo6 : 0,255,255
Combo7 : 192,192,192

[HitObjects]
101,250,1835,5,8,0:2:0:0:
180,213,2027,2,0,L|226:228,2,35,8|8|8,0:2|0:2|0:2,0:0:0:0:
128,56,2604,6,0,L|216:80,1,70,6|0,0:2|0:0,0:0:0:0:
272,56,2989,1,10,1:2:0:0:
344,88,3181,2,0,P|344:164|292:224,1,140,2|2,1:2|1:2,0:0:0:0:
228,200,3758,1,8,0:2:0:0:
148,173,3950,2,0,L|160:313,2,140,6|2|6,1:2|1:2|1:2,0:0:0:0:
204,79,4912,2,0,L|199:30,2,35,8|8|8,1:2|0:2|0:2,0:0:0:0:
311,95,5296,2,0,L|318:138,2,35,8|8|8,1:2|0:2|0:2,0:0:0:0:
415,52,5681,6,0,P|437:124|411:196,1,140,6|10,1:2|1:2,0:0:0:0:
340,220,6258,2,0,P|425:221|479:275,1,140,2|2,1:2|1:2,0:0:0:0:
382,317,6835,1,8,0:2:0:0:
288,320,7027,2,0,L|124:336,2,140,6|2|6,1:2|1:2|1:2,0:0:0:0:
320,240,7989,1,8,0:2:0:0:
268,168,8181,1,8,0:2:0:0:
316,92,8373,2,0,L|376:84,2,35,8|8|8,0:2|0:2|0:2,0:0:0:0:
232,68,8758,6,0,L|92:60,1,140,14|10,1:2|1:2,0:0:0:0:
40,136,9335,2,0,P|28:168|56:272,1,140,2|2,1:2|1:2,0:0:0:0:
140,227,9912,1,8,0:2:0:0:
221,271,10104,2,0,P|288:275|356:218,2,140,6|2|6,1:2|1:2|1:2,0:0:0:0:
140,227,11066,1,8,0:2:0:0:
135,131,11258,1,8,0:2:0:0:
221,74,11450,1,8,0:2:0:0:
221,74,11546,1,8,0:2:0:0:
221,74,11642,1,8,0:2:0:0:
300,115,11835,6,0,L|460:107,1,140,14|8,1:2|1:2,0:0:0:0:
386,197,12412,2,0,L|226:205,1,140,2|2,1:2|1:2,0:0:0:0:
232,332,12989,2,0,P|262:268|244:201,1,140,8|10,1:2|0:2,0:0:0:0:
105,210,13566,2,0,L|258:202,1,140,0|0,1:2|1:2,0:0:0:0:
275,108,14142,2,0,L|279:72,2,35,0|0|0,1:2|0:0|1:2,0:0:0:0:
186,127,14527,1,8,1:2:0:0:
186,127,14623,1,8,1:2:0:0:
186,127,14719,1,8,1:2:0:0:
256,192,14912,12,12,16450,1:2:0:0:
256,192,16835,5,0,1:0:0:0:
256,192,17027,1,12,1:2:0:0:
256,192,17604,2,0,L|328:200,1,70,0|4,1:0|0:3,0:0:0:0:
412,160,17989,6,0,L|436:312,1,140,4|8,1:2|0:0,0:0:0:0:
346,339,18566,2,0,L|323:189,1,140,0|0,0:0|1:0,0:0:0:0:
272,114,19142,2,0,P|233:111|186:124,1,70,8|0,0:0|0:0,0:0:0:0:
135,182,19527,2,0,P|139:242|151:262,1,70,0|0,1:0|0:0,0:0:0:0:
108,336,19912,2,0,L|268:324,1,140,8|0,0:0|1:0,0:0:0:0:
336,353,20489,2,0,P|339:308|319:265,1,70,0|8,1:0|0:0,0:0:0:0:
271,216,20873,1,0,0:0:0:0:
316,140,21066,6,0,L|404:156,1,70,4|0,1:2|0:0,0:0:0:0:
456,100,21450,1,8,0:0:0:0:
456,100,21642,2,0,L|472:260,1,140,0|0,0:0|1:0,0:0:0:0:
392,284,22219,2,0,P|324:268|236:296,1,140,8|0,0:0|1:0,0:0:0:0:
155,362,22796,2,0,P|137:326|137:290,1,70,0|8,0:0|0:0,0:0:0:0:
166,195,23181,1,0,0:0:0:0:
264,144,23373,2,0,P|272:184|261:234,1,70,0|0,1:0|1:0,0:0:0:0:
251,349,23758,2,0,P|296:343|326:330,1,70,8|0,0:0|0:0,0:0:0:0:
388,244,24142,6,0,B|394:206|394:206|370:101,1,140,4|8,1:2|0:0,0:0:0:0:
414,28,24719,2,0,P|341:70|268:62,1,140,0|0,0:0|1:0,0:0:0:0:
195,42,25296,1,8,0:0:0:0:
103,16,25489,1,0,0:0:0:0:
28,78,25681,2,0,P|46:121|46:166,1,70,0|0,1:0|0:0,0:0:0:0:
124,267,26066,2,0,L|138:191,1,70,8|0,0:0|0:0,0:0:0:0:
150,102,26450,1,0,1:0:0:0:
251,156,26642,1,0,1:0:0:0:
350,100,26835,2,0,L|430:116,1,70,8|0,0:0|0:0,0:0:0:0:
492,200,27219,6,0,L|348:220,1,140,4|8,1:2|0:0,0:0:0:0:
264,168,27796,2,0,P|256:236|308:312,1,140,0|0,0:0|0:0,0:0:0:0:
352,344,28373,1,8,0:0:0:0:
352,344,28566,2,0,P|292:320|196:352,1,140,4|0,1:2|1:0,0:0:0:0:
129,363,29142,1,8,0:0:0:0:
49,311,29335,1,0,0:0:0:0:
34,220,29527,2,0,L|-22:228,2,35,8|8|0,1:2|0:0|1:0,0:0:0:0:
108,156,29912,1,8,0:0:0:0:
124,156,30008,1,0,0:0:0:0:
140,156,30104,1,0,1:0:0:0:
156,156,30200,1,0,0:0:0:0:
176,156,30296,6,0,L|316:156,1,140,4|8,1:2|0:0,0:0:0:0:
353,279,30873,2,0,P|315:234|331:130,1,140,0|0,0:0|1:0,0:0:0:0:
405,195,31450,1,8,0:0:0:0:
232,256,31642,1,0,0:0:0:0:
157,189,31835,2,0,P|148:144|161:106,1,70,0|0,1:0|0:0,0:0:0:0:
335,219,32219,2,0,P|344:264|331:302,1,70,8|0,0:0|0:0,0:0:0:0:
224,147,32604,2,0,P|252:123|296:115,1,70,0|0,1:0|1:0,0:0:0:0:
268,260,32989,2,0,P|240:284|196:292,1,70,8|0,0:0|0:0,0:0:0:0:
40,224,33373,6,0,L|132:232,1,70,4|0,1:2|0:0,0:0:0:0:
192,196,33758,1,8,0:0:0:0:
268,260,33950,2,0,B|284:212|284:212|264:108,1,140,0|0,0:0|1:0,0:0:0:0:
200,64,34527,2,0,B|264:84|264:84|360:68,1,140,8|0,0:0|1:0,0:0:0:0:
432,40,35104,2,0,B|444:76|444:76|440:136,1,70,0|8,0:0|0:0,0:0:0:0:
384,184,35489,1,0,0:0:0:0:
440,264,35681,2,0,L|448:344,1,70,0|0,1:0|1:0,0:0:0:0:
356,304,36066,2,0,P|303:337|269:346,1,70,8|0,0:0|0:0,0:0:0:0:
164,268,36450,6,0,P|252:272|316:232,1,140,4|8,1:2|0:0,0:0:0:0:
278,116,37027,2,0,P|274:204|314:268,1,140,0|0,1:0|1:0,0:0:0:0:
382,298,37604,1,8,0:0:0:0:
296,339,37796,2,0,L|139:352,1,140,4|0,1:2|1:0,0:0:0:0:
108,264,38373,1,8,0:0:0:0:
108,264,38566,2,0,L|185:257,1,70,0|0,0:0|1:0,0:0:0:0:
239,187,38950,1,0,1:0:0:0:
169,128,39142,2,0,P|234:96|283:110,1,105,8|0,0:0|0:0,0:0:0:0:
302,138,39527,6,0,L|318:43,1,70,4|0,1:2|0:0,0:0:0:0:
390,8,39912,1,8,0:0:0:0:
390,8,40104,2,0,L|400:101,1,70,4|0,1:2|0:0,0:0:0:0:
476,140,40489,1,0,0:0:0:0:
392,168,40681,2,0,B|397:205|375:233|375:233|404:284|385:322,1,140,4|0,1:2|1:0,0:0:0:0:
313,337,41258,1,12,0:3:0:0:
230,305,41450,1,0,0:0:0:0:
140,328,41642,2,0,L|50:337,1,70,0|0,1:3|0:0,0:0:0:0:
15,231,42027,2,0,L|84:237,1,70,0|0,1:0|1:0,0:0:0:0:
118,148,42412,1,0,0:0:0:0:
184,68,42604,6,0,P|208:108|376:32,1,280,6|0,1:2|1:0,0:0:0:0:
115,15,43758,1,2,1:2:0:0:
64,88,43950,1,2,0:2:0:0:
82,177,44142,2,0,P|74:217|78:253,1,70,6|0,1:2|0:0,0:0:0:0:
164,221,44527,1,0,1:0:0:0:
164,221,44719,1,0,0:0:0:0:
241,173,44912,2,0,P|249:209|245:246,1,70,0|0,1:0|0:0,0:0:0:0:
348,323,45296,2,0,P|332:291|328:247,1,70,2|2,1:2|0:2,0:0:0:0:
361,128,45681,6,0,P|361:196|313:272,1,140,6|0,1:2|1:0,0:0:0:0:
337,348,46258,2,0,P|307:278|237:264,1,140,2|2,0:2|0:2,0:0:0:0:
169,308,46835,1,0,1:0:0:0:
85,264,47027,2,0,L|101:108,1,140,2|2,0:2|0:2,0:0:0:0:
183,80,47604,1,0,1:0:0:0:
269,120,47796,2,0,P|321:132|353:132,1,70,2|0,0:2|1:0,0:0:0:0:
431,74,48181,2,0,L|423:166,1,70,2|8,0:2|1:2,0:0:0:0:
455,222,48566,1,0,0:0:0:0:
252,320,48758,6,0,L|384:252,1,140,6|8,1:2|0:2,0:0:0:0:
176,258,49335,2,0,L|312:190,1,140,6|8,1:2|0:2,0:0:0:0:
347,112,49912,1,0,1:2:0:0:
347,112,50008,1,0,0:0:0:0:
347,112,50104,6,0,B|323:73|265:73|265:73|250:25,1,140,14|2,1:2|1:2,0:0:0:0:
194,148,50681,1,8,0:0:0:0:
92,197,50873,2,0,P|72:259|103:340,1,140,6|0,1:2|1:0,0:0:0:0:
209,259,51450,1,8,0:0:0:0:
318,334,51642,1,0,1:0:0:0:
432,268,51835,6,0,L|448:104,1,140,8|0,0:0|1:0,0:0:0:0:
348,32,52412,2,0,L|341:101,1,70,8|0,0:0|1:0,0:0:0:0:
276,172,52796,1,0,1:0:0:0:
192,140,52989,1,8,1:2:0:0:
104,172,53181,2,0,B|108:240|108:240|84:320,1,140,4|4,0:2|1:2,0:0:0:0:
8,272,53758,1,4,1:2:0:0:
10,119,53950,6,0,P|46:112|88:120,1,70,4|2,1:2|0:0,0:0:0:0:
120,212,54335,1,4,1:3:0:0:
219,207,54527,1,4,0:2:0:0:
215,81,54719,6,0,P|243:137|218:209,1,140,6|0,1:2|1:0,0:0:0:0:
112,280,55296,2,0,P|110:247|124:204,1,70,8|0,1:2|3:2,0:0:0:0:
192,312,55681,1,0,1:2:0:0:
269,268,55873,1,0,0:2:0:0:
338,330,56066,1,8,1:2:0:0:
338,330,56258,2,0,P|352:244|335:179,1,140,0|0,1:2|1:2,0:0:0:0:
274,130,56835,1,8,1:2:0:0:
200,72,57027,6,0,L|164:56,2,35,0|0|2,3:2|3:2|1:2,0:0:0:0:
292,44,57412,1,0,1:2:0:0:
380,16,57604,1,8,1:2:0:0:
380,16,57796,2,0,L|356:160,1,140,6|0,1:2|1:2,0:0:0:0:
221,166,58373,2,0,P|296:144|377:162,1,140,8|2,1:2|1:2,0:0:0:0:
366,294,58950,2,0,P|329:311|290:314,1,70,0|8,1:2|1:2,0:0:0:0:
143,275,59335,2,0,P|209:247|303:245,1,140,0|0,3:2|1:2,0:0:0:0:
374,221,59912,1,8,1:2:0:0:
307,156,60104,2,0,L|223:148,2,70,0|2|0,3:2|1:2|1:2,0:0:0:0:
403,118,60681,1,8,1:2:0:0:
403,118,60873,1,0,3:2:0:0:
445,216,61066,6,0,L|301:230,1,140,6|8,1:2|1:2,0:0:0:0:
214,292,61642,2,0,P|190:236|234:148,1,140,0|0,3:2|1:2,0:0:0:0:
367,139,62219,2,0,L|271:123,1,70,8|0,1:2|3:2,0:0:0:0:
197,25,62604,2,0,L|217:184,1,140,6|8,1:2|1:2,0:0:0:0:
214,292,63181,2,0,B|247:254|290:251|290:251|327:271|363:264,1,140,0|0,3:2|1:2,0:0:0:0:
434,305,63758,1,8,1:2:0:0:
444,196,63950,6,0,L|420:44,1,140,0|0,1:2|1:2,0:0:0:0:
316,148,64527,2,0,P|312:200|304:224,1,70,8|0,1:2|0:2,0:0:0:0:
184,112,64912,2,0,P|188:60|196:36,1,70,2|0,1:2|1:2,0:0:0:0:
233,211,65296,2,0,P|197:223|157:219,1,70,8|6,1:2|1:2,0:0:0:0:
84,128,65681,1,0,0:2:0:0:
176,144,65873,1,2,1:2:0:0:
240,72,66066,2,0,L|320:76,1,70,10|2,1:2|0:2,0:0:0:0:
412,44,66450,1,0,3:2:0:0:
416,80,66546,1,0,0:0:0:0:
420,116,66642,1,0,3:2:0:0:
424,152,66739,1,0,3:2:0:0:
428,188,66835,1,8,3:2:0:0:
425,295,67027,6,0,P|361:331|278:309,1,140,6|0,1:2|0:2,0:0:0:0:
176,212,67604,2,0,P|232:220|260:236,1,70,8|0,1:2|0:2,0:0:0:0:
122,307,67989,2,0,P|66:299|38:283,1,70,10|0,1:2|0:2,0:0:0:0:
65,203,68373,1,8,1:2:0:0:
10,128,68566,2,0,P|52:111|95:114,2,70,0|10|0,0:2|1:2|0:2,0:0:0:0:
144,232,69142,2,0,L|240:216,1,70,8|0,1:2|0:2,0:0:0:0:
307,260,69527,1,10,1:2:0:0:
396,204,69719,2,0,L|384:124,1,70,0|8,0:2|1:2,0:0:0:0:
312,56,70104,6,0,B|240:68|240:68|172:48,1,140,6|0,1:2|1:2,0:0:0:0:
86,144,70681,2,0,B|121:137|121:137|164:149,1,70,8|0,1:2|0:2,0:0:0:0:
136,304,71066,2,0,B|130:268|130:268|139:218,1,70,10|0,1:2|0:2,0:0:0:0:
228,280,71450,1,8,1:2:0:0:
316,256,71642,2,0,B|320:228|320:228|288:176|334:104,1,140,4|0,1:2|1:2,0:0:0:0:
406,179,72219,1,10,1:2:0:0:
216,184,72412,2,0,B|152:204|152:204|72:184,1,140,0|0,0:2|0:2,0:0:0:0:
152,92,72989,1,10,1:2:0:0:
152,92,73085,1,0,3:2:0:0:
152,92,73181,1,0,3:2:0:0:
216,184,73373,6,0,L|184:344,1,140,6|8,1:2|1:2,0:0:0:0:
304,160,73950,2,0,L|272:312,1,140,2|0,3:2|0:2,0:0:0:0:
360,366,74527,2,0,L|378:287,1,70,10|0,1:2|3:2,0:0:0:0:
423,104,74912,5,6,1:2:0:0:
423,104,76066,1,6,1:2:0:0:
314,117,76450,6,0,B|306:85|306:85|310:37,1,70,6|0,1:2|0:0,0:0:0:0:
229,8,76835,1,8,1:2:0:0:
98,95,77027,2,0,B|174:107|174:107|242:83,1,140,2|2,1:2|1:2,0:0:0:0:
253,183,77604,1,8,0:2:0:0:
156,189,77796,2,0,B|80:177|80:177|12:201,1,140,6|2,1:2|1:2,0:0:0:0:
15,292,78373,1,8,0:2:0:0:
109,331,78566,1,14,1:2:0:0:
187,274,78758,1,8,0:2:0:0:
263,306,78950,2,0,L|269:386,2,70,8|8|8,2:0|0:2|0:2,0:0:0:0:
365,287,79527,6,0,L|377:196,1,70,14|0,1:2|0:0,0:0:0:0:
277,131,79912,2,0,L|289:222,1,70,10|2,0:2|1:2,0:0:0:0:
378,117,80296,2,0,L|390:26,1,70,8|2,0:2|1:2,0:0:0:0:
463,140,80681,2,0,L|468:225,1,70,8|2,0:2|1:2,0:0:0:0:
501,309,81066,2,0,B|467:316|467:316|423:307,1,70,10|2,0:0|1:2,0:0:0:0:
312,230,81450,2,0,B|346:223|346:223|390:232,1,70,8|0,0:2|1:2,0:0:0:0:
343,326,81835,2,0,L|345:381,2,35,10|0|0,1:2|0:0|1:2,0:0:0:0:
243,305,82219,1,8,1:2:0:0:
243,305,82316,1,8,0:2:0:0:
243,305,82412,1,8,0:2:0:0:
171,363,82604,6,0,P|92:358|28:298,1,140,6|0,1:2|0:0,0:0:0:0:
39,226,83181,1,0,1:2:0:0:
138,181,83373,2,0,B|129:265,1,70,0|0,1:2|1:2,0:0:0:0:
36,137,83758,2,0,B|27:53,1,70,10|10,1:2|1:2,0:0:0:0:
122,27,84142,2,0,P|177:18|269:61,1,140,4|0,1:2|1:2,0:0:0:0:
254,47,84719,1,12,1:2:0:0:
322,198,85296,70,0,B|247:157|269:230|178:183,1,140,12|4,2:2|1:1,0:0:0:0:
256,192,85777,12,0,92604,0:2:0:0:
