osu file format v14

[General]
AudioFilename: audio.mp3
AudioLeadIn: 0
PreviewTime: 53854
Countdown: 0
SampleSet: Soft
StackLeniency: 0.7
Mode: 0
LetterboxInBreaks: 0
WidescreenStoryboard: 0

[Editor]
DistanceSpacing: 1
BeatDivisor: 4
GridSize: 4
TimelineZoom: 1.6

[Metadata]
Title:Natsumeku Sakamichi (TV Size)
TitleUnicode:夏めく坂道 (TV Size)
Artist:Daisuke
ArtistUnicode:ダイスケ
Creator:leo16834
Version:Easy
Source:ポケットモンスター ベストウイッシュ シーズン2 デコロラアドベンチャー
Tags:Pokemon pocket monster black and white best wishes Satoshi Pikachu Pokémon gary00737 Anime Japanese
BeatmapID:1276748
BeatmapSetID:596618

[Difficulty]
HPDrainRate:1
CircleSize:2
OverallDifficulty:2
ApproachRate:3
SliderMultiplier:1
SliderTickRate:1

[Events]
//Background and Video events
Video,716,"Pokemon Best Wishes Da! Opening Japanese.AVI"
0,0,"BW142.jpg",0,0
//Break Periods
2,42604,47318
//Storyboard Layer 0 (Background)
//Storyboard Layer 1 (Fail)
//Storyboard Layer 2 (Pass)
//Storyboard Layer 3 (Foreground)
//Storyboard Layer 4 (Overlay)
//Storyboard Sound Samples

[TimingPoints]
1066,384.615384615385,4,2,22,60,1,0
2604,-100,4,2,22,83,0,0
12218,-100,4,2,22,83,0,0
17989,-100,4,2,22,60,0,0
27603,-100,4,2,22,60,0,0
39526,-100,4,2,22,65,0,0
41835,-100,4,2,22,83,0,0
42604,-100,4,2,22,60,0,0
48373,-100,4,2,22,70,0,0
54142,-100,4,2,22,83,0,0
54719,-100,4,2,22,83,0,1
58084,-100,4,2,22,5,0,1
58180,-100,4,2,22,83,0,1
64238,-100,4,2,22,5,0,1
64334,-100,4,2,22,83,0,1
67315,-100,4,2,22,5,0,1
67411,-100,4,2,22,83,0,1
70392,-100,4,2,22,5,0,1
70488,-100,4,2,22,83,0,1
76450,-100,4,2,22,83,0,0
77026,-100,4,2,22,83,0,0
78179,-100,4,2,22,83,0,0
85104,-100,4,2,22,83,0,0
85296,-100,4,2,22,83,0,0
92604,-100,4,2,22,5,0,0

[Colours]
Combo1 : 83,83,83
Combo2 : 255,255,81
Combo3 : 128,255,128
Combo4 : 255,128,64
Combo5 : 255,106,106
Combo6 : 0,255,255
Combo7 : 192,192,192

[HitObjects]
116,88,2604,6,0,B|116:160|68:200|68:200|124:228|148:308,1,250,6|2,0:2|1:2,0:0:0:0:
237,259,3950,2,0,B|309:259|349:307|349:307|369:255|455:226,1,250,6|8,1:2|1:2,0:0:0:0:
444,130,5296,1,8,1:2:0:0:
369,64,5681,6,0,B|290:64|290:64|265:128|209:144|137:104,1,250,6|2,1:2|1:2,0:0:0:0:
84,184,7027,2,0,B|101:235|101:235|80:296,1,100,6|2,1:2|1:2,0:0:0:0:
174,324,7796,2,0,P|258:332|327:325,1,150,6|8,1:2|0:2,0:0:0:0:
417,292,8758,6,0,P|431:222|422:135,1,150,14|2,1:2|1:2,0:0:0:0:
351,75,9719,1,2,1:2:0:0:
287,152,10104,2,0,P|237:151|189:118,1,100,6|2,1:2|1:2,0:0:0:0:
172,28,10873,2,0,B|116:12|66:18|21:42,1,150,6|8,1:2|0:2,0:0:0:0:
22,137,11835,6,0,P|14:189|22:237,1,100,14|8,1:2|1:2,0:0:0:0:
83,314,12604,2,0,B|135:322|135:322|191:314,1,100,8|8,0:2|1:2,0:0:0:0:
213,220,13373,2,0,B|161:212|161:212|105:220,1,100,10|8,0:2|1:2,0:0:0:0:
84,124,14142,2,0,P|72:64|96:8,1,100,8|8,1:2|1:2,0:0:0:0:
256,192,14912,12,12,16450,1:2:0:0:
392,42,17989,6,0,P|369:138|423:217,1,200,4|0,1:2|1:0,0:0:0:0:
404,315,19142,1,8,0:0:0:0:
314,269,19527,2,0,L|114:269,1,200,0|0,1:0|1:0,0:0:0:0:
123,169,20681,1,8,0:0:0:0:
211,121,21066,6,0,B|228:61|228:61|210:13,2,100,4|8|0,1:2|0:0|1:0,0:0:0:0:
292,178,22219,1,8,0:0:0:0:
352,96,22604,2,0,P|396:184|336:268,1,200,0|0,1:0|1:0,0:0:0:0:
256,219,23758,1,8,0:0:0:0:
164,259,24142,6,0,B|143:208|169:163|169:163|141:114|163:55,1,200,4|0,1:2|1:0,0:0:0:0:
235,1,25296,1,8,0:0:0:0:
254,100,25681,2,0,P|306:104|366:96,2,100,0|8|0,1:0|0:0|1:0,0:0:0:0:
158,67,26835,1,8,0:0:0:0:
65,28,27219,6,0,P|59:83|82:143,1,100,4|8,1:2|0:0,0:0:0:0:
20,211,27989,2,0,P|116:217|166:167,1,150,0|4,1:0|1:2,0:0:0:0:
276,98,29142,1,8,0:0:0:0:
358,154,29527,2,0,P|370:214|362:262,1,100,8|8,1:2|0:0,0:0:0:0:
297,326,30296,6,0,P|202:353|149:340,2,150,4|0|8,1:2|0:0|0:0,0:0:0:0:
381,276,31835,2,0,B|389:224|389:224|381:168,1,100,0|8,1:0|0:0,0:0:0:0:
291,129,32604,2,0,B|283:181|283:181|291:237,1,100,0|8,1:0|0:0,0:0:0:0:
205,281,33373,2,0,P|132:294|52:270,2,150,4|0|8,1:2|0:0|0:0,0:0:0:0:
289,227,34912,2,8,P|346:224|425:343,1,200,0|0,1:0|1:0,0:0:0:0:
326,326,36066,1,8,0:0:0:0:
228,347,36450,6,0,L|116:347,1,100,4|8,1:2|0:0,0:0:0:0:
28,357,37219,2,0,B|9:302|24:253|24:253|76:225,1,150,0|4,0:0|1:2,0:0:0:0:
191,168,38373,1,8,0:0:0:0:
279,119,38758,2,0,P|291:175|267:235,1,100,0|8,1:0|0:0,0:0:0:0:
196,278,39527,2,0,P|102:266|61:231,1,150,4|4,1:2|1:2,0:0:0:0:
64,83,40681,1,4,1:2:0:0:
49,51,48758,6,0,L|210:63,1,150,6|6,1:2|1:2,0:0:0:0:
262,139,49719,1,8,0:2:0:0:
321,58,50104,2,0,P|375:44|428:51,1,100,14|2,1:2|1:2,0:0:0:0:
469,134,50873,2,0,L|459:294,1,150,6|8,1:2|0:0,0:0:0:0:
373,335,51835,6,0,P|287:289|173:312,1,200,8|0,0:0|1:0,0:0:0:0:
192,153,53181,2,0,B|226:146|256:120|256:120|286:149|325:153,1,150,4|4,0:2|1:2,0:0:0:0:
339,54,54142,1,2,0:0:0:0:
473,121,54719,6,0,L|469:285,1,150,6|8,1:2|1:2,0:0:0:0:
374,301,55681,2,0,B|313:304|282:276|282:276|230:264,2,150,0|0|8,1:2|1:2|1:2,0:0:0:0:
353,202,57219,2,0,B|357:158|357:158|338:111|336:54,1,150,2|6,1:2|1:2,0:0:0:0:
199,116,58373,1,8,1:2:0:0:
100,101,58758,6,0,B|95:158|129:191|129:191|145:246,1,150,2|0,1:2|3:2,0:0:0:0:
241,217,59719,2,0,B|286:217|286:217|309:217|346:248|346:248|401:245,1,150,0|2,1:2|1:2,0:0:0:0:
347,339,60681,1,8,1:2:0:0:
250,314,61066,6,0,B|206:314|206:314|155:289|155:289|86:289,2,150,6|0|8,1:2|3:2|1:2,0:0:0:0:
241,217,62604,2,0,B|285:217|285:217|336:242|336:242|399:242,2,150,6|0|8,1:2|3:2|1:2,0:0:0:0:
149,255,64142,6,0,P|100:246|61:215,1,100,0|8,1:2|1:2,0:0:0:0:
57,111,64912,2,0,P|103:77|154:73,1,100,2|8,1:2|1:2,0:0:0:0:
235,112,65681,2,0,B|267:101|267:101|286:107|286:107|303:114|303:114|368:66|485:129,1,250,0|0,0:2|3:2,0:0:0:0:
443,215,67027,6,0,B|411:275|427:327|427:327|423:375,1,150,6|8,1:2|1:2,0:0:0:0:
326,338,67989,2,0,B|266:306|214:322|214:322|180:319,2,150,10|0|8,1:2|0:2|1:2,0:0:0:0:
314,238,69527,2,0,B|322:170|358:130|358:130|348:100,1,150,10|6,1:2|1:2,0:0:0:0:
197,99,70681,5,8,1:2:0:0:
128,171,71066,2,0,B|144:221|144:221|125:272|144:323,1,150,10|4,1:2|1:2,0:0:0:0:
233,275,72027,1,0,1:2:0:0:
328,244,72412,2,0,L|444:252,1,100,0|2,1:2|0:2,0:0:0:0:
336,122,73373,6,0,B|390:84|451:120|451:120|489:117,2,150,6|2|10,1:2|3:2|1:2,0:0:0:0:
252,177,74912,1,6,1:2:0:0:
131,26,76066,1,6,1:2:0:0:
47,80,76450,6,0,L|60:348,1,250,6|2,1:2|1:2,0:0:0:0:
155,374,77796,2,0,L|159:259,1,100,6|2,1:2|1:2,0:0:0:0:
258,277,78566,2,0,L|252:118,1,150,14|8,1:2|0:2,0:0:0:0:
152,113,79527,6,0,L|161:-9,2,100,14|10|8,1:2|0:2|0:2,0:0:0:0:
187,204,80681,1,8,0:2:0:0:
252,127,81066,2,10,P|328:127|360:111,2,100,10|8|10,0:0|0:2|1:2,0:0:0:0:
219,32,82219,1,8,1:2:0:0:
121,55,82604,6,0,L|113:171,1,100,6|0,1:2|1:2,0:0:0:0:
160,243,83373,2,0,L|278:224,1,100,0|10,1:2|1:2,0:0:0:0:
252,127,84142,2,0,B|300:127|300:127|340:163|416:159,2,150,4|12|12,1:2|1:2|2:2,0:0:0:0:
256,192,85681,12,0,92604,0:2:0:0:
