osu file format v14

[General]
AudioFilename: audio.mp3
AudioLeadIn: 0
PreviewTime: 50078
Countdown: 0
SampleSet: None
StackLeniency: 0.5
Mode: 0
LetterboxInBreaks: 0
WidescreenStoryboard: 0

[Editor]
DistanceSpacing: 0.6
BeatDivisor: 4
GridSize: 8
TimelineZoom: 2

[Metadata]
Title:Moshimo (TV Size)
TitleUnicode:Moshimo (TV Size)
Artist:Daisuke
ArtistUnicode:ダイスケ
Creator:missa1912
Version:Dream
Source:NARUTO-ナルト-疾風伝
Tags:shippuuden shippuden opening op 12 Frost b_r_o_k_e_n broken O-Moei
BeatmapID:985413
BeatmapSetID:460046

[Difficulty]
HPDrainRate:6
CircleSize:4
OverallDifficulty:8.5
ApproachRate:9
SliderMultiplier:1.6
SliderTickRate:1

[Events]
//Background and Video events
0,0,"BGN.jpg",0,0
Video,-1018,"moshimo.avi"
//Break Periods
//Storyboard Layer 0 (Background)
//Storyboard Layer 1 (Fail)
//Storyboard Layer 2 (Pass)
//Storyboard Layer 3 (Foreground)
//Storyboard Sound Samples

[TimingPoints]
667,375,4,2,1,65,1,0
5917,-100,4,3,1,65,0,0
6667,-100,4,3,1,70,0,0
12573,-100,4,2,1,5,0,0
12667,-100,4,2,1,75,0,0
21573,-100,4,2,1,5,0,0
21667,-100,4,2,1,75,0,0
23167,-100,4,3,1,65,0,0
24104,-100,4,1,1,60,0,0
24667,-100,4,2,1,75,0,0
35167,-100,4,3,1,70,0,0
36667,-100,4,3,1,65,0,0
39292,-76.9230769230769,4,3,1,65,0,0
39667,-100,4,3,1,65,0,0
42292,-100,4,1,1,55,0,0
42667,-100,4,3,1,65,0,0
45667,-100,4,3,1,70,0,0
50167,-83.3333333333333,4,3,1,70,0,1
68167,-83.3333333333333,4,3,1,65,0,1
74167,-83.3333333333333,4,3,1,70,0,1
78667,-100,4,3,1,65,0,0
79042,-66.6666666666667,4,2,1,45,0,0
79604,-83.3333333333333,4,3,1,70,0,0
86167,-133.333333333333,4,3,1,65,0,0
86260,-100,4,2,1,40,0,0
86542,-100,4,2,1,55,0,0
86917,-100,4,2,1,70,0,0
87292,-100,4,2,1,5,0,0
87479,-133.333333333333,4,3,1,70,0,0

[Colours]
Combo1 : 195,106,22
Combo2 : 63,65,124
Combo3 : 255,239,136
Combo4 : 108,54,90

[HitObjects]
130,235,479,21,0,0:0:0:0:
130,235,572,1,0,0:0:0:0:
130,235,667,2,0,P|186:260|277:229,1,160,2|0,0:0|0:0,0:0:0:0:
200,160,1229,1,2,0:0:0:0:
100,140,1417,2,0,P|43:187|48:285,1,160
130,235,1979,1,0,0:0:0:0:
244,357,2167,5,2,0:0:0:0:
223,190,2354,1,0,0:0:0:0:
141,338,2542,1,0,0:0:0:0:
294,265,2729,1,2,0:0:0:0:
130,235,2917,2,0,P|124:160|185:93,1,160,0|2,0:0|0:0,0:0:0:0:
256,96,3479,1,0,0:0:0:0:
309,232,3667,6,0,P|304:144|254:95,1,160,2|0,0:0|0:0,0:0:0:0:
214,249,4229,2,0,P|265:313|355:318,1,160,2|0,0:0|0:0,0:0:0:0:
416,227,4792,1,2,0:0:0:0:
309,232,4979,1,0,0:0:0:0:
406,116,5167,5,2,0:0:0:0:
416,101,5354,1,0,0:0:0:0:
175,97,5542,5,2,0:0:0:0:
190,112,5729,1,0,0:0:0:0:
301,0,5917,5,0,0:0:0:0:
406,116,6104,1,0,0:0:0:0:
175,97,6292,1,8,0:0:0:0:
292,304,6479,1,8,0:0:0:0:
311,283,6573,1,8,0:0:0:0:
330,261,6667,6,0,L|294:168,1,80,8|0,0:0|0:0,0:0:0:0:
235,364,7042,1,0,0:0:0:0:
449,228,7229,1,8,0:0:0:0:
241,139,7417,1,0,0:0:0:0:
235,364,7604,1,0,0:0:0:0:
69,163,7792,5,8,0:0:0:0:
76,118,7885,1,0,0:0:0:0:
105,82,7979,1,0,0:0:0:0:
149,71,8073,1,0,0:0:0:0:
193,81,8167,6,0,P|233:105|269:115,1,80,8|0,0:0|0:0,0:0:0:0:
391,110,8542,1,0,0:0:0:0:
198,233,8729,1,8,0:0:0:0:
358,238,8917,1,0,0:0:0:0:
264,114,9104,1,0,0:0:0:0:
272,344,9292,1,8,0:0:0:0:
380,213,9479,1,0,0:0:0:0:
123,111,9667,6,0,L|38:131,1,80,8|0,0:0|0:0,0:0:0:0:
201,231,10042,1,0,0:0:0:0:
27,208,10229,1,8,0:0:0:0:
242,232,10417,1,0,0:0:0:0:
99,305,10604,1,0,0:0:0:0:
242,232,10792,5,8,0:0:0:0:
283,232,10885,1,0,0:0:0:0:
325,232,10979,1,0,0:0:0:0:
366,232,11073,1,0,0:0:0:0:
408,232,11167,5,8,0:0:0:0:
512,26,11354,1,8,0:0:0:0:
459,127,11729,5,8,0:0:0:0:
408,232,12104,5,8,0:0:0:0:
319,7,12292,2,0,L|288:155,1,120,8|0,0:0|0:0,0:0:0:0:
217,83,12667,6,0,P|175:76|106:78,1,80,4|0,0:0|0:0,0:0:0:0:
151,266,13042,2,0,L|184:160,1,80,8|0,0:0|0:0,0:0:0:0:
294,124,13417,1,0,0:0:0:0:
174,189,13604,1,0,0:0:0:0:
264,315,13792,1,8,0:0:0:0:
151,266,13979,1,0,0:0:0:0:
379,215,14167,6,0,P|336:223|291:242,1,80
432,361,14542,2,0,L|462:254,1,80,8|0,0:0|0:0,0:0:0:0:
302,236,14917,1,0,0:0:0:0:
470,193,15104,1,0,0:0:0:0:
337,348,15292,1,8,0:0:0:0:
380,171,15479,1,0,0:0:0:0:
206,290,15667,6,0,P|155:222|177:139,1,160,2|8,0:0|0:0,0:0:0:0:
227,73,16229,2,0,B|268:80|268:80|342:53|342:53|395:62,1,160,2|0,0:0|0:0,0:0:0:0:
315,241,16792,1,10,0:0:0:0:
337,142,16979,1,0,0:0:0:0:
303,281,17167,6,0,B|298:309|276:360,1,80
257,152,17542,1,8,0:0:0:0:
375,316,17729,1,8,0:0:0:0:
202,276,17917,1,0,0:0:0:0:
202,276,18104,1,0,0:0:0:0:
358,180,18292,1,8,0:0:0:0:
285,329,18479,1,0,0:0:0:0:
138,150,18667,6,0,P|97:137|50:130,1,80,8|0,0:0|0:0,0:0:0:0:
202,276,19042,1,8,0:0:0:0:
293,179,19229,1,0,0:0:0:0:
223,96,19417,2,0,P|216:78|217:17,1,80
202,276,19792,2,0,P|212:224|203:170,1,80,8|0,0:0|0:0,0:0:0:0:
229,374,20167,5,0,0:0:0:0:
132,248,20354,1,0,0:0:0:0:
272,296,20542,2,0,P|324:280|359:248,1,80,8|0,0:0|0:0,0:0:0:0:
211,198,20917,1,0,0:0:0:0:
336,117,21104,1,0,0:0:0:0:
443,312,21292,2,0,P|389:265|341:265,1,120,8|0,0:0|0:0,0:0:0:0:
343,264,21667,6,0,P|366:215|335:116,1,160,2|8,0:0|0:0,0:0:0:0:
255,265,22229,2,0,P|291:334|367:349,2,160,2|2|0,0:0|0:0|0:0,0:0:0:0:
336,117,23167,5,0,0:0:0:0:
255,265,23354,1,0,0:0:0:0:
257,59,23542,1,8,0:0:0:0:
342,224,23729,1,0,0:0:0:0:
162,85,23917,2,0,P|122:86|87:104,1,80
67,137,24198,5,0,1:0:0:0:
64,177,24292,1,0,1:0:0:0:
83,211,24385,1,0,1:0:0:0:
116,232,24479,1,0,1:0:0:0:
156,234,24573,1,0,1:0:0:0:
193,220,24667,6,0,P|236:202|282:198,1,80,4|0,0:0|0:0,0:0:0:0:
342,344,25042,1,0,0:0:0:0:
180,311,25229,1,0,0:0:0:0:
375,213,25417,1,0,0:0:0:0:
176,124,25604,2,0,P|124:152|98:195,1,80,0|8,0:0|0:0,0:0:0:0:
261,326,25979,1,0,0:0:0:0:
306,135,26167,6,0,P|302:100|284:38,1,80
180,311,26542,1,8,0:0:0:0:
335,286,26729,1,0,0:0:0:0:
189,208,26917,1,0,0:0:0:0:
306,135,27104,1,0,0:0:0:0:
261,326,27292,1,8,0:0:0:0:
100,199,27479,1,0,0:0:0:0:
331,370,27667,5,0,0:0:0:0:
306,135,27854,2,0,P|264:108|217:104,1,80,0|8,0:0|0:0,0:0:0:0:
402,238,28229,2,0,P|445:204|463:169,1,80
240,194,28604,1,0,0:0:0:0:
337,289,28792,1,8,0:0:0:0:
309,95,28979,6,0,P|231:61|153:119,1,160,2|0,0:0|0:0,0:0:0:0:
337,289,29542,1,8,0:0:0:0:
393,117,29729,1,0,0:0:0:0:
239,153,29917,1,8,0:0:0:0:
449,195,30104,1,0,0:0:0:0:
242,251,30292,1,8,0:0:0:0:
367,191,30479,1,0,0:0:0:0:
253,345,30667,6,0,L|173:329,1,80,4|0,0:0|0:0,0:0:0:0:
138,165,31042,1,8,0:0:0:0:
242,251,31229,1,0,0:0:0:0:
69,257,31417,2,0,P|31:225|16:176,1,80
179,69,31792,1,8,0:0:0:0:
151,252,31979,1,0,0:0:0:0:
365,162,32167,5,8,0:0:0:0:
164,158,32354,1,0,0:0:0:0:
258,339,32542,1,8,0:0:0:0:
252,124,32729,1,0,0:0:0:0:
464,200,32917,2,0,P|452:222|318:259,1,160,8|0,0:0|0:0,0:0:0:0:
443,84,33479,1,0,0:0:0:0:
254,219,33667,6,0,B|146:193,1,80
356,73,34042,1,8,0:0:0:0:
332,264,34229,1,0,0:0:0:0:
464,200,34417,1,0,0:0:0:0:
266,134,34604,1,0,0:0:0:0:
443,84,34792,1,8,0:0:0:0:
389,329,34979,1,0,0:0:0:0:
266,134,35167,5,0,0:0:0:0:
214,366,35354,1,0,0:0:0:0:
124,151,35542,1,8,0:0:0:0:
333,266,35729,1,0,0:0:0:0:
89,286,35917,1,0,0:0:0:0:
266,134,36104,5,0,0:0:0:0:
297,116,36198,1,0,0:0:0:0:
332,110,36292,1,8,0:0:0:0:
367,115,36385,1,0,0:0:0:0:
398,132,36479,1,0,0:0:0:0:
433,125,36573,1,0,0:0:0:0:
464,100,36667,6,0,B|468:1,1,80
330,200,37042,1,0,0:0:0:0:
482,225,37229,1,8,0:0:0:0:
331,46,37417,2,0,L|222:25,1,80
187,234,37792,1,8,0:0:0:0:
405,211,37979,1,0,0:0:0:0:
417,190,38073,1,0,0:0:0:0:
430,169,38167,6,0,L|431:71,1,80,8|0,0:0|0:0,0:0:0:0:
271,271,38542,2,0,L|259:373,1,80,8|0,0:0|0:0,0:0:0:0:
224,384,38823,1,0,0:0:0:0:
176,375,38917,1,8,0:0:0:0:
147,337,39010,1,0,0:0:0:0:
159,290,39104,1,0,0:0:0:0:
131,250,39198,1,0,0:0:0:0:
116,199,39292,6,0,L|130:128,1,51.999997619629,8|0,0:0|0:0,0:0:0:0:
306,39,39479,2,0,L|305:100,1,51.999997619629
396,254,39667,6,0,B|429:273|493:286,1,80,8|0,0:0|0:0,0:0:0:0:
512,103,40042,1,0,0:0:0:0:
305,90,40229,1,8,0:0:0:0:
329,312,40417,2,0,L|420:353,1,80
408,142,40792,1,8,0:0:0:0:
238,265,40979,1,0,0:0:0:0:
208,67,41167,5,8,0:0:0:0:
386,228,41354,1,0,0:0:0:0:
386,228,41448,1,0,0:0:0:0:
386,228,41542,1,0,0:0:0:0:
138,282,41729,2,0,L|50:225,1,80,8|0,0:0|0:0,0:0:0:0:
208,67,42104,1,0,0:0:0:0:
318,264,42292,5,0,1:0:0:0:
361,297,42385,1,0,1:0:0:0:
416,296,42479,1,0,1:0:0:0:
458,258,42573,1,0,1:0:0:0:
461,201,42667,6,0,L|407:141,1,80,8|0,0:0|0:0,0:0:0:0:
180,251,43042,1,0,0:0:0:0:
324,370,43229,1,8,0:0:0:0:
331,355,43323,1,0,0:0:0:0:
337,341,43417,2,0,B|317:263,1,80,0|2,0:0|0:0,0:0:0:0:
133,328,43792,1,8,0:0:0:0:
324,370,43979,6,0,L|406:325,1,80,2|0,0:0|0:0,0:0:0:0:
180,251,44354,1,2,0:0:0:0:
323,138,44542,1,0,0:0:0:0:
168,61,44729,1,10,0:0:0:0:
168,61,44823,1,0,0:0:0:0:
168,61,44917,1,0,0:0:0:0:
389,62,45104,5,2,0:0:0:0:
251,215,45292,1,8,0:0:0:0:
453,256,45479,1,0,0:0:0:0:
305,90,45667,5,8,0:0:0:0:
211,324,45854,1,0,0:0:0:0:
372,145,46042,5,0,0:0:0:0:
144,263,46229,1,8,0:0:0:0:
238,40,46416,5,0,0:0:0:0:
294,303,46604,1,8,0:0:0:0:
389,62,46792,5,0,0:0:0:0:
144,263,46979,1,8,0:0:0:0:
95,20,47167,5,8,0:3:0:0:
372,145,47354,1,0,0:3:0:0:
391,138,47542,1,0,0:3:0:0:
97,184,47729,5,8,0:3:0:0:
410,130,47916,1,0,0:3:0:0:
429,123,48104,1,0,0:3:0:0:
275,361,48292,5,8,0:3:0:0:
358,225,48479,1,0,0:3:0:0:
144,263,48667,5,8,0:3:0:0:
475,291,48854,1,8,0:0:0:0:
400,165,49229,5,8,0:0:0:0:
323,42,49604,5,8,0:0:0:0:
292,371,49792,1,12,0:0:0:0:
292,371,50167,6,0,P|306:307|302:264,1,95.9999970703126,4|0,0:0|0:0,0:0:0:0:
165,377,50542,1,8,0:0:0:0:
294,233,50729,1,0,0:0:0:0:
272,189,50823,1,0,0:0:0:0:
232,162,50917,1,4,0:0:0:0:
129,285,51104,1,0,0:0:0:0:
206,91,51292,1,8,0:0:0:0:
294,233,51479,1,0,0:0:0:0:
117,304,51667,6,0,P|73:271|45:214,1,95.9999970703126,4|0,0:0|0:0,0:0:0:0:
206,91,52042,1,8,0:0:0:0:
163,297,52229,1,0,0:0:0:0:
203,271,52323,1,0,0:0:0:0:
232,233,52417,1,4,0:0:0:0:
92,131,52604,1,0,0:0:0:0:
331,124,52792,1,8,0:0:0:0:
169,69,52979,1,0,0:0:0:0:
350,30,53167,6,0,L|328:135,1,95.9999970703126,4|0,0:0|0:0,0:0:0:0:
203,271,53542,2,0,L|186:148,1,95.9999970703126,8|0,0:0|0:0,0:0:0:0:
124,69,53823,1,0,0:0:0:0:
97,92,53917,2,0,L|76:197,1,95.9999970703126,4|0,0:0|0:0,0:0:0:0:
218,350,54292,2,0,L|212:224,1,95.9999970703126,8|0,0:0|0:0,0:0:0:0:
376,23,54667,6,0,L|355:126,1,95.9999970703126,4|0,0:0|0:0,0:0:0:0:
213,254,55042,1,8,0:0:0:0:
174,47,55229,2,0,L|168:-20,1,47.9999985351563
107,98,55417,2,0,L|153:209,1,95.9999970703126,4|0,0:0|0:0,0:0:0:0:
348,313,55792,2,0,L|357:204,1,95.9999970703126,8|0,0:0|0:0,0:0:0:0:
107,98,56167,6,0,P|62:140|47:186,1,95.9999970703126,4|0,0:0|0:0,0:0:0:0:
156,346,56542,1,8,0:0:0:0:
265,154,56729,1,0,0:0:0:0:
287,111,56823,1,0,0:0:0:0:
267,66,56917,2,0,L|154:37,1,95.9999970703126,4|0,0:0|0:0,0:0:0:0:
104,257,57292,1,8,0:0:0:0:
274,282,57479,1,0,0:0:0:0:
360,58,57667,6,4,P|277:61|237:86,1,95.9999970703126,4|0,0:0|0:0,0:0:0:0:
187,269,58042,1,8,0:0:0:0:
394,272,58229,1,0,0:0:0:0:
427,237,58323,1,0,0:0:0:0:
417,189,58417,2,0,L|307:176,1,95.9999970703126,4|0,0:0|0:0,0:0:0:0:
78,54,58792,2,0,L|179:41,1,95.9999970703126,8|0,0:0|0:0,0:0:0:0:
287,246,59167,6,0,L|227:368,1,95.9999970703126,4|0,0:0|0:0,0:0:0:0:
173,345,59448,1,0,0:0:0:0:
165,328,59542,1,8,0:0:0:0:
188,58,59729,6,0,L|206:101,1,47.9999985351563
321,177,59917,2,0,L|328:120,1,47.9999985351563,4|0,0:0|0:0,0:0:0:0:
154,43,60104,6,0,L|172:86,1,47.9999985351563,8|0,0:0|0:0,0:0:0:0:
347,202,60292,2,0,L|354:146,1,47.9999985351563
124,28,60479,5,12,0:0:0:0:
124,28,60854,5,0,0:0:0:0:
257,227,61042,1,8,0:0:0:0:
62,134,61229,1,0,0:0:0:0:
334,129,61417,1,12,0:0:0:0:
366,137,61510,1,0,0:0:0:0:
382,165,61604,1,0,0:0:0:0:
382,197,61698,1,0,0:0:0:0:
368,236,61792,5,12,0:0:0:0:
406,274,61885,1,0,0:0:0:0:
460,267,61979,1,0,0:0:0:0:
493,224,62073,1,0,0:0:0:0:
488,166,62167,6,0,P|474:121|487:60,1,95.9999970703126,4|0,0:0|0:0,0:0:0:0:
254,49,62542,2,0,P|260:96|246:141,1,95.9999970703126,8|0,0:0|0:0,0:0:0:0:
180,209,62823,1,0,0:0:0:0:
147,222,62917,2,0,L|31:186,1,95.9999970703126,4|0,0:0|0:0,0:0:0:0:
200,373,63292,2,0,L|329:338,1,95.9999970703126,8|0,0:0|0:0,0:0:0:0:
156,118,63667,5,4,0:0:0:0:
244,274,63854,1,0,0:0:0:0:
257,91,64042,1,8,0:0:0:0:
153,295,64229,1,0,0:0:0:0:
349,157,64417,2,0,B|396:24|396:24|314:76,1,191.999994140625,4|8,0:0|0:0,0:0:0:0:
156,118,64979,1,0,0:0:0:0:
337,269,65167,6,0,L|442:254,1,95.9999970703126,4|0,0:0|0:0,0:0:0:0:
512,77,65542,2,0,L|407:65,1,95.9999970703126,8|0,0:0|0:0,0:0:0:0:
274,148,65823,1,0,0:0:0:0:
242,160,65917,2,0,L|154:117,1,95.9999970703126,4|0,0:0|0:0,0:0:0:0:
416,66,66292,2,0,L|419:167,1,95.9999970703126,8|0,0:0|0:0,0:0:0:0:
155,117,66667,5,8,0:0:0:0:
155,117,66760,1,0,0:0:0:0:
155,117,66854,2,0,L|149:50,1,47.9999985351563
25,145,67042,5,8,0:0:0:0:
25,145,67135,1,0,0:0:0:0:
25,145,67229,2,0,L|19:212,1,47.9999985351563
175,264,67417,6,0,L|170:200,1,47.9999985351563,8|0,0:0|0:0,0:0:0:0:
4,300,67604,2,0,L|-4:373,1,47.9999985351563,8|0,0:0|0:0,0:0:0:0:
167,355,67792,5,8,0:0:0:0:
228,341,67885,1,8,0:0:0:0:
289,326,67979,1,8,0:0:0:0:
349,311,68073,1,8,0:0:0:0:
414,328,68167,6,0,L|432:193,1,95.9999970703126,8|0,0:0|0:0,0:0:0:0:
236,49,68542,1,0,0:0:0:0:
467,124,68729,1,8,0:0:0:0:
257,142,68917,2,0,P|241:99|239:30,1,95.9999970703126
293,265,69292,1,8,0:0:0:0:
331,281,69385,1,8,0:0:0:0:
373,279,69479,1,8,0:0:0:0:
410,259,69573,1,8,0:0:0:0:
431,222,69667,6,0,P|458:196|519:178,1,95.9999970703126,8|0,0:0|0:0,0:0:0:0:
357,344,70042,1,0,0:0:0:0:
381,155,70229,1,8,0:0:0:0:
441,384,70417,2,0,P|405:378|352:337,1,95.9999970703126
261,120,70792,1,8,0:0:0:0:
244,72,70885,1,8,0:0:0:0:
203,41,70979,1,8,0:0:0:0:
152,38,71073,1,8,0:0:0:0:
106,61,71167,6,0,P|86:98|41:127,1,95.9999970703126,8|0,0:0|0:0,0:0:0:0:
165,255,71542,1,0,0:0:0:0:
78,47,71729,1,8,0:0:0:0:
100,324,71917,2,0,P|138:295|164:255,1,95.9999970703126
355,116,72292,1,8,0:0:0:0:
410,96,72385,1,8,0:0:0:0:
463,119,72479,1,8,0:0:0:0:
487,172,72573,1,8,0:0:0:0:
480,230,72667,6,0,L|356:186,1,95.9999970703126,8|8,0:0|0:0,0:0:0:0:
256,48,73042,1,0,0:0:0:0:
392,283,73229,2,0,L|293:250,1,95.9999970703126,8|0,0:0|0:0,0:0:0:0:
433,68,73604,1,8,0:0:0:0:
218,223,73792,1,8,0:0:0:0:
256,48,73979,1,0,0:0:0:0:
443,205,74167,6,0,P|416:262|369:294,1,95.9999970703126,4|0,0:0|0:0,0:0:0:0:
256,48,74542,1,8,0:0:0:0:
453,41,74729,1,0,0:0:0:0:
453,41,74823,1,0,0:0:0:0:
453,41,74917,2,0,L|480:160,1,95.9999970703126,4|0,0:0|0:0,0:0:0:0:
300,252,75292,1,8,0:0:0:0:
340,92,75479,1,0,0:0:0:0:
146,230,75667,6,0,L|23:195,1,95.9999970703126,4|0,0:0|0:0,0:0:0:0:
168,350,76042,1,8,0:0:0:0:
239,123,76229,1,0,0:0:0:0:
239,123,76323,1,0,0:0:0:0:
239,123,76417,2,0,L|214:10,1,95.9999970703126,4|0,0:0|0:0,0:0:0:0:
81,286,76792,2,0,B|68:388,1,95.9999970703126,8|0,0:0|0:0,0:0:0:0:
239,123,77167,5,8,0:0:0:0:
359,384,77354,1,0,0:0:0:0:
168,101,77542,5,8,0:0:0:0:
435,346,77729,1,0,0:0:0:0:
100,79,77917,5,8,0:0:0:0:
511,307,78104,1,0,0:0:0:0:
35,57,78292,5,8,0:0:0:0:
30,113,78385,1,0,0:0:0:0:
26,169,78479,1,0,0:0:0:0:
22,226,78573,1,0,0:0:0:0:
14,285,78667,5,12,0:0:0:0:
31,306,79042,5,0,0:0:0:0:
49,327,79417,6,0,L|185:240,1,120.000004577637
345,141,79792,1,8,0:0:0:0:
180,64,79979,5,0,0:0:0:0:
168,69,80073,1,0,0:0:0:0:
157,74,80167,2,0,P|122:118|108:155,1,95.9999970703126,8|0,0:0|0:0,0:0:0:0:
49,327,80542,1,0,0:0:0:0:
281,197,80729,1,8,0:0:0:0:
62,213,80917,1,0,0:0:0:0:
198,384,81104,1,0,0:0:0:0:
352,219,81292,5,8,0:0:0:0:
347,165,81385,1,0,0:0:0:0:
306,127,81479,1,0,0:0:0:0:
251,127,81573,1,0,0:0:0:0:
197,150,81667,6,0,L|236:261,1,95.9999970703126,8|0,0:0|0:0,0:0:0:0:
268,31,82042,1,0,0:0:0:0:
139,207,82229,1,8,0:0:0:0:
352,219,82417,1,0,0:0:0:0:
149,85,82604,1,0,0:0:0:0:
256,315,82792,1,8,0:0:0:0:
382,90,82979,1,0,0:0:0:0:
37,130,83167,5,8,0:0:0:0:
193,384,83354,1,0,0:0:0:0:
298,133,83542,1,0,0:0:0:0:
19,246,83729,1,8,0:0:0:0:
321,384,83917,1,0,0:0:0:0:
302,41,84104,1,0,0:0:0:0:
160,280,84292,6,0,L|236:269,1,47.9999985351563,8|0,0:0|0:0,0:0:0:0:
450,208,84479,2,0,L|386:193,1,47.9999985351563
222,84,84667,5,8,0:0:0:0:
321,384,84854,1,8,0:0:0:0:
216,366,85229,5,8,0:0:0:0:
110,349,85604,5,8,0:0:0:0:
222,84,85791,1,8,0:0:0:0:
10,334,86167,5,12,0:0:0:0:
256,192,86260,12,0,87385,0:0:0:0:
256,192,87479,5,0,0:0:0:0:
256,192,87573,1,0,0:0:0:0:
256,192,87667,1,12,0:0:0:0:
