osu file format v14

[General]
AudioFilename: audio.mp3
AudioLeadIn: 0
PreviewTime: 50500
Countdown: 0
SampleSet: Normal
StackLeniency: 0.7
Mode: 0
LetterboxInBreaks: 0
WidescreenStoryboard: 0

[Editor]
Bookmarks: 52058
DistanceSpacing: 0.8
BeatDivisor: 4
GridSize: 8
TimelineZoom: 2.6

[Metadata]
Title:Moshimo
TitleUnicode:Moshimo
Artist:Daisuke
ArtistUnicode:Daisuke
Creator:Origuon
Version:Sage Mode
Source:NARUTO-ナルト-疾風伝
Tags:Barbex Mistuna- Bakkalo Little CloudSplash16
BeatmapID:1344025
BeatmapSetID:633230

[Difficulty]
HPDrainRate:6
CircleSize:4
OverallDifficulty:8
ApproachRate:9
SliderMultiplier:1.4
SliderTickRate:1

[Events]
//Background and Video events
0,0,"naruto-shippuden-wallpaper-7.jpg",0,0
Video,0,"moshimo.avi"
//Break Periods
//Storyboard Layer 0 (Background)
//Storyboard Layer 1 (Fail)
//Storyboard Layer 2 (Pass)
//Storyboard Layer 3 (Foreground)
//Storyboard Sound Samples

[TimingPoints]
1038,-100,4,1,0,20,0,0
1132,-100,4,1,0,40,0,0
1226,375,4,1,0,50,1,0
13132,-100,4,1,0,5,0,0
13226,-100,4,1,0,40,0,0
22697,-100,4,1,0,40,0,0
39385,-66.6666666666667,4,1,0,40,0,0
40135,-100,4,1,0,40,0,0
40697,-66.6666666666667,4,1,0,40,0,0
41635,-100,4,1,0,40,0,0
50257,-100,4,1,0,40,0,1
50726,-66.6666666666667,4,1,0,40,0,1
56726,-100,4,1,0,40,0,1
58135,-66.6666666666667,4,1,0,40,0,1
62444,-66.6666666666667,4,1,0,40,0,0
62632,-66.6666666666667,4,1,0,40,0,1
68913,-66.6666666666667,4,1,0,40,0,0
80351,-83.3333333333333,4,1,0,40,0,0
86166,-66.6666666666667,4,1,0,40,0,0

[HitObjects]
131,70,1036,5,8,3:0:0:0:
131,70,1132,1,8,3:0:0:0:
131,70,1226,2,8,P|149:115|243:156,1,140,8|8,3:0|0:0,0:0:0:0:
243,47,1788,1,0,2:0:0:0:
337,143,1976,2,0,P|320:215|247:268,1,140,0|0,2:0|2:0,2:0:0:0:
243,47,2538,5,8,2:0:0:0:
129,219,2726,1,8,2:0:0:0:
328,128,2913,1,0,2:0:0:0:
144,89,3101,1,8,2:0:0:0:
272,258,3288,1,0,2:0:0:0:
248,48,3476,2,0,P|321:11|392:32,1,140,0|0,2:0|2:0,2:0:0:0:
448,120,4038,5,0,2:0:0:0:
348,157,4226,2,0,P|387:211|458:228,1,140,0|0,2:0|2:0,2:0:0:0:
453,104,4788,1,8,2:0:0:0:
348,64,4976,2,0,P|284:88|251:151,1,140,0|0,2:0|2:0,2:0:0:0:
384,240,5538,5,0,2:0:0:0:
440,104,5726,1,8,2:0:0:0:
251,148,5913,1,0,2:0:0:0:
328,272,6101,1,0,2:0:0:0:
354,67,6288,1,0,2:0:0:0:
432,264,6476,1,0,2:0:0:0:
224,200,6663,1,8,3:0:0:0:
376,80,6851,1,8,3:0:0:0:
338,258,7038,5,8,3:0:0:0:
331,271,7132,1,8,3:0:0:0:
325,282,7226,2,0,P|276:321|245:328,1,70,4|8,0:0|3:0,2:0:0:0:
146,236,7601,1,8,3:0:0:0:
247,107,7788,2,0,L|300:38,1,70,4|8,0:0|3:0,2:0:0:0:
85,29,8163,1,8,3:0:0:0:
188,176,8351,5,4,0:0:0:0:
219,191,8444,1,8,3:0:0:0:
253,195,8538,1,8,3:0:0:0:
287,187,8632,1,8,3:0:0:0:
318,172,8726,2,0,P|347:147|366:113,1,70,4|8,0:0|3:0,2:0:0:0:
245,17,9101,5,8,3:0:0:0:
162,153,9288,1,4,0:0:0:0:
377,84,9476,1,8,3:0:0:0:
190,246,9663,1,8,3:0:0:0:
431,290,9851,1,4,0:0:0:0:
244,73,10038,1,8,3:0:0:0:
260,310,10226,2,0,P|277:368|293:386,1,70,8|4,3:0|0:0,2:0:0:0:
446,184,10601,5,8,3:0:0:0:
200,148,10788,1,8,3:0:0:0:
392,344,10976,1,4,0:0:0:0:
348,73,11163,1,8,3:0:0:0:
211,222,11351,1,4,0:0:0:0:
205,256,11444,1,8,3:0:0:0:
212,290,11538,1,8,3:0:0:0:
231,320,11632,1,8,3:0:0:0:
258,341,11726,1,4,0:0:0:0:
340,339,11913,5,2,1:0:0:0:
401,283,12288,1,10,1:0:0:0:
468,333,12663,1,2,1:0:0:0:
388,107,12851,2,0,L|419:223,1,105,2|0,2:0|2:0,2:0:0:0:
489,201,13226,6,0,P|477:256|446:273,1,70,8|0,3:0|2:0,2:0:0:0:
355,266,13601,2,4,P|375:317|401:338,1,70,8|0,3:0|0:0,0:0:0:0:
415,208,13976,1,8,3:0:0:0:
262,156,14163,1,8,2:0:0:0:
272,306,14351,1,8,3:0:0:0:
365,148,14538,1,8,2:0:0:0:
460,275,14726,6,0,L|507:192,1,70,4|0,0:0|2:0,2:0:0:0:
479,95,15101,2,0,L|399:31,1,70,8|0,3:0|2:0,2:0:0:0:
276,110,15476,1,8,3:0:0:0:
315,270,15663,1,8,2:0:0:0:
353,53,15851,1,8,3:0:0:0:
216,212,16038,2,0,P|169:172|163:138,2,70,0|4|0,1:0|0:0|1:0,1:0:0:0:
360,210,16601,5,8,2:0:0:0:
293,89,16788,2,0,L|235:151,1,70,0|8,2:0|2:0,2:0:0:0:
227,287,17163,1,8,2:0:0:0:
363,131,17351,1,8,2:0:0:0:
167,99,17538,1,8,2:0:0:0:
317,300,17726,1,4,0:0:0:0:
293,89,17913,1,0,2:0:0:0:
145,238,18101,6,0,P|105:230|83:210,2,70,8|0|8,3:0|1:0|3:0,1:0:0:0:
312,192,18663,1,0,2:0:0:0:
191,84,18851,2,0,P|202:40|226:14,1,70,8|0,0:0|2:0,2:0:0:0:
400,160,19226,6,0,L|480:190,1,70,4|0,0:0|0:0,2:0:0:0:
253,178,19601,1,8,3:0:0:0:
272,64,19788,1,0,0:0:0:0:
336,256,19976,2,0,P|365:290|400:306,1,70,8|0,3:0|0:0,2:0:0:0:
264,352,20351,2,0,L|264:264,1,70,8|0,3:0|2:0,2:0:0:0:
253,178,20726,5,4,0:0:0:0:
134,75,20913,1,0,2:0:0:0:
154,233,21101,2,0,P|177:266|206:283,1,70,8|0,3:0|2:0,2:0:0:0:
219,73,21476,1,8,3:0:0:0:
78,252,21663,1,0,2:0:0:0:
294,263,21851,1,8,3:0:0:0:
117,108,22038,1,0,2:0:0:0:
177,295,22226,6,0,P|189:327|216:357,2,70,4|0|8,0:0|1:0|3:0,1:0:0:0:
195,147,22788,1,0,2:0:0:0:
294,263,22976,1,8,3:0:0:0:
134,237,23163,1,0,2:0:0:0:
285,169,23351,2,0,L|370:125,1,70,8|0,3:0|2:0,2:0:0:0:
204,303,23726,5,4,2:0:0:0:
256,57,23913,1,8,3:0:0:0:
402,284,24101,1,8,3:0:0:0:
175,136,24288,1,8,3:0:0:0:
352,288,24476,2,0,P|344:328|274:362,1,105,4|0,0:0|3:0,2:0:0:0:
240,337,24850,1,4,0:0:0:0:
238,298,24944,1,8,3:0:0:0:
236,259,25038,1,4,0:0:0:0:
234,220,25132,1,8,3:0:0:0:
231,181,25226,6,0,P|192:148|155:143,1,70,4|0,0:0|2:0,2:0:0:0:
148,243,25601,2,0,L|91:327,1,70,8|0,3:0|2:0,2:0:0:0:
256,250,25976,1,8,3:0:0:0:
174,143,26163,1,8,2:0:0:0:
332,150,26351,2,0,P|374:189|386:221,1,70,8|0,3:0|2:0,2:0:0:0:
265,333,26726,6,0,P|214:323|191:300,2,70,4|0|8,0:0|1:0|3:0,1:0:0:0:
446,253,27288,1,0,2:0:0:0:
283,224,27476,1,8,3:0:0:0:
386,351,27663,1,0,2:0:0:0:
368,147,27851,2,0,P|399:127|463:128,1,70,8|0,3:0|2:0,2:0:0:0:
355,269,28226,5,4,0:0:0:0:
305,97,28413,1,8,2:0:0:0:
447,242,28601,1,8,3:0:0:0:
225,149,28788,1,8,2:0:0:0:
189,325,28976,2,0,P|152:332|109:325,1,70,8|0,3:0|2:0,2:0:0:0:
144,192,29351,1,8,3:0:0:0:
255,293,29538,1,0,2:0:0:0:
89,256,29726,6,0,P|61:222|56:185,2,70,4|0|0,0:0|1:0|1:0,1:0:0:0:
152,189,30288,1,0,2:0:0:0:
231,247,30476,1,8,3:0:0:0:
289,162,30663,1,0,2:0:0:0:
427,265,30851,1,8,3:0:0:0:
472,81,31038,1,0,2:0:0:0:
289,162,31226,6,0,P|261:202|259:247,1,70,4|0,0:0|2:0,2:0:0:0:
399,343,31601,1,8,3:0:0:0:
354,141,31788,1,8,2:0:0:0:
285,338,31976,1,8,3:0:0:0:
444,220,32163,1,8,2:0:0:0:
257,222,32351,1,8,3:0:0:0:
399,343,32538,1,0,2:0:0:0:
314,94,32726,5,4,0:0:0:0:
326,356,32913,1,0,2:0:0:0:
481,112,33101,1,8,3:0:0:0:
224,280,33288,1,8,2:0:0:0:
473,305,33476,2,0,P|489:336|496:386,2,70,8|0|8,3:0|1:0|3:0,1:0:0:0:
367,218,34038,1,0,2:0:0:0:
295,325,34226,6,0,P|270:355|217:363,1,70,4|0,0:0|2:0,2:0:0:0:
148,190,34601,1,8,3:0:0:0:
357,149,34788,1,8,2:0:0:0:
157,301,34976,1,8,3:0:0:0:
312,78,35163,1,8,2:0:0:0:
241,364,35351,1,8,3:0:0:0:
162,41,35538,1,0,2:0:0:0:
377,263,35726,6,0,L|448:335,1,70,4|0,0:0|2:0,2:0:0:0:
231,272,36101,1,8,3:0:0:0:
381,143,36288,1,8,2:0:0:0:
360,346,36476,1,8,3:0:0:0:
237,178,36663,5,4,0:0:0:0:
231,152,36756,1,8,3:0:0:0:
231,126,36850,1,4,0:0:0:0:
235,101,36944,1,8,3:0:0:0:
243,76,37038,1,4,0:0:0:0:
255,53,37131,1,8,0:0:0:0:
269,32,37226,2,0,P|303:2|335:-9,1,70,4|0,0:0|2:0,2:0:0:0:
381,143,37601,5,8,3:0:0:0:
247,230,37788,1,8,2:0:0:0:
142,90,37976,2,0,L|87:19,1,70,8|0,3:0|2:0,2:0:0:0:
107,280,38351,1,8,3:0:0:0:
328,305,38538,5,4,0:0:0:0:
352,282,38632,1,12,0:0:0:0:
372,259,38726,2,0,P|390:212|396:177,1,70,8|0,3:0|2:0,2:0:0:0:
303,19,39101,2,0,L|287:92,1,70,8|0,3:0|3:0,2:0:0:0:
278,118,39382,1,4,0:0:0:0:
261,149,39475,1,8,3:0:0:0:
242,178,39569,1,8,3:0:0:0:
219,205,39663,1,4,0:0:0:0:
194,229,39757,1,8,3:0:0:0:
166,248,39851,6,0,P|129:276|96:296,1,52.5000020027161,8|4,3:0|0:0,0:0:0:0:
55,281,40038,2,0,P|66:320|74:328,1,52.5000020027161,8|8,3:0|3:0,3:0:0:0:
80,193,40226,2,0,L|81:107,1,70,4|0,0:0|2:0,2:0:0:0:
266,44,40601,1,8,3:0:0:0:
73,327,40788,1,8,2:0:0:0:
138,43,40976,2,0,P|153:105|185:139,1,105.000004005432,8|0,3:0|2:0,2:0:0:0:
373,295,41351,1,8,3:0:0:0:
474,21,41538,1,0,0:0:0:0:
179,134,41726,6,0,P|154:171|143:200,1,70,4|0,0:0|3:0,2:0:0:0:
156,239,42007,1,0,0:0:0:0:
176,284,42101,1,8,3:0:0:0:
317,162,42288,2,0,P|324:109|310:68,1,70,0|8,2:0|3:0,2:0:0:0:
144,32,42663,1,0,2:0:0:0:
131,197,42851,5,8,3:0:0:0:
139,237,42944,1,8,3:0:0:0:
160,272,43038,1,4,0:0:0:0:
190,300,43132,1,8,3:0:0:0:
228,317,43226,2,0,L|302:318,1,70,8|0,3:0|2:0,2:0:0:0:
401,180,43601,1,8,3:0:0:0:
203,224,43788,5,0,3:0:0:0:
228,247,43881,1,8,3:0:0:0:
261,258,43976,2,0,L|344:258,1,70,8|0,3:0|2:0,2:0:0:0:
319,98,44351,1,8,3:0:0:0:
206,277,44538,1,0,0:0:0:0:
355,192,44726,1,4,0:0:0:0:
223,104,44913,1,0,2:0:0:0:
144,243,45101,1,8,3:0:0:0:
369,295,45288,5,0,3:0:0:0:
399,280,45382,1,8,3:0:0:0:
428,254,45476,2,0,P|449:214|446:163,1,70,8|0,3:0|2:0,2:0:0:0:
393,80,45851,5,8,3:0:0:0:
268,216,46038,1,8,2:0:0:0:
450,191,46226,1,4,0:0:0:0:
284,61,46413,1,8,2:0:0:0:
347,291,46601,1,8,3:0:0:0:
147,167,46788,1,0,2:0:0:0:
393,80,46976,1,8,3:0:0:0:
215,311,47163,5,0,2:0:0:0:
195,28,47351,1,8,3:0:0:0:
441,202,47538,1,8,2:0:0:0:
114,162,47726,5,4,0:0:0:0:
393,80,47913,1,8,2:0:0:0:
334,331,48101,1,8,3:0:0:0:
210,53,48288,5,0,2:0:0:0:
442,269,48476,1,8,3:0:0:0:
153,263,48663,5,0,2:0:0:0:
441,138,48851,1,8,3:0:0:0:
125,20,49038,1,0,2:0:0:0:
232,341,49226,5,4,0:0:0:0:
408,11,49413,1,6,1:0:0:0:
480,69,49788,5,2,1:0:0:0:
258,186,50163,5,2,1:0:0:0:
258,186,50351,1,10,1:0:0:0:
272,144,50726,6,0,L|272:264,1,105.000004005432
392,56,51101,1,0,0:0:0:0:
160,72,51288,1,0,0:0:0:0:
160,72,51382,1,0,0:0:0:0:
160,72,51476,2,0,P|120:104|96:152,1,105.000004005432
272,80,51851,5,0,0:0:0:0:
208,256,52038,1,0,0:0:0:0:
368,192,52226,2,0,P|392:248|376:312,1,105.000004005432
324,136,52601,1,0,0:0:0:0:
72,240,52789,1,0,0:0:0:0:
324,136,52976,1,0,0:0:0:0:
88,144,53163,6,0,P|136:104|200:112,1,105.000004005432
184,328,53538,5,0,0:0:0:0:
104,160,53726,1,0,0:0:0:0:
72,320,53913,1,0,0:0:0:0:
256,128,54101,2,0,P|272:64|256:16,1,105.000004005432
272,248,54476,2,0,P|280:312|312:360,1,105.000004005432
416,120,54851,5,0,0:0:0:0:
416,152,55226,2,0,B|432:192|432:192|408:272|408:272|432:360,1,210.000008010865
240,168,55788,1,0,0:0:0:0:
488,112,55976,1,0,0:0:0:0:
232,112,56163,1,0,0:0:0:0:
88,240,56351,6,0,B|128:224|128:224|128:80,1,157.500006008148
144,64,56726,6,0,P|208:56|232:64,1,70
200,216,57101,1,0,0:0:0:0:
304,88,57288,2,0,P|352:120|368:152,1,70
184,264,57663,1,0,0:0:0:0:
416,280,57851,5,0,0:0:0:0:
416,280,57944,1,0,0:0:0:0:
416,280,58038,1,0,0:0:0:0:
272,336,58226,6,0,B|216:312|216:312|176:168,1,210.000008010865
80,296,58788,1,0,0:0:0:0:
192,72,58976,1,0,0:0:0:0:
224,96,59351,5,0,0:0:0:0:
264,176,59726,2,0,B|328:208|392:152|392:152|392:184|392:208|352:248,1,210.000008010865
256,72,60288,1,0,0:0:0:0:
208,288,60476,1,0,0:0:0:0:
239,328,60569,1,0,0:0:0:0:
290,332,60663,1,0,0:0:0:0:
136,136,60851,5,0,0:0:0:0:
129,187,60944,1,0,0:0:0:0:
153,233,61038,2,0,B|113:281|73:289|73:289|121:345|129:377|105:353|81:353,1,210.000008010865
136,104,61601,1,0,0:0:0:0:
400,240,61788,1,0,0:0:0:0:
184,40,61976,5,0,0:0:0:0:
229,61,62069,1,0,0:0:0:0:
240,110,62163,1,0,0:0:0:0:
192,120,62257,5,0,0:0:0:0:
224,160,62350,1,0,0:0:0:0:
270,184,62444,1,0,0:0:0:0:
322,185,62538,1,0,0:0:0:0:
370,163,62632,1,0,0:0:0:0:
400,120,62726,6,0,B|376:152|360:184|368:248|368:248|328:256|312:200,1,210.000008010865
216,96,63288,1,0,0:0:0:0:
152,272,63476,1,0,0:0:0:0:
288,192,63663,1,0,0:0:0:0:
88,144,63851,1,0,0:0:0:0:
160,288,64038,5,0,0:0:0:0:
144,288,64226,2,0,L|288:288,1,105.000004005432
96,88,64601,1,0,0:0:0:0:
264,88,64788,1,0,0:0:0:0:
56,192,64976,2,0,L|56:320,1,105.000004005432
256,224,65351,5,0,0:0:0:0:
144,72,65538,1,0,0:0:0:0:
144,72,65726,2,0,L|16:72,1,105.000004005432
32,248,66101,2,0,L|160:248,1,105.000004005432
96,56,66476,6,0,P|80:144|104:184,1,105.000004005432
184,336,66851,2,0,P|192:264|176:224,1,105.000004005432
24,152,67226,1,0,0:0:0:0:
80,312,67413,1,0,0:0:0:0:
192,56,67601,5,0,0:0:0:0:
192,56,67694,1,0,0:0:0:0:
192,56,67788,1,0,0:0:0:0:
416,80,67976,1,0,0:0:0:0:
312,240,68163,5,0,0:0:0:0:
312,240,68257,1,0,0:0:0:0:
312,240,68351,2,0,B|344:244|368:268|368:268|368:224|412:176|412:176|432:164|440:176,1,157.500006008148
448,192,68726,2,0,L|448:80,1,105.000004005432
220,28,69101,1,0,0:0:0:0:
152,176,69288,1,0,0:0:0:0:
48,28,69476,6,0,L|48:148,1,105.000004005432
228,344,69851,2,0,L|228:216,1,105.000004005432
104,336,70226,1,0,0:0:0:0:
260,136,70413,2,0,P|320:176|336:216,1,105.000004005432
200,284,70788,5,0,0:0:0:0:
44,280,70976,2,0,L|44:168,1,105.000004005432
248,72,71351,1,0,0:0:0:0:
60,56,71538,1,0,0:0:0:0:
220,188,71726,1,0,0:0:0:0:
388,96,71913,5,0,0:0:0:0:
388,96,72101,2,0,P|336:64|272:80,1,105.000004005432
304,252,72476,2,0,P|368:280|424:252,1,105.000004005432
160,240,72851,6,0,L|164:368,1,105.000004005432
80,112,73226,1,0,0:0:0:0:
340,144,73413,1,0,0:0:0:0:
56,216,73601,1,0,0:0:0:0:
308,48,73788,1,0,0:0:0:0:
308,48,74163,5,0,0:0:0:0:
308,48,74351,2,0,B|344:72|328:108|328:108|352:124|376:116|376:116|416:136|416:188|416:188|412:212,1,210.000008010865
308,328,74913,5,0,0:0:0:0:
144,208,75101,2,0,L|144:324,1,105.000004005432
152,120,75476,1,0,0:0:0:0:
56,268,75663,1,0,0:0:0:0:
264,272,75851,6,0,P|316:252|336:200,1,105.000004005432
240,48,76226,2,0,P|232:108|260:156,1,105.000004005432
392,256,76601,1,0,0:0:0:0:
240,48,76788,1,0,0:0:0:0:
440,56,76976,2,0,L|440:168,1,105.000004005432
320,336,77351,2,0,B|272:304|272:304|272:208,1,105.000004005432
236,132,77726,5,0,0:0:0:0:
48,248,77913,1,0,0:0:0:0:
332,56,78101,5,0,0:0:0:0:
96,324,78288,1,0,0:0:0:0:
276,16,78476,5,0,0:0:0:0:
172,352,78663,1,0,0:0:0:0:
192,16,78851,5,0,0:0:0:0:
178,37,78944,1,0,0:0:0:0:
172,61,79038,1,0,0:0:0:0:
173,86,79132,1,0,0:0:0:0:
176,108,79226,2,0,P|208:156|260:180,1,105.000004005432
76,336,80163,5,0,0:0:0:0:
76,336,80351,2,0,P|120:296|128:256,1,83.9999974365235
172,48,80726,2,0,L|172:148,1,83.9999974365235
256,336,81101,1,0,0:0:0:0:
256,336,81288,2,0,P|328:336|352:308,1,83.9999974365235
192,152,81664,5,0,0:0:0:0:
352,104,81851,1,0,0:0:0:0:
328,252,82039,1,0,0:0:0:0:
448,192,82226,2,0,P|440:248|408:280,1,83.9999974365235
368,40,82601,5,0,0:0:0:0:
368,40,82788,2,0,L|264:40,1,83.9999974365235
112,192,83163,1,0,0:0:0:0:
296,136,83351,1,0,0:0:0:0:
136,88,83538,1,0,0:0:0:0:
40,176,83726,2,0,P|32:128|48:80,1,83.9999974365235
88,288,84101,5,0,0:0:0:0:
88,288,84288,2,0,L|184:288,1,83.9999974365235
280,152,84663,1,0,0:0:0:0:
336,336,84851,1,0,0:0:0:0:
374,319,84944,1,0,0:0:0:0:
402,289,85038,1,0,0:0:0:0:
415,249,85132,1,0,0:0:0:0:
400,208,85226,5,0,0:0:0:0:
144,96,85413,1,0,0:0:0:0:
160,328,85788,1,0,0:0:0:0:
344,136,86163,5,0,0:0:0:0:
40,200,86351,1,0,0:0:0:0:
256,192,86726,12,0,87944,0:0:0:0:
400,104,88038,5,0,0:0:0:0:
400,104,88131,1,0,0:0:0:0:
400,104,88226,2,0,B|400:152|344:176|344:176|400:224|400:256|456:272|456:272|408:304|408:336,1,315.000012016297
