osu file format v14

[General]
AudioFilename: audio.mp3
AudioLeadIn: 0
PreviewTime: 85631
Countdown: 1
SampleSet: None
StackLeniency: 0.7
Mode: 0
LetterboxInBreaks: 0
WidescreenStoryboard: 1

[Editor]
Bookmarks: 5036,10225,20766,21415,22063,23361,24658,26604,27252,31144,32442,41523,42820,44442,45090,47685,50279,52874,55144,55469,59036,59361,59685,60009,60334,60658,60982,62604,63577,64874,66131,68766,71361,78171,84334,86117,86604,86766,96658,96820,97144,97631,99901,101847,104523,107523,108820,109144
DistanceSpacing: 1.4
BeatDivisor: 4
GridSize: 4
TimelineZoom: 2.8

[Metadata]
Title:-+
TitleUnicode:-+
Artist:Daisan
ArtistUnicode:Daisan
Creator:Gokateigo
Version:ULTRA
Source:BMS
Tags:
BeatmapID:1301390
BeatmapSetID:567874

[Difficulty]
HPDrainRate:6
CircleSize:4
OverallDifficulty:8
ApproachRate:9
SliderMultiplier:1.9
SliderTickRate:1

[Events]
//Background and Video events
0,0,"BG.png",0,0
//Break Periods
//Storyboard Layer 0 (Background)
//Storyboard Layer 1 (Fail)
//Storyboard Layer 2 (Pass)
//Storyboard Layer 3 (Foreground)
//Storyboard Sound Samples

[TimingPoints]
1307,324.324324324324,4,2,1,60,1,0
1307,-200,4,2,1,60,0,0
1955,-200,4,2,1,65,0,0
2604,-200,4,2,1,60,0,0
3252,-200,4,2,1,65,0,0
3901,-200,4,2,1,60,0,0
5036,-200,4,2,1,5,0,0
5198,-200,4,2,1,60,0,0
5847,-200,4,2,1,5,0,0
6496,-200,4,2,1,60,0,0
7144,-200,4,2,1,65,0,0
7793,-200,4,2,1,60,0,0
8442,-200,4,2,1,65,0,0
10225,-200,4,2,0,5,0,0
10388,-200,4,2,1,60,0,0
11036,-200,4,2,1,5,0,0
11685,-200,4,3,1,65,0,0
16629,-100,4,3,1,50,0,0
17198,-100,4,3,1,55,0,0
17523,-100,4,3,1,65,0,0
17847,-100,4,3,1,70,0,0
18171,-100,4,3,1,75,0,0
18496,-100,4,3,1,80,0,0
18820,-100,4,3,1,85,0,0
19144,-100,4,3,1,100,0,0
20766,-200,4,2,2,5,0,0
21334,-100,4,2,2,100,0,0
22063,-100,4,2,0,100,0,0
22388,-100,4,2,2,100,0,0
23361,-100,4,3,1,100,0,0
23847,-100,4,2,2,100,0,0
27252,-71.4285714285714,4,2,0,100,0,0
30820,-71.4285714285714,4,3,1,100,0,0
31144,-83.3333333333333,4,2,0,100,0,0
32442,-83.3333333333333,4,2,1,75,0,0
40712,-83.3333333333333,4,3,1,85,0,0
42820,-133.333333333333,4,3,1,100,0,0
43469,-133.333333333333,4,2,0,100,0,0
43793,-133.333333333333,4,2,3,20,0,0
46063,-133.333333333333,4,2,3,25,0,0
51009,-133.333333333333,4,2,3,25,0,0
52874,-133.333333333333,4,2,3,25,0,0
53198,-200,4,2,3,40,0,0
54009,-100,4,2,3,30,0,0
55793,-200,4,2,3,40,0,0
56685,-200,4,2,3,35,0,0
58388,-133.333333333333,4,3,1,35,0,0
59036,-111.111111111111,4,3,1,40,0,0
59685,-111.111111111111,4,3,1,45,0,0
60334,-111.111111111111,4,3,1,50,0,0
62766,-66.6666666666667,4,2,1,50,0,0
63577,-83.3333333333333,4,3,1,100,0,0
64388,-66.6666666666667,4,2,0,50,0,0
64874,-83.3333333333333,4,2,0,100,0,0
65523,-66.6666666666667,4,2,0,100,0,0
65685,-66.6666666666667,4,2,0,50,0,0
66131,-66.6666666666667,4,2,0,100,0,0
66982,-66.6666666666667,4,2,0,50,0,0
67469,-66.6666666666667,4,2,0,75,0,0
68766,-66.6666666666667,4,2,0,100,0,0
69577,-66.6666666666667,4,2,0,50,0,0
70063,-66.6666666666667,4,2,0,100,0,0
70874,-66.6666666666667,4,2,0,50,0,0
71361,-66.6666666666667,4,2,0,100,0,0
72171,-66.6666666666667,4,2,0,50,0,0
72658,-66.6666666666667,4,2,0,85,0,0
73955,-80,4,3,1,100,0,0
78171,-80,4,3,1,85,0,0
79063,-80,4,3,1,70,0,0
80442,-80,4,3,1,80,0,0
81090,-80,4,3,1,90,0,0
81739,-80,4,3,2,95,0,0
83036,-80,4,3,2,100,0,0
84334,-66.6666666666667,4,2,0,50,0,0
85631,-80,4,2,0,100,0,0
86928,-66.6666666666667,4,3,1,100,0,1
89523,-66.6666666666667,4,2,1,100,0,1
90982,-66.6666666666667,4,3,1,100,0,1
91144,-100,4,3,1,100,0,1
97631,-100,4,2,1,100,0,1
99901,-100,4,3,1,100,0,1
101198,-100,4,2,1,100,0,1
102334,-100,4,3,2,100,0,1
105252,-100,4,2,1,100,0,1
109144,-66.6666666666667,4,2,1,50,0,1
109837,-66.6666666666667,4,3,1,100,0,1
110442,-66.6666666666667,4,3,1,100,0,1
111415,-66.6666666666667,4,3,1,100,0,1
112874,-100,4,3,1,100,0,0

[HitObjects]
316,140,1307,6,0,P|380:188|380:312,1,190,2|2,0:0|0:0,0:0:0:0:
196,139,2604,2,0,P|125:199|121:291,1,190,2|2,0:0|0:0,0:0:0:0:
264,328,3901,6,0,B|236:276|264:220|264:220|316:256|364:236|404:212|400:144|360:108,1,332.5,2|2,0:0|0:0,0:0:0:0:
316,164,5198,2,0,B|272:140|244:96|244:96|200:96|144:60,1,190,2|2,0:0|0:0,0:0:0:0:
92,196,6496,6,0,B|176:260|176:260|204:260|204:260|252:296,1,190,2|2,0:0|0:0,0:0:0:0:
308,240,7793,2,0,B|223:176|223:176|196:176|196:176|148:140,1,190,2|2,0:0|0:0,0:0:0:0:
276,52,9090,6,0,B|262:104|286:121|286:121|327:113|346:123|379:137|393:172|387:203|364:238|364:238|415:243|436:267,1,332.5,2|2,0:0|0:0,0:0:0:0:
304,196,10388,2,0,B|260:247|260:247|229:238|229:238|186:267|139:225,1,190,2|2,0:0|0:0,0:0:0:0:
168,116,11685,6,0,P|232:128|256:200,1,142.5
184,188,12334,2,0,L|112:260,1,95
369,156,12982,6,0,P|326:205|252:190,1,142.5
299,132,13631,2,0,L|272:33,1,95
232,310,14279,6,0,P|210:248|260:191,1,142.5
287,261,14928,2,0,L|385:287,1,95
176,282,15577,6,8,P|188:218|260:194,1,142.5,0|0,0:0|0:0,0:0:0:0:
248,266,16226,2,8,L|320:338,1,95,0|0,0:0|0:0,0:0:0:0:
416,244,16874,6,0,P|420:192|392:152,1,95
216,132,17198,2,0,P|212:184|240:224,1,95
220,362,17523,6,0,L|308:300,1,95
311,164,17847,2,0,L|223:226,1,95
88,312,18171,6,0,B|56:288|56:288|68:188,1,95
216,132,18496,2,0,B|248:156|248:156|236:256,1,95
216,336,18820,6,0,L|152:260,1,95
216,132,19144,2,0,L|280:208,1,95
380,320,19469,5,0,0:0:0:0:
277,204,19631,1,0,0:0:0:0:
428,172,19793,1,0,0:0:0:0:
314,276,19955,5,0,0:0:0:0:
280,125,20117,1,0,0:0:0:0:
314,276,20279,1,0,0:0:0:0:
166,229,20442,5,0,0:0:0:0:
280,125,20604,1,0,0:0:0:0:
234,273,20766,2,0,P|208:324|120:336,1,142.5
156,268,21415,5,2,0:0:0:0:
133,237,21496,1,2,0:0:0:0:
124,201,21577,1,2,0:0:0:0:
131,164,21658,1,2,0:0:0:0:
152,132,21739,1,2,0:0:0:0:
184,113,21820,1,2,0:0:0:0:
222,108,21901,1,2,0:0:0:0:
257,121,21982,1,2,0:0:0:0:
282,148,22063,2,0,P|320:192|328:232,1,95,2|10,0:0|0:0,0:0:0:0:
288,332,22388,5,2,0:0:0:0:
247,320,22469,1,2,0:0:0:0:
214,293,22550,1,2,0:0:0:0:
193,256,22631,1,2,0:0:0:0:
188,214,22712,1,2,0:0:0:0:
190,171,22793,1,2,0:0:0:0:
176,131,22874,1,2,0:0:0:0:
147,99,22955,1,2,0:0:0:0:
109,81,23036,1,2,0:0:0:0:
69,92,23117,1,2,0:0:0:0:
41,123,23198,1,2,0:0:0:0:
35,165,23279,1,2,0:0:0:0:
54,203,23361,2,0,P|120:240|176:228,1,95
208,88,23685,5,0,0:0:0:0:
376,204,23847,1,2,0:0:0:0:
339,234,23928,1,2,0:0:0:0:
293,243,24009,1,2,0:0:0:0:
249,229,24090,1,2,0:0:0:0:
216,196,24171,1,2,0:0:0:0:
183,162,24252,1,2,0:0:0:0:
139,145,24333,1,2,0:0:0:0:
92,149,24414,1,2,0:0:0:0:
51,172,24495,1,2,0:0:0:0:
51,172,24577,1,2,0:0:0:0:
51,172,24658,2,0,L|95:271,1,95
136,308,24901,1,2,0:0:0:0:
200,336,24982,6,2,P|224:280|200:208,1,95
208,200,25225,1,2,0:0:0:0:
204,160,25306,2,2,P|208:96|264:64,1,95
272,64,25550,5,2,0:0:0:0:
318,59,25631,1,2,0:0:0:0:
363,73,25712,1,2,0:0:0:0:
399,104,25793,1,2,0:0:0:0:
421,146,25874,1,2,0:0:0:0:
424,193,25955,1,2,0:0:0:0:
408,238,26036,1,2,0:0:0:0:
388,280,26117,1,2,0:0:0:0:
346,303,26198,1,2,0:0:0:0:
300,312,26279,1,2,0:0:0:0:
254,302,26360,1,2,0:0:0:0:
214,277,26442,1,2,0:0:0:0:
184,240,26523,1,2,0:0:0:0:
175,194,26604,5,2,0:0:0:0:
176,208,26685,1,2,0:0:0:0:
174,222,26766,1,2,0:0:0:0:
170,236,26847,1,2,0:0:0:0:
165,249,26928,1,2,0:0:0:0:
157,261,27009,1,2,0:0:0:0:
148,272,27090,1,2,0:0:0:0:
137,281,27171,1,2,0:0:0:0:
124,288,27252,6,2,P|80:256|80:176,1,132.999995941162,2|10,0:0|0:0,0:0:0:0:
120,44,27577,2,2,P|164:76|168:160,1,132.999995941162,2|10,0:0|0:0,0:0:0:0:
124,288,27901,2,2,P|173:310|244:280,1,132.999995941162,2|10,0:0|0:0,0:0:0:0:
436,188,28225,2,8,B|460:256|460:256|400:320,1,132.999995941162
276,248,28550,5,2,0:0:0:0:
237,231,28631,1,2,0:0:0:0:
213,196,28712,2,2,P|188:120|216:64,1,132.999995941162
369,62,29036,2,2,P|389:125|368:187,1,132.999995941162
299,325,29361,2,8,L|293:193,1,132.999995941162
220,136,29685,5,2,0:0:0:0:
207,184,29766,1,2,0:0:0:0:
194,232,29847,1,2,0:0:0:0:
181,280,29928,1,2,0:0:0:0:
169,328,30009,1,2,0:0:0:0:
122,311,30090,1,2,0:0:0:0:
86,277,30171,1,2,0:0:0:0:
66,232,30252,1,2,0:0:0:0:
65,182,30333,1,2,0:0:0:0:
83,136,30415,1,2,0:0:0:0:
111,95,30496,1,2,0:0:0:0:
151,66,30577,1,2,0:0:0:0:
199,52,30658,1,2,0:0:0:0:
249,55,30739,1,2,0:0:0:0:
295,74,30820,6,8,P|348:120|368:184,1,132.999995941162
368,224,31063,1,2,0:0:0:0:
360,268,31144,2,8,P|304:300|220:280,1,113.999996520996
200,154,31469,2,8,P|276:148|296:184,1,113.999996520996
348,256,31793,5,10,0:0:0:0:
310,281,31874,1,10,0:0:0:0:
272,306,31955,1,10,0:0:0:0:
224,290,32036,1,10,0:0:0:0:
190,252,32117,1,10,0:0:0:0:
182,202,32198,1,10,0:0:0:0:
200,154,32279,1,10,0:0:0:0:
239,123,32360,1,10,0:0:0:0:
290,116,32442,2,0,P|360:116|400:144,2,113.999996520996,2|0|2,0:0|0:0|0:0,0:0:0:0:
332,188,32928,5,0,0:0:0:0:
320,324,33090,1,0,0:0:0:0:
208,245,33252,1,0,0:0:0:0:
290,116,33415,2,0,L|282:239,1,113.999996520996
152,152,33739,5,0,0:0:0:0:
76,80,33901,1,0,0:0:0:0:
176,175,34063,1,0,0:0:0:0:
52,56,34225,1,0,0:0:0:0:
201,199,34388,1,0,0:0:0:0:
27,33,34550,2,0,L|112:116,1,113.999996520996
201,199,34874,1,0,0:0:0:0:
248,68,35036,6,0,P|324:112|336:176,1,113.999996520996
201,199,35361,2,0,L|301:271,1,113.999996520996
176,328,35685,2,0,P|100:284|88:220,1,113.999996520996
88,72,36009,1,0,0:0:0:0:
171,164,36171,1,0,0:0:0:0:
268,84,36334,5,0,0:0:0:0:
226,247,36496,1,0,0:0:0:0:
175,92,36658,1,0,0:0:0:0:
287,198,36820,5,0,0:0:0:0:
366,70,36982,1,0,0:0:0:0:
386,221,37144,1,0,0:0:0:0:
296,344,37306,1,0,0:0:0:0:
322,181,37469,1,0,0:0:0:0:
484,156,37631,6,0,L|412:260,1,113.999996520996
204,174,37955,2,0,L|288:252,1,113.999996520996
352,128,38279,2,0,L|352:256,1,113.999996520996
280,352,38604,1,0,0:0:0:0:
204,174,38766,1,0,0:0:0:0:
312,164,38928,5,0,0:0:0:0:
160,270,39090,1,0,0:0:0:0:
144,85,39252,1,0,0:0:0:0:
251,238,39415,5,0,0:0:0:0:
331,69,39577,1,0,0:0:0:0:
437,222,39739,1,0,0:0:0:0:
331,69,39901,5,0,0:0:0:0:
331,256,40063,2,0,P|280:316|212:312,1,113.999996520996
104,372,40388,2,0,P|56:300|88:252,1,113.999996520996
136,304,40712,5,8,0:0:0:0:
184,120,40874,1,8,0:0:0:0:
266,292,41036,1,8,0:0:0:0:
109,185,41198,5,8,0:0:0:0:
328,96,41361,1,8,0:0:0:0:
295,330,41523,1,8,0:0:0:0:
249,329,41604,1,8,0:0:0:0:
203,328,41685,1,8,0:0:0:0:
80,244,41847,5,8,0:0:0:0:
71,188,41928,1,8,0:0:0:0:
98,139,42009,1,8,0:0:0:0:
149,117,42090,1,8,0:0:0:0:
203,131,42171,2,8,P|256:160|260:224,1,113.999996520996
192,204,42415,5,8,0:0:0:0:
167,227,42496,1,8,0:0:0:0:
142,250,42577,1,8,0:0:0:0:
117,274,42658,1,8,0:0:0:0:
92,297,42739,1,8,0:0:0:0:
67,321,42820,1,8,0:0:0:0:
120,208,43793,5,2,0:0:0:0:
80,148,43955,1,2,0:0:0:0:
140,108,44117,1,2,0:0:0:0:
180,168,44279,1,2,0:0:0:0:
80,148,44442,1,2,0:0:0:0:
212,64,44766,1,2,0:0:0:0:
361,111,45090,1,2,0:0:0:0:
348,204,46388,5,2,0:0:0:0:
408,260,46550,1,2,0:0:0:0:
329,283,46712,2,0,P|284:264|272:232,1,71.2500027179719,2|2,0:0|0:0,0:0:0:0:
252,140,47036,2,0,L|326:137,1,71.2500027179719,2|2,0:0|0:0,0:0:0:0:
358,74,47361,2,0,L|323:138,1,71.2500027179719,2|2,0:0|0:0,0:0:0:0:
362,196,47685,2,0,L|323:132,1,71.2500027179719,0|2,0:0|0:0,0:0:0:0:
120,176,48982,5,2,0:0:0:0:
152,222,49144,1,2,0:0:0:0:
199,253,49306,2,0,P|203:193|188:171,1,71.2500027179719,2|2,0:0|0:0,0:0:0:0:
199,253,49631,2,0,P|253:228|265:204,1,71.2500027179719,2|2,0:0|0:0,0:0:0:0:
258,151,49955,2,0,P|253:209|268:232,1,71.2500027179719,2|2,0:0|0:0,0:0:0:0:
316,252,50279,2,0,P|267:218|240:220,1,71.2500027179719,2|2,0:0|0:0,0:0:0:0:
144,264,51415,5,2,0:0:0:0:
208,212,51577,1,2,0:0:0:0:
260,276,51739,1,2,0:0:0:0:
196,328,51901,2,0,P|156:340|104:320,1,71.2500027179719,2|2,0:0|0:0,0:0:0:0:
84,220,52225,6,0,L|151:179,1,71.2500027179719,2|2,0:0|0:0,0:0:0:0:
142,112,52550,2,0,L|143:191,1,71.2500027179719,2|2,0:0|0:0,0:0:0:0:
205,218,52874,2,0,L|134:178,1,71.2500027179719,2|2,0:0|0:0,0:0:0:0:
142,112,53198,6,0,P|206:68|310:100,1,190
472,48,54171,5,2,0:0:0:0:
441,101,54333,1,2,0:0:0:0:
411,155,54496,2,0,P|369:132|352:78,1,95,2|2,0:0|0:0,0:0:0:0:
380,209,54820,2,0,P|341:232|285:220,1,95,2|2,0:0|0:0,0:0:0:0:
265,308,55144,2,0,P|263:263|301:220,1,95,2|2,0:0|0:0,0:0:0:0:
236,159,55469,2,0,P|275:180|293:234,1,95,2|2,0:0|0:0,0:0:0:0:
184,288,55793,6,0,B|156:336|93:352|93:352|34:286|67:229,1,237.5
128,72,56766,5,2,0:0:0:0:
161,104,56928,1,2,0:0:0:0:
175,149,57090,1,2,0:0:0:0:
167,195,57252,1,2,0:0:0:0:
138,232,57415,2,0,L|92:280,1,47.5,2|2,0:0|0:0,0:0:0:0:
132,112,57739,1,2,0:0:0:0:
296,264,58063,1,2,0:0:0:0:
460,252,58388,6,0,B|464:304|464:304|440:340,1,71.2500027179719
296,264,58712,2,0,B|292:212|292:212|316:176,1,71.2500027179719
432,84,59036,6,0,P|448:136|412:192,1,85.4999973907472
302,196,59361,2,0,P|286:144|324:92,1,85.4999973907472
460,252,59685,6,0,L|392:328,1,85.4999973907472
244,259,60009,2,0,L|312:183,1,85.4999973907472
373,21,60334,6,0,L|445:97,1,85.4999973907472
301,195,60658,2,0,L|228:119,1,85.4999973907472
244,259,60982,5,0,0:0:0:0:
256,192,61144,12,0,62604,0:0:0:0:
340,104,62766,6,2,L|352:124,24,23.7500009059906
456,144,63577,6,0,P|408:228|280:200,1,227.999993041992
256,104,64063,2,0,P|308:36|368:31,1,113.999996520996
340,104,64388,6,2,L|352:124,12,23.7500009059906
436,196,64874,6,0,B|412:296|412:296|364:336|264:280,1,227.999993041992
340,104,65361,2,0,L|344:224,1,113.999996520996
216,304,65685,6,2,L|228:324,15,23.7500009059906
152,336,66171,6,0,B|144:296|92:288|92:288|48:268|32:224|52:184|72:148|108:132|152:164,1,285.000010871888
128,220,66658,2,0,P|204:240|276:240,1,142.500005435944
409,308,66982,6,2,L|421:328,15,23.7500009059906
348,328,67469,5,2,0:0:0:0:
305,331,67550,1,2,0:0:0:0:
264,319,67631,1,2,0:0:0:0:
230,294,67712,1,2,0:0:0:0:
206,258,67793,1,2,0:0:0:0:
197,217,67874,1,2,0:0:0:0:
202,175,67955,1,2,0:0:0:0:
223,138,68036,1,2,0:0:0:0:
252,106,68117,5,2,0:0:0:0:
279,139,68198,1,2,0:0:0:0:
275,181,68279,1,2,0:0:0:0:
258,220,68361,1,2,0:0:0:0:
222,243,68442,1,2,0:0:0:0:
179,243,68523,1,2,0:0:0:0:
136,250,68604,1,2,0:0:0:0:
111,285,68685,1,2,0:0:0:0:
116,328,68766,6,0,B|168:352|200:304|200:304|240:340|272:352|308:352|336:328|352:296|364:236,1,285.000010871888
276,264,69252,2,0,P|268:164|224:148,1,142.500005435944
220,220,69577,6,2,L|188:240,15,23.7500009059906
276,264,70063,6,0,B|212:356|112:316|88:220|120:164|168:152|216:144,1,285.000010871888
220,220,70550,2,0,P|264:152|324:124,1,142.500005435944
320,220,70874,6,2,L|332:240,15,23.7500009059906
408,220,71361,6,0,B|420:288|376:320|330:338|284:320|264:272|264:272|228:232|160:272,1,285.000010871888
320,220,71847,2,0,P|300:124|332:88,1,142.500005435944
372,160,72171,6,2,L|404:164,15,23.7500009059906
472,180,72658,5,2,0:0:0:0:
454,218,72739,1,2,0:0:0:0:
420,243,72820,1,2,0:0:0:0:
380,260,72901,1,2,0:0:0:0:
337,266,72982,1,2,0:0:0:0:
296,257,73063,1,2,0:0:0:0:
260,234,73144,1,2,0:0:0:0:
222,213,73225,1,2,0:0:0:0:
188,186,73306,5,2,0:0:0:0:
209,149,73387,1,2,0:0:0:0:
244,124,73468,1,2,0:0:0:0:
285,115,73549,1,2,0:0:0:0:
327,120,73630,1,2,0:0:0:0:
364,141,73712,1,2,0:0:0:0:
396,168,73793,1,2,0:0:0:0:
411,207,73874,1,2,0:0:0:0:
405,252,73955,6,0,P|376:332|336:344,1,118.75
229,234,74279,2,0,P|236:177|284:144,1,118.75
418,165,74604,6,0,B|448:228|448:228|405:252,1,118.75
229,234,74928,2,0,B|186:258|186:258|222:334,1,118.75
405,252,75252,6,0,L|353:132,1,118.75
181,125,75577,2,0,L|233:245,1,118.75
405,252,75901,6,0,P|373:180|325:168,1,118.75
181,125,76225,2,0,P|213:197|261:209,1,118.75,0|8,0:0|0:0,0:0:0:0:
405,252,76550,6,0,L|296:348,1,118.75
246,208,76874,2,8,L|355:112,1,118.75
315,330,77198,6,0,P|248:328|200:256,1,118.75
231,94,77523,2,0,P|298:96|346:168,1,118.75,0|8,0:0|0:0,0:0:0:0:
256,208,77847,6,0,L|128:208,1,118.75
231,94,78171,5,8,0:0:0:0:
392,220,78334,1,8,0:0:0:0:
361,256,78415,1,8,0:0:0:0:
320,279,78496,1,8,0:0:0:0:
137,208,78658,2,0,P|172:160|232:156,1,118.75
208,224,78982,1,0,0:0:0:0:
134,301,79144,5,0,0:0:0:0:
89,330,79225,1,0,0:0:0:0:
36,318,79306,1,0,0:0:0:0:
5,273,79387,1,0,0:0:0:0:
8,219,79468,1,0,0:0:0:0:
36,172,79550,1,0,0:0:0:0:
86,156,79631,1,0,0:0:0:0:
133,179,79712,1,0,0:0:0:0:
174,212,79793,1,0,0:0:0:0:
224,229,79874,1,0,0:0:0:0:
272,207,79955,1,0,0:0:0:0:
303,164,80036,1,0,0:0:0:0:
335,121,80117,1,0,0:0:0:0:
386,108,80198,1,0,0:0:0:0:
433,133,80279,1,0,0:0:0:0:
460,178,80360,1,0,0:0:0:0:
415,209,80442,5,0,0:0:0:0:
361,235,80523,1,0,0:0:0:0:
331,286,80604,1,0,0:0:0:0:
336,345,80685,1,0,0:0:0:0:
385,377,80766,1,0,0:0:0:0:
442,361,80847,1,0,0:0:0:0:
467,307,80928,1,0,0:0:0:0:
448,250,81009,1,0,0:0:0:0:
391,268,81090,5,0,0:0:0:0:
331,286,81171,1,0,0:0:0:0:
278,259,81252,1,0,0:0:0:0:
255,204,81333,1,0,0:0:0:0:
226,151,81415,1,0,0:0:0:0:
169,133,81496,1,0,0:0:0:0:
113,154,81577,1,0,0:0:0:0:
90,208,81658,1,0,0:0:0:0:
114,268,81739,5,0,0:0:0:0:
171,298,81820,1,0,0:0:0:0:
234,281,81901,1,0,0:0:0:0:
275,230,81982,1,0,0:0:0:0:
265,165,82063,1,0,0:0:0:0:
217,120,82144,1,0,0:0:0:0:
151,115,82225,1,0,0:0:0:0:
102,159,82306,1,0,0:0:0:0:
113,224,82388,5,0,0:0:0:0:
165,263,82469,1,0,0:0:0:0:
229,252,82550,1,0,0:0:0:0:
268,194,82631,1,0,0:0:0:0:
324,161,82712,1,0,0:0:0:0:
389,165,82793,1,0,0:0:0:0:
435,211,82874,1,0,0:0:0:0:
442,275,82955,1,0,0:0:0:0:
404,328,83036,5,0,0:0:0:0:
342,351,83117,1,0,0:0:0:0:
279,333,83198,1,0,0:0:0:0:
238,281,83279,1,0,0:0:0:0:
224,216,83361,1,0,0:0:0:0:
237,152,83442,1,0,0:0:0:0:
270,96,83523,1,0,0:0:0:0:
332,78,83604,1,0,0:0:0:0:
386,123,83685,5,0,0:0:0:0:
371,192,83766,1,0,0:0:0:0:
312,233,83847,1,0,0:0:0:0:
240,236,83928,1,0,0:0:0:0:
174,209,84009,1,0,0:0:0:0:
138,147,84090,1,0,0:0:0:0:
67,137,84171,1,0,0:0:0:0:
15,185,84252,1,0,0:0:0:0:
55,261,84334,6,0,L|74:295,42,23.7500009059906
151,320,85631,6,0,B|113:279|137:229|137:229|99:178|45:181|45:181|26:87|26:87|76:64|116:49|181:65|183:123|183:123|232:169|289:152|289:152|307:110|329:74|371:65|409:71|431:88|437:126|451:201|409:187|375:233|323:194,1,950
184,128,87090,1,0,0:0:0:0:
332,200,87252,1,0,0:0:0:0:
195,292,87415,2,0,P|120:240|140:176,1,142.500005435944
388,166,87739,5,8,0:0:0:0:
343,153,87820,1,8,0:0:0:0:
308,160,87901,2,8,P|232:176|187:222,1,142.500005435944
312,240,88225,5,8,0:0:0:0:
129,291,88388,1,8,0:0:0:0:
176,106,88550,1,8,0:0:0:0:
228,290,88712,1,8,0:0:0:0:
218,255,88793,1,8,0:0:0:0:
208,220,88874,2,8,P|236:148|296:116,1,142.500005435944
292,208,89198,2,0,P|372:256|372:308,1,142.500005435944
304,284,89523,5,2,0:0:0:0:
152,192,89685,1,2,0:0:0:0:
307,106,89847,2,2,P|388:80|416:156,1,142.500005435944
356,232,90171,5,2,0:0:0:0:
224,356,90334,5,2,0:0:0:0:
52,307,90496,1,2,0:0:0:0:
180,184,90658,2,2,P|261:158|289:234,1,142.500005435944
224,244,90982,5,0,0:0:0:0:
368,120,91144,6,0,L|380:176,1,47.5
403,306,91306,2,0,L|343:287,1,47.5
224,244,91469,2,0,L|264:200,1,47.5
233,71,91631,2,0,L|188:120,1,47.5
148,161,91793,1,0,0:0:0:0:
377,166,91955,5,0,0:0:0:0:
345,201,92036,1,0,0:0:0:0:
300,215,92117,2,0,P|248:232|208:200,1,95
356,112,92442,1,0,0:0:0:0:
424,268,92604,5,0,0:0:0:0:
393,303,92685,1,0,0:0:0:0:
347,310,92766,2,0,P|292:332|248:308,1,95
424,216,93090,2,0,P|378:204|337:225,1,95
184,124,93415,5,0,0:0:0:0:
337,224,93577,1,0,0:0:0:0:
173,306,93739,2,0,P|124:284|112:244,1,95
184,124,94063,6,0,L|140:88,1,47.5
323,84,94225,2,0,L|333:31,1,47.5
288,224,94388,2,0,L|311:288,1,47.5
333,342,94550,1,0,0:0:0:0:
400,156,94712,5,0,0:0:0:0:
224,312,94874,1,0,0:0:0:0:
400,156,95036,1,0,0:0:0:0:
177,82,95198,1,0,0:0:0:0:
217,94,95279,1,0,0:0:0:0:
258,107,95361,2,0,L|356:144,1,95
188,176,95685,1,0,0:0:0:0:
136,328,95847,5,8,0:0:0:0:
99,291,95928,1,8,0:0:0:0:
80,243,96009,1,8,0:0:0:0:
188,176,96171,5,8,0:0:0:0:
208,133,96252,1,8,0:0:0:0:
247,106,96334,1,8,0:0:0:0:
294,106,96415,1,8,0:0:0:0:
336,127,96496,1,8,0:0:0:0:
362,166,96577,1,8,0:0:0:0:
359,213,96658,1,8,0:0:0:0:
284,184,96820,5,0,0:0:0:0:
257,232,96901,1,0,0:0:0:0:
204,248,96982,2,0,P|136:224|120:160,1,142.500005435944
119,161,97631,6,2,P|204:72|272:104,1,190
288,108,98036,1,2,0:0:0:0:
331,144,98117,1,2,0:0:0:0:
348,197,98198,1,2,0:0:0:0:
334,252,98279,1,2,0:0:0:0:
293,290,98361,1,2,0:0:0:0:
241,311,98442,1,2,0:0:0:0:
184,312,98523,1,2,0:0:0:0:
131,294,98604,5,2,0:0:0:0:
109,236,98685,1,2,0:0:0:0:
141,183,98766,1,2,0:0:0:0:
200,167,98847,1,2,0:0:0:0:
247,206,98928,1,2,0:0:0:0:
298,240,99009,1,2,0:0:0:0:
358,229,99090,1,2,0:0:0:0:
407,192,99171,1,2,0:0:0:0:
468,216,99252,5,2,0:0:0:0:
458,281,99333,1,2,0:0:0:0:
398,311,99414,1,2,0:0:0:0:
330,312,99496,1,2,0:0:0:0:
265,286,99577,1,2,0:0:0:0:
214,243,99658,1,2,0:0:0:0:
175,188,99739,1,2,0:0:0:0:
165,122,99820,1,2,0:0:0:0:
214,65,99901,5,2,0:0:0:0:
384,184,100063,1,0,0:0:0:0:
358,223,100144,1,0,0:0:0:0:
315,242,100225,1,0,0:0:0:0:
214,65,100388,5,0,0:0:0:0:
281,260,100550,1,0,0:0:0:0:
237,276,100631,1,0,0:0:0:0:
191,267,100712,1,0,0:0:0:0:
214,65,100874,5,0,0:0:0:0:
153,262,101036,1,0,0:0:0:0:
108,249,101117,1,0,0:0:0:0:
76,214,101198,5,2,0:0:0:0:
78,144,101279,1,2,0:0:0:0:
123,90,101360,1,2,0:0:0:0:
192,76,101441,1,2,0:0:0:0:
255,108,101522,1,2,0:0:0:0:
286,171,101603,1,2,0:0:0:0:
280,242,101685,1,2,0:0:0:0:
227,289,101766,1,2,0:0:0:0:
157,303,101847,6,2,L|126:301,8,23.75
204,160,102334,5,0,0:0:0:0:
368,296,102496,2,0,L|328:344,1,47.5
348,216,102658,2,0,L|384:160,1,47.5
420,104,102820,1,0,0:0:0:0:
240,224,102982,6,0,P|224:280|192:296,1,95
84,188,103306,5,0,0:0:0:0:
101,144,103387,1,0,0:0:0:0:
132,107,103468,1,0,0:0:0:0:
352,88,103631,5,0,0:0:0:0:
384,280,103793,1,0,0:0:0:0:
339,296,103874,1,0,0:0:0:0:
293,291,103955,2,0,P|232:264|216:224,1,95
286,96,104279,6,0,L|333:143,1,47.5
408,217,104442,2,0,L|369:173,1,47.5
247,248,104604,2,0,L|294:203,1,47.5
180,180,104928,6,0,L|140:144,2,47.5
288,108,105252,5,2,0:0:0:0:
322,146,105333,1,2,0:0:0:0:
333,196,105414,1,2,0:0:0:0:
318,246,105495,1,2,0:0:0:0:
280,281,105576,1,2,0:0:0:0:
230,293,105658,1,2,0:0:0:0:
179,299,105739,1,2,0:0:0:0:
131,278,105820,1,2,0:0:0:0:
101,237,105901,1,2,0:0:0:0:
96,185,105982,1,2,0:0:0:0:
113,136,106063,1,2,0:0:0:0:
150,100,106144,1,2,0:0:0:0:
192,68,106225,2,2,P|256:60|300:84,1,95
436,200,106550,5,2,0:0:0:0:
417,248,106631,1,2,0:0:0:0:
378,281,106712,1,2,0:0:0:0:
327,289,106793,1,2,0:0:0:0:
278,271,106874,1,2,0:0:0:0:
247,230,106955,1,2,0:0:0:0:
200,207,107036,1,2,0:0:0:0:
149,207,107117,1,2,0:0:0:0:
100,228,107198,5,2,0:0:0:0:
139,274,107279,1,2,0:0:0:0:
197,293,107360,1,2,0:0:0:0:
256,279,107441,1,2,0:0:0:0:
300,236,107522,1,2,0:0:0:0:
314,176,107603,1,2,0:0:0:0:
295,118,107684,1,2,0:0:0:0:
195,157,107847,5,2,0:0:0:0:
205,96,107928,1,2,0:0:0:0:
245,51,108009,1,2,0:0:0:0:
303,32,108090,1,2,0:0:0:0:
364,40,108171,1,2,0:0:0:0:
422,56,108252,1,2,0:0:0:0:
463,101,108333,1,2,0:0:0:0:
475,161,108414,1,2,0:0:0:0:
454,218,108496,5,2,0:0:0:0:
414,160,108577,1,2,0:0:0:0:
351,129,108658,1,2,0:0:0:0:
280,132,108739,1,2,0:0:0:0:
220,168,108820,1,2,0:0:0:0:
328,232,109144,6,2,L|308:248,24,23.7500009059906
240,96,109955,5,8,0:0:0:0:
404,260,110117,2,8,B|408:316|408:316|300:372,1,142.500005435944
256,288,110442,5,8,0:0:0:0:
60,132,110604,1,8,0:0:0:0:
320,172,110766,5,8,0:0:0:0:
40,136,110928,1,8,0:0:0:0:
288,46,111171,5,8,0:0:0:0:
377,294,111414,1,8,0:0:0:0:
256,192,111496,12,0,112874,0:0:0:0:
