osu file format v14

[General]
AudioFilename: audio.mp3
AudioLeadIn: 0
PreviewTime: 85631
Countdown: 1
SampleSet: Soft
StackLeniency: 0.7
Mode: 0
LetterboxInBreaks: 0
WidescreenStoryboard: 1

[Editor]
Bookmarks: 5036,10225,20766,21415,21739,22063,23361,24658,25955,26604,27252,31144,32442,41523,42820,44442,45090,47685,50279,52874,55144,55469,59036,59361,59685,60009,60334,60658,60982,62604,63577,64874,66131,68766,71361,78171,84334,86117,86604,86766,96658,96820,97144,97631,99901,101847,104523,107523,108820,109144
DistanceSpacing: 0.5
BeatDivisor: 4
GridSize: 32
TimelineZoom: 3

[Metadata]
Title:-+
TitleUnicode:-+
Artist:Daisan
ArtistUnicode:Daisan
Creator:Gokateigo
Version:EX+
Source:BMS
Tags:
BeatmapID:1303881
BeatmapSetID:567874

[Difficulty]
HPDrainRate:7.2
CircleSize:4
OverallDifficulty:8.5
ApproachRate:9.3
SliderMultiplier:1.9
SliderTickRate:1

[Events]
//Background and Video events
0,0,"BG.png",0,0
//Break Periods
//Storyboard Layer 0 (Background)
//Storyboard Layer 1 (Fail)
//Storyboard Layer 2 (Pass)
//Storyboard Layer 3 (Foreground)
//Storyboard Sound Samples

[TimingPoints]
1307,324.324324324324,4,2,1,60,1,0
1307,-200,4,2,1,60,0,0
1955,-200,4,2,1,65,0,0
2604,-200,4,2,1,60,0,0
3252,-200,4,2,1,65,0,0
3901,-200,4,2,1,60,0,0
5036,-200,4,2,1,5,0,0
5198,-200,4,2,1,60,0,0
5847,-200,4,2,1,5,0,0
6496,-200,4,2,1,60,0,0
7144,-200,4,2,1,65,0,0
7793,-200,4,2,1,60,0,0
8442,-200,4,2,1,65,0,0
10225,-200,4,2,0,5,0,0
10388,-200,4,2,1,60,0,0
11036,-200,4,2,1,5,0,0
11685,-133.333333333333,4,3,1,65,0,0
16629,-100,4,3,1,50,0,0
17198,-100,4,3,1,55,0,0
17523,-100,4,3,1,65,0,0
17847,-100,4,3,1,70,0,0
18171,-100,4,3,1,75,0,0
18496,-100,4,3,1,80,0,0
18820,-100,4,3,1,85,0,0
19144,-100,4,3,1,100,0,0
20766,-200,4,2,2,5,0,0
21334,-100,4,2,2,100,0,0
22063,-100,4,2,0,100,0,0
22388,-100,4,2,2,100,0,0
23361,-100,4,3,1,100,0,0
23847,-100,4,2,2,100,0,0
27252,-100,4,2,0,100,0,0
30820,-100,4,3,1,100,0,0
31144,-100,4,2,0,100,0,0
32442,-83.3333333333333,4,2,1,75,0,0
33090,-80,4,2,0,60,0,0
40712,-83.3333333333333,4,3,1,85,0,0
42820,-133.333333333333,4,3,1,100,0,0
43469,-133.333333333333,4,2,0,100,0,0
43793,-133.333333333333,4,2,3,20,0,0
46063,-133.333333333333,4,2,3,25,0,0
47361,-200,4,2,0,60,0,0
49306,-133.333333333333,4,2,0,60,0,0
51009,-133.333333333333,4,2,3,25,0,0
52874,-133.333333333333,4,2,3,25,0,0
54009,-100,4,2,3,30,0,0
54820,-111.111111111111,4,2,0,60,0,0
55793,-111.111111111111,4,2,3,40,0,0
56685,-200,4,2,3,35,0,0
57415,-105.263157894737,4,2,0,60,0,0
58388,-100,4,3,1,35,0,0
59036,-111.111111111111,4,3,1,40,0,0
59685,-111.111111111111,4,3,1,45,0,0
60334,-111.111111111111,4,3,1,50,0,0
62766,-66.6666666666667,4,2,1,50,0,0
63577,-100,4,3,1,100,0,0
64388,-100,4,2,0,50,0,0
64874,-100,4,2,0,100,0,0
65523,-66.6666666666667,4,2,0,100,0,0
65685,-66.6666666666667,4,2,0,50,0,0
66131,-100,4,2,0,100,0,0
66982,-100,4,2,0,50,0,0
67469,-100,4,2,0,75,0,0
68766,-100,4,2,0,100,0,0
69577,-100,4,2,0,50,0,0
70063,-100,4,2,0,100,0,0
70874,-100,4,2,0,50,0,0
71361,-100,4,2,0,100,0,0
72171,-100,4,2,0,50,0,0
72658,-100,4,2,0,85,0,0
73955,-83.3333333333333,4,3,1,100,0,0
78171,-80,4,3,1,85,0,0
79063,-80,4,3,1,70,0,0
80442,-80,4,3,1,80,0,0
81090,-80,4,3,1,90,0,0
81739,-80,4,3,2,95,0,0
83036,-80,4,3,2,100,0,0
84334,-80,4,2,0,50,0,0
85631,-66.6666666666667,4,2,0,60,0,0
86928,-55.5555555555556,4,3,1,100,0,1
87901,-66.6666666666667,4,2,0,100,0,1
89523,-66.6666666666667,4,2,1,100,0,1
90982,-66.6666666666667,4,3,1,100,0,1
97631,-76.9230769230769,4,2,1,100,0,1
101198,-100,4,2,1,100,0,1
102334,-76.9230769230769,4,3,2,100,0,1
105252,-76.9230769230769,4,2,1,100,0,1
109144,-66.6666666666667,4,2,1,50,0,1
109837,-76.9230769230769,4,3,1,100,0,1
110442,-66.6666666666667,4,3,1,100,0,1
111415,-66.6666666666667,4,3,1,100,0,1
112874,-100,4,3,1,100,0,0

[HitObjects]
332,128,1307,6,0,P|360:220|324:320,1,190
180,127,2604,2,0,P|151:217|178:307,1,190
296,324,3901,6,0,B|336:336|364:328|364:328|392:320|408:292|408:292|424:268|420:232|420:232|416:196|384:164|384:164|344:160|320:176|320:176|304:188|296:208|296:220|304:232,1,380
348,260,6496,6,0,B|305:290|256:288|224:256|212:219|212:219|232:184,1,190
316,184,7793,2,0,B|368:168|411:180|441:206|451:237|451:237|432:260,1,190
220,348,9090,6,0,B|188:316|148:324|148:324|116:296|124:240|124:240|152:220|140:184|140:184|160:152|192:136|228:140|252:172|240:204|220:216,1,380
419,103,11685,6,0,B|389:186|389:186|305:226|256:177,1,213.750008153916
329,132,12334,2,0,P|295:84|222:102,1,142.500005435944
271,361,12982,6,0,B|212:293|212:293|220:200|287:182,1,213.750008153916
293,269,13631,2,0,P|351:263|372:191,1,142.500005435944
121,104,14279,6,0,B|208:87|208:87|284:140|266:207,1,213.750008153916
183,174,14928,2,0,P|158:227|210:281,1,142.500005435944
335,192,15577,6,0,B|393:259|393:259|385:352|318:370,1,213.750008153916
305,280,16226,2,0,P|246:285|225:357,1,142.500005435944
163,158,16874,6,0,L|252:228,1,95
248,128,17198,2,0,L|352:207,1,95
237,216,17523,6,0,L|131:258,1,95
220,304,17847,2,0,L|99:354,1,95
148,251,18171,6,0,L|164:138,1,95
80,192,18495,2,0,L|96:62,1,95
161,156,18820,6,0,L|250:225,1,95
246,126,19144,2,0,L|350:205,1,95
237,216,19469,5,0,0:0:0:0:
148,251,19631,1,0,0:0:0:0:
161,156,19793,1,0,0:0:0:0:
246,126,19955,5,0,0:0:0:0:
220,304,20117,1,0,0:0:0:0:
80,192,20279,1,0,0:0:0:0:
321,183,20442,5,0,0:0:0:0:
132,340,20604,1,0,0:0:0:0:
91,97,20766,1,0,0:0:0:0:
80,192,21415,5,2,0:0:0:0:
110,214,21496,1,2,0:0:0:0:
147,219,21577,1,2,0:0:0:0:
182,205,21658,1,2,0:0:0:0:
205,176,21739,1,2,0:0:0:0:
251,143,21820,1,2,0:0:0:0:
307,138,21901,1,2,0:0:0:0:
359,160,21982,1,2,0:0:0:0:
394,204,22063,6,8,B|428:252|428:252|401:299,1,95
304,329,22388,5,2,0:0:0:0:
253,353,22469,1,2,0:0:0:0:
198,343,22550,1,2,0:0:0:0:
152,308,22631,1,2,0:0:0:0:
129,255,22712,1,2,0:0:0:0:
129,198,22793,1,2,0:0:0:0:
160,150,22874,1,2,0:0:0:0:
207,118,22955,1,2,0:0:0:0:
263,123,23036,1,2,0:0:0:0:
312,150,23117,1,2,0:0:0:0:
335,201,23198,1,2,0:0:0:0:
329,257,23279,1,2,0:0:0:0:
293,302,23361,2,8,P|248:331|197:328,1,95
225,246,23685,5,2,0:0:0:0:
205,225,23766,1,2,0:0:0:0:
198,198,23847,1,2,0:0:0:0:
205,171,23928,1,2,0:0:0:0:
233,193,24009,5,2,0:0:0:0:
271,235,24090,1,2,0:0:0:0:
279,291,24171,1,2,0:0:0:0:
246,337,24252,1,2,0:0:0:0:
191,357,24334,1,2,0:0:0:0:
137,336,24415,1,2,0:0:0:0:
111,284,24496,1,2,0:0:0:0:
124,228,24577,1,2,0:0:0:0:
150,177,24658,2,0,P|190:144|241:147,1,95
324,111,24901,6,0,L|344:97,4,15.8333333333333
412,295,25144,6,0,L|392:309,8,15.8333333333333
298,348,25469,5,2,0:0:0:0:
286,322,25550,1,2,0:0:0:0:
268,300,25631,1,2,0:0:0:0:
245,283,25712,1,2,0:0:0:0:
218,273,25793,1,2,0:0:0:0:
190,270,25874,1,2,0:0:0:0:
155,309,25955,5,2,0:0:0:0:
105,291,26036,1,2,0:0:0:0:
75,248,26117,1,2,0:0:0:0:
69,196,26198,1,2,0:0:0:0:
91,148,26279,1,2,0:0:0:0:
132,114,26361,1,2,0:0:0:0:
182,99,26442,1,2,0:0:0:0:
233,107,26523,1,2,0:0:0:0:
246,167,26604,5,2,0:0:0:0:
227,225,26685,1,2,0:0:0:0:
168,244,26766,1,2,0:0:0:0:
108,229,26847,1,2,0:0:0:0:
46,229,26928,1,2,0:0:0:0:
9,278,27009,1,2,0:0:0:0:
20,338,27090,1,2,0:0:0:0:
77,360,27171,1,2,0:0:0:0:
135,341,27252,5,2,0:0:0:0:
149,160,27415,1,2,0:0:0:0:
294,267,27578,1,2,0:0:0:0:
114,264,27739,5,2,0:0:0:0:
230,59,27901,1,2,0:0:0:0:
232,349,28063,1,2,0:0:0:0:
315,212,28225,6,8,B|324:265|324:265|288:309,1,95
232,349,28469,5,2,0:0:0:0:
232,349,28550,1,2,0:0:0:0:
137,161,28712,1,2,0:0:0:0:
347,172,28874,1,2,0:0:0:0:
195,58,29036,5,2,0:0:0:0:
290,246,29198,1,2,0:0:0:0:
448,43,29361,2,8,B|450:106|450:106|419:159,1,95
397,164,29604,5,2,0:0:0:0:
380,184,29685,1,2,0:0:0:0:
370,208,29766,1,2,0:0:0:0:
368,234,29847,1,2,0:0:0:0:
374,259,29928,1,2,0:0:0:0:
386,282,30009,1,2,0:0:0:0:
405,300,30090,1,2,0:0:0:0:
360,322,30171,5,2,0:0:0:0:
314,335,30252,1,2,0:0:0:0:
267,331,30333,1,2,0:0:0:0:
225,309,30414,1,2,0:0:0:0:
195,273,30495,1,2,0:0:0:0:
181,228,30577,1,2,0:0:0:0:
180,180,30658,1,2,0:0:0:0:
198,137,30739,1,2,0:0:0:0:
231,103,30820,6,8,B|279:140|279:140|252:206,1,95
181,228,31063,1,8,0:0:0:0:
181,228,31144,2,8,B|125:250|125:250|81:194,1,95
231,103,31469,1,8,0:0:0:0:
394,211,31631,5,8,0:0:0:0:
352,234,31712,1,8,0:0:0:0:
311,258,31793,2,8,B|268:279|268:279|228:211,1,95
389,78,32117,5,8,0:0:0:0:
377,98,32198,1,8,0:0:0:0:
366,119,32279,1,8,0:0:0:0:
354,140,32360,1,8,0:0:0:0:
343,161,32441,1,8,0:0:0:0:
246,315,32604,5,0,0:0:0:0:
163,155,32766,1,0,0:0:0:0:
343,161,32928,5,0,0:0:0:0:
184,247,33090,2,0,P|111:240|88:206,1,118.75
163,155,33415,5,0,0:0:0:0:
279,287,33577,2,0,P|206:280|183:246,1,118.75
343,163,33901,5,0,0:0:0:0:
163,155,34063,1,0,0:0:0:0:
408,57,34225,2,0,P|422:137|405:191,1,118.75
310,339,34550,5,0,0:0:0:0:
163,155,34712,2,0,P|192:96|260:96,1,118.75
163,155,35036,5,0,0:0:0:0:
299,295,35198,1,0,0:0:0:0:
109,342,35361,1,0,0:0:0:0:
62,152,35523,2,0,B|54:77|152:51,1,118.75
321,158,35847,5,0,0:0:0:0:
168,266,36009,2,0,P|129:203|149:143,1,118.75
282,76,36334,5,0,0:0:0:0:
333,282,36496,1,0,0:0:0:0:
168,266,36658,5,0,0:0:0:0:
406,131,36820,1,0,0:0:0:0:
333,282,36982,5,0,0:0:0:0:
282,76,37144,1,0,0:0:0:0:
414,191,37306,5,0,0:0:0:0:
129,223,37469,2,0,P|92:162|126:110,1,118.75
284,121,37793,5,0,0:0:0:0:
128,317,37955,1,0,0:0:0:0:
108,123,38117,5,0,0:0:0:0:
325,257,38279,1,0,0:0:0:0:
128,317,38442,5,0,0:0:0:0:
269,167,38604,1,0,0:0:0:0:
328,364,38766,2,0,L|233:290,1,118.75
72,170,39090,5,0,0:0:0:0:
306,90,39252,1,0,0:0:0:0:
244,255,39415,5,0,0:0:0:0:
110,70,39577,1,0,0:0:0:0:
337,46,39739,5,0,0:0:0:0:
361,273,39901,1,0,0:0:0:0:
152,180,40063,2,0,P|220:157|287:181,1,118.75
201,314,40388,5,8,0:0:0:0:
94,85,40550,1,8,0:0:0:0:
317,108,40712,5,8,0:0:0:0:
359,315,40874,1,8,0:0:0:0:
158,247,41036,1,8,0:0:0:0:
367,206,41198,5,8,0:0:0:0:
158,247,41361,1,8,0:0:0:0:
173,195,41442,1,8,0:0:0:0:
189,144,41523,1,8,0:0:0:0:
208,95,41604,1,8,0:0:0:0:
223,43,41685,1,8,0:0:0:0:
367,206,41847,5,8,0:0:0:0:
312,214,41928,1,8,0:0:0:0:
261,224,42009,1,8,0:0:0:0:
208,231,42090,1,8,0:0:0:0:
154,243,42171,1,8,0:0:0:0:
298,122,42334,5,8,0:0:0:0:
282,175,42415,1,8,0:0:0:0:
261,224,42496,1,8,0:0:0:0:
245,274,42577,1,8,0:0:0:0:
224,325,42658,1,8,0:0:0:0:
173,275,42739,5,8,0:0:0:0:
173,275,42820,1,8,0:0:0:0:
173,275,43793,5,0,0:0:0:0:
153,324,43955,1,0,0:0:0:0:
100,322,44117,1,0,0:0:0:0:
86,270,44279,1,0,0:0:0:0:
131,241,44441,1,0,0:0:0:0:
329,171,44766,1,0,0:0:0:0:
489,308,45090,1,0,0:0:0:0:
295,220,46388,5,0,0:0:0:0:
238,201,46550,1,0,0:0:0:0:
238,142,46712,1,0,0:0:0:0:
295,123,46874,1,0,0:0:0:0:
329,171,47036,1,0,0:0:0:0:
192,331,47361,2,0,L|205:303,1,23.75
121,132,47685,2,0,L|134:104,1,23.75
279,78,48982,5,0,0:0:0:0:
329,171,49144,1,0,0:0:0:0:
222,167,49306,2,0,P|173:163|149:123,1,71.2500027179719
279,78,49631,1,0,0:0:0:0:
385,283,49955,1,0,0:0:0:0:
154,272,50279,1,0,0:0:0:0:
338,167,51415,5,0,0:0:0:0:
419,201,51577,1,0,0:0:0:0:
385,283,51739,1,0,0:0:0:0:
303,248,51901,2,0,P|256:224|240:180,1,71.2500027179719
185,239,52225,2,0,P|229:210|275:218,1,71.2500027179719
251,141,52550,2,0,P|253:193|223:229,1,71.2500027179719
338,167,52874,2,0,P|340:219|310:255,1,71.2500027179719
212,328,53198,6,0,P|112:264|160:180,1,213.750008153916
192,256,53847,2,0,L|264:200,1,71.2500027179719
236,64,54171,5,0,0:0:0:0:
325,50,54333,1,0,0:0:0:0:
402,98,54495,1,0,0:0:0:0:
428,185,54657,1,0,0:0:0:0:
390,268,54820,2,0,P|359:303|299:283,1,85.4999973907472
320,378,55144,2,0,P|304:333|351:291,1,85.4999973907472
258,262,55469,2,0,P|304:270|317:332,1,85.4999973907472
204,364,55793,6,0,P|104:260|176:172,1,256.499992172241
256,136,56442,2,0,L|292:248,1,85.4999973907472
396,192,56766,5,0,0:0:0:0:
375,306,56928,1,0,0:0:0:0:
276,367,57090,1,0,0:0:0:0:
165,336,57252,1,0,0:0:0:0:
113,231,57415,2,0,P|136:180|192:164,1,90.2499975900651
131,88,57739,2,0,P|164:133|150:189,1,90.2499975900651
246,175,58063,2,0,P|189:181|148:141,1,90.2499975900651
131,88,58388,6,0,L|232:88,1,95
246,175,58712,2,0,L|350:175,1,95
504,160,59036,6,0,L|400:160,1,85.4999973907472
393,85,59360,2,0,L|289:85,1,85.4999973907472
336,175,59685,6,0,L|334:279,1,85.4999973907472
221,88,60009,2,0,L|220:191,1,85.4999973907472
219,351,60334,6,0,L|219:262,1,85.4999973907472
104,264,60658,2,0,L|105:174,1,85.4999973907472
131,88,60982,5,0,0:0:0:0:
302,85,61144,1,0,0:0:0:0:
219,260,61306,1,0,0:0:0:0:
221,88,61469,5,0,0:0:0:0:
336,265,61631,1,0,0:0:0:0:
104,264,61793,1,0,0:0:0:0:
302,85,61955,5,0,0:0:0:0:
219,351,62117,1,0,0:0:0:0:
131,88,62279,1,0,0:0:0:0:
336,265,62442,5,0,0:0:0:0:
104,264,62604,1,0,0:0:0:0:
220,63,62766,2,0,L|220:36,27,23.7500009059906
312,64,63577,6,0,L|311:259,1,190
216,248,64063,2,0,L|217:148,1,95
220,60,64388,2,0,L|220:40,15,15.8333333333333
144,68,64874,6,0,L|142:263,1,190
47,251,65360,2,0,L|48:153,1,95
52,67,65685,2,0,L|52:42,15,23.7500009059906
144,68,66171,6,0,L|144:262,1,190
224,248,66657,2,0,L|225:151,1,95
228,63,66982,2,0,L|228:44,15,15.8333333333333
312,80,67469,5,2,0:0:0:0:
306,124,67550,1,2,0:0:0:0:
282,162,67631,1,2,0:0:0:0:
237,169,67712,1,2,0:0:0:0:
200,142,67793,1,2,0:0:0:0:
198,96,67874,1,2,0:0:0:0:
224,59,67955,1,2,0:0:0:0:
267,48,68036,1,2,0:0:0:0:
311,56,68117,1,2,0:0:0:0:
347,81,68198,1,2,0:0:0:0:
371,118,68279,1,2,0:0:0:0:
370,163,68360,1,2,0:0:0:0:
357,206,68441,1,2,0:0:0:0:
328,241,68523,1,2,0:0:0:0:
288,262,68604,1,2,0:0:0:0:
247,282,68685,1,2,0:0:0:0:
200,284,68766,6,0,L|2:286,1,190
24,187,69252,2,0,L|124:187,1,95
209,191,69577,2,0,L|231:191,15,15.8333333333333
208,112,70063,6,0,L|11:112,1,190
24,16,70549,2,0,L|125:16,1,95
209,20,70874,2,0,L|233:18,15,15.8333333333333
304,64,71361,6,0,L|304:258,1,190
384,244,71847,2,0,L|383:144,1,95
388,59,72172,2,0,L|388:42,15,15.8333333333333
456,136,72658,5,2,0:0:0:0:
460,180,72739,1,2,0:0:0:0:
444,221,72820,1,2,0:0:0:0:
410,251,72901,1,2,0:0:0:0:
366,261,72982,1,2,0:0:0:0:
323,249,73063,1,2,0:0:0:0:
283,228,73144,1,2,0:0:0:0:
239,223,73225,1,2,0:0:0:0:
204,256,73306,5,2,0:0:0:0:
151,232,73387,1,2,0:0:0:0:
120,183,73468,1,2,0:0:0:0:
122,125,73549,1,2,0:0:0:0:
155,78,73630,1,2,0:0:0:0:
209,58,73711,1,2,0:0:0:0:
266,71,73792,1,2,0:0:0:0:
305,113,73873,1,2,0:0:0:0:
314,170,73955,6,0,P|300:220|218:237,1,113.999996520996
279,339,74279,2,0,P|242:301|265:222,1,113.999996520996
149,232,74604,2,0,P|203:219|260:278,1,113.999996520996
149,232,74928,6,0,P|112:194|140:113,1,113.999996520996
17,114,75252,2,0,P|69:103|126:162,1,113.999996520996
178,56,75577,2,0,P|165:110|85:130,1,113.999996520996
178,56,75901,6,0,P|228:43|287:106,1,113.999996520996
344,0,76225,2,0,P|330:49|245:72,1,113.999996520996
320,169,76550,2,0,P|276:126|299:47,1,113.999996520996
320,169,76874,6,0,P|306:219|225:240,1,113.999996520996
293,337,77198,2,0,P|251:297|274:218,1,113.999996520996
153,228,77523,2,0,P|204:214|261:273,1,113.999996520996
153,228,77847,6,0,P|116:190|141:106,1,113.999996520996
14,109,78171,2,0,P|71:98|128:157,1,118.75
183,50,78496,2,0,P|170:105|90:125,1,118.75
277,81,78820,5,0,0:0:0:0:
255,242,78982,1,0,0:0:0:0:
127,142,79144,5,0,0:0:0:0:
167,109,79225,1,0,0:0:0:0:
218,99,79306,1,0,0:0:0:0:
269,108,79387,1,0,0:0:0:0:
310,139,79468,1,0,0:0:0:0:
341,181,79550,1,0,0:0:0:0:
352,231,79631,1,0,0:0:0:0:
333,279,79712,1,0,0:0:0:0:
296,316,79793,1,0,0:0:0:0:
244,326,79874,1,0,0:0:0:0:
197,301,79955,1,0,0:0:0:0:
176,253,80036,1,0,0:0:0:0:
182,201,80117,1,0,0:0:0:0:
217,163,80198,1,0,0:0:0:0:
261,135,80279,1,0,0:0:0:0:
312,141,80360,1,0,0:0:0:0:
304,198,80442,5,0,0:0:0:0:
258,231,80523,1,0,0:0:0:0:
201,236,80604,1,0,0:0:0:0:
150,211,80685,1,0,0:0:0:0:
104,179,80766,1,0,0:0:0:0:
48,185,80847,1,0,0:0:0:0:
2,219,80928,1,0,0:0:0:0:
6,276,81009,1,0,0:0:0:0:
53,317,81090,5,0,0:0:0:0:
114,306,81171,1,0,0:0:0:0:
169,277,81252,1,0,0:0:0:0:
194,219,81333,1,0,0:0:0:0:
198,156,81414,1,0,0:0:0:0:
162,104,81495,1,0,0:0:0:0:
100,88,81577,1,0,0:0:0:0:
41,111,81658,1,0,0:0:0:0:
62,169,81739,5,0,0:0:0:0:
112,211,81820,1,0,0:0:0:0:
177,206,81901,1,0,0:0:0:0:
223,158,81982,1,0,0:0:0:0:
261,103,82063,1,0,0:0:0:0:
326,83,82144,1,0,0:0:0:0:
393,87,82225,1,0,0:0:0:0:
445,139,82306,1,0,0:0:0:0:
457,205,82387,1,0,0:0:0:0:
422,264,82469,1,0,0:0:0:0:
369,306,82550,1,0,0:0:0:0:
302,298,82631,1,0,0:0:0:0:
258,245,82712,1,0,0:0:0:0:
238,180,82793,1,0,0:0:0:0:
273,122,82874,1,0,0:0:0:0:
325,79,82955,1,0,0:0:0:0:
332,155,83036,5,0,0:0:0:0:
319,225,83117,1,0,0:0:0:0:
269,277,83198,1,0,0:0:0:0:
198,291,83279,1,0,0:0:0:0:
132,263,83360,1,0,0:0:0:0:
93,202,83442,1,0,0:0:0:0:
96,130,83523,1,0,0:0:0:0:
144,78,83604,1,0,0:0:0:0:
187,143,83685,5,0,0:0:0:0:
208,215,83766,1,0,0:0:0:0:
176,286,83847,1,0,0:0:0:0:
108,319,83928,1,0,0:0:0:0:
35,304,84009,1,0,0:0:0:0:
1,238,84090,1,0,0:0:0:0:
13,163,84171,1,0,0:0:0:0:
77,122,84252,1,0,0:0:0:0:
153,137,84334,6,0,L|171:144,45,19.7916666666667
237,60,85631,6,2,B|296:63|293:113|293:113|343:131|307:185|307:185|316:223|316:223|228:190|208:250|208:250|153:271|111:239,2,427.500016307831
202,141,86685,2,2,B|290:167|349:90|349:90|389:167,1,213.750008153916
350,319,87090,5,8,0:0:0:0:
206,195,87252,1,8,0:0:0:0:
242,9,87415,2,8,B|325:73|325:73|329:180,1,170.999994781494
276,281,87739,5,8,0:0:0:0:
116,171,87901,2,8,P|164:112|251:118,1,142.500005435944
388,203,88225,5,8,0:0:0:0:
199,183,88388,1,8,0:0:0:0:
388,203,88550,1,8,0:0:0:0:
192,279,88712,1,8,0:0:0:0:
149,243,88793,1,8,0:0:0:0:
143,188,88874,1,8,0:0:0:0:
314,317,89036,5,8,0:0:0:0:
314,317,89198,2,8,P|265:251|288:194,1,142.500005435944
341,247,89523,5,10,0:0:0:0:
341,247,89685,1,10,0:0:0:0:
175,198,89847,1,2,0:0:0:0:
79,53,90009,1,2,0:0:0:0:
175,198,90171,5,10,0:0:0:0:
50,318,90334,5,2,0:0:0:0:
175,198,90496,1,2,0:0:0:0:
349,188,90658,1,2,0:0:0:0:
270,343,90820,6,8,L|211:286,1,71.2500027179719
126,145,90982,2,8,L|181:204,1,71.2500027179719
218,293,91144,1,8,0:0:0:0:
257,96,91306,5,8,0:0:0:0:
303,112,91387,1,8,0:0:0:0:
331,153,91468,1,8,0:0:0:0:
174,197,91631,5,0,0:0:0:0:
22,64,91793,1,8,0:0:0:0:
60,33,91874,1,8,0:0:0:0:
109,28,91955,1,8,0:0:0:0:
204,63,92036,1,8,0:0:0:0:
235,101,92117,1,8,0:0:0:0:
240,149,92198,1,8,0:0:0:0:
221,248,92279,5,8,0:0:0:0:
103,108,92442,2,0,B|165:120|165:120|138:210,1,142.500005435944
141,275,92685,6,0,L|165:351,1,71.2500027179719
58,176,92928,1,0,0:0:0:0:
189,34,93090,2,0,B|268:86|268:86|265:165,1,142.500005435944
162,111,93415,5,8,0:0:0:0:
359,165,93577,1,8,0:0:0:0:
444,349,93739,1,8,0:0:0:0:
242,330,93901,6,8,L|321:337,1,71.2500027179719
444,348,94063,1,8,0:0:0:0:
356,166,94225,1,8,0:0:0:0:
162,111,94388,2,8,B|132:199|132:199|188:258,1,142.500005435944
271,166,94712,5,8,0:0:0:0:
213,350,94874,1,8,0:0:0:0:
59,231,95036,2,8,B|52:140|52:140|112:104,1,142.500005435944
281,81,95361,6,0,L|336:146,1,71.2500027179719
452,230,95523,2,0,L|379:155,1,71.2500027179719
327,135,95685,1,0,0:0:0:0:
182,228,95847,5,0,0:0:0:0:
220,268,95928,1,0,0:0:0:0:
275,268,96009,1,0,0:0:0:0:
164,125,96171,5,0,0:0:0:0:
191,132,96252,1,0,0:0:0:0:
216,145,96333,1,0,0:0:0:0:
238,164,96414,1,0,0:0:0:0:
255,186,96495,1,0,0:0:0:0:
268,212,96576,1,0,0:0:0:0:
274,239,96657,1,0,0:0:0:0:
275,268,96738,1,0,0:0:0:0:
227,301,96820,5,0,0:0:0:0:
100,235,96982,5,0,0:0:0:0:
106,172,97063,1,0,0:0:0:0:
151,129,97144,2,0,P|213:86|280:105,1,142.500005435944
274,100,97631,6,0,B|334:108|367:137|367:137|362:229|270:244,1,246.999988693238
242,254,98036,1,2,0:0:0:0:
199,256,98117,1,2,0:0:0:0:
159,239,98198,1,2,0:0:0:0:
131,207,98279,1,2,0:0:0:0:
119,166,98360,1,2,0:0:0:0:
126,124,98441,1,2,0:0:0:0:
151,89,98522,1,2,0:0:0:0:
188,68,98604,5,2,0:0:0:0:
231,103,98685,1,2,0:0:0:0:
254,153,98766,1,2,0:0:0:0:
251,208,98847,1,2,0:0:0:0:
224,256,98928,1,2,0:0:0:0:
179,286,99009,1,2,0:0:0:0:
113,304,99090,1,2,0:0:0:0:
52,291,99171,1,2,0:0:0:0:
20,256,99252,5,2,0:0:0:0:
80,247,99333,1,2,0:0:0:0:
130,211,99414,1,2,0:0:0:0:
157,156,99496,1,2,0:0:0:0:
176,98,99577,1,2,0:0:0:0:
225,63,99658,1,2,0:0:0:0:
285,62,99739,1,2,0:0:0:0:
334,99,99820,1,2,0:0:0:0:
352,157,99901,5,10,0:0:0:0:
289,307,100063,1,8,0:0:0:0:
240,282,100144,1,8,0:0:0:0:
226,230,100225,1,8,0:0:0:0:
94,176,100388,5,8,0:0:0:0:
252,76,100550,1,8,0:0:0:0:
300,100,100631,1,8,0:0:0:0:
314,152,100712,1,8,0:0:0:0:
512,115,100874,5,8,0:0:0:0:
397,263,101036,1,8,0:0:0:0:
344,256,101117,1,8,0:0:0:0:
313,212,101198,5,2,0:0:0:0:
300,198,101279,1,2,0:0:0:0:
292,181,101360,1,2,0:0:0:0:
290,163,101441,1,2,0:0:0:0:
293,145,101522,1,2,0:0:0:0:
303,129,101603,1,2,0:0:0:0:
316,117,101684,1,2,0:0:0:0:
333,110,101765,1,2,0:0:0:0:
351,107,101847,6,0,L|376:98,12,15.8333333333333
376,210,102334,6,0,L|375:283,1,61.7499971733095
293,348,102496,2,0,L|292:269,1,61.7499971733095
214,104,102739,6,0,L|213:177,1,61.7499971733095
131,242,102901,2,0,L|130:163,1,61.7499971733095
122,50,103063,6,0,L|121:123,1,61.7499971733095
39,188,103225,2,0,L|38:109,1,61.7499971733095
34,32,103469,1,0,0:0:0:0:
131,242,103631,6,0,L|192:242,1,61.7499971733095
207,325,103793,2,0,L|268:324,1,61.7499971733095
407,314,103955,6,0,L|345:314,1,61.7499971733095
332,237,104117,2,0,L|270:237,1,61.7499971733095
192,242,104279,6,0,L|122:240,1,61.7499971733095
57,158,104441,2,0,L|136:157,1,61.7499971733095
249,149,104603,6,0,L|176:147,1,61.7499971733095
111,66,104765,2,0,L|190:65,1,61.7499971733095
289,65,104928,2,0,P|342:143|338:198,1,123.499994346619
263,341,105252,5,0,0:0:0:0:
232,339,105333,1,0,0:0:0:0:
204,326,105414,1,0,0:0:0:0:
182,304,105495,1,0,0:0:0:0:
170,276,105576,1,0,0:0:0:0:
168,246,105657,1,0,0:0:0:0:
242,255,105739,5,0,0:0:0:0:
252,226,105820,1,0,0:0:0:0:
250,196,105901,1,0,0:0:0:0:
238,168,105982,1,0,0:0:0:0:
216,146,106063,1,0,0:0:0:0:
188,133,106144,1,0,0:0:0:0:
158,123,106225,2,0,P|94:133|58:175,1,123.499994346619
177,220,106550,5,2,0:0:0:0:
207,221,106631,1,2,0:0:0:0:
236,211,106712,1,2,0:0:0:0:
259,191,106793,1,2,0:0:0:0:
273,164,106874,1,2,0:0:0:0:
276,133,106955,1,2,0:0:0:0:
268,106,107036,5,2,0:0:0:0:
328,108,107117,1,2,0:0:0:0:
379,142,107198,1,2,0:0:0:0:
404,198,107279,1,2,0:0:0:0:
395,258,107360,1,2,0:0:0:0:
356,305,107441,1,2,0:0:0:0:
298,324,107523,2,2,P|202:321|190:281,1,123.499994346619
84,166,107847,5,2,0:0:0:0:
135,115,107928,1,2,0:0:0:0:
206,123,108009,1,2,0:0:0:0:
245,183,108090,1,2,0:0:0:0:
274,248,108171,1,2,0:0:0:0:
344,267,108252,1,2,0:0:0:0:
403,225,108334,1,2,0:0:0:0:
447,168,108415,1,2,0:0:0:0:
431,98,108496,1,2,0:0:0:0:
371,58,108577,1,2,0:0:0:0:
304,32,108658,1,2,0:0:0:0:
237,59,108739,1,2,0:0:0:0:
212,126,108820,2,2,P|213:203|259:247,1,123.499994346619
366,105,109144,6,0,L|394:95,18,23.7500009059906
420,184,109793,5,8,0:0:0:0:
117,213,109955,5,8,0:0:0:0:
401,266,110117,2,8,P|348:314|278:302,1,123.499994346619
96,126,110442,5,8,0:0:0:0:
299,312,110604,1,8,0:0:0:0:
338,107,110766,5,8,0:0:0:0:
97,304,110928,1,8,0:0:0:0:
220,69,111171,5,8,0:0:0:0:
376,335,111415,1,0,0:0:0:0:
256,192,111496,12,8,112874,0:0:0:0:
