osu file format v14

[General]
AudioFilename: audio.ogg
AudioLeadIn: 0
PreviewTime: 51001
Countdown: 0
SampleSet: Soft
StackLeniency: 0.4
Mode: 0
LetterboxInBreaks: 0
WidescreenStoryboard: 0

[Editor]
Bookmarks: 16440,49849,67236,83770,89736
DistanceSpacing: 1.5
BeatDivisor: 4
GridSize: 8
TimelineZoom: 2

[Metadata]
Title:SUPERORBITAL (Game Ver.)
TitleUnicode:SUPERORBITAL (Game Ver.)
Artist:Daiichi Uchuu Sokudo
ArtistUnicode:第一宇宙速度
Creator:farq
Version:Orbital Eclipse
Source:ソニコミ
Tags:natsume shizuku japanese rock pop jpop j-pop jrock j-rock sonicomi communication with super sonico visual novel anime
BeatmapID:4227371
BeatmapSetID:2028694

[Difficulty]
HPDrainRate:6
CircleSize:4
OverallDifficulty:8.5
ApproachRate:9.2
SliderMultiplier:1.8
SliderTickRate:1

[Events]
//Background and Video events
0,0,"838892.png",0,0
//Break Periods
//Storyboard Layer 0 (Background)
//Storyboard Layer 1 (Fail)
//Storyboard Layer 2 (Pass)
//Storyboard Layer 3 (Foreground)
//Storyboard Layer 4 (Overlay)
//Storyboard Sound Samples

[TimingPoints]
110,340.909090909091,4,2,1,60,1,0
4190,340.909090909091,4,2,1,60,1,0
4190,-125,4,2,1,60,0,0
5553,-100,4,2,1,63,0,0
15780,-100,4,2,1,55,0,0
16121,-100,4,2,1,63,0,0
16462,-111.111111111111,4,2,1,60,0,0
38280,-105.263157894737,4,2,1,65,0,0
51065,-105.263157894737,4,2,1,50,0,0
51917,-86.9565217391306,4,2,1,70,0,1
73735,-100,4,2,1,63,0,0
84644,-100,4,2,1,60,0,0
87286,-100,4,2,1,5,0,0
88735,-100,4,2,1,60,0,0

[Colours]
Combo1 : 0,166,166
Combo2 : 255,183,219

[HitObjects]
75,76,110,5,4,2:0:0:0:
256,192,195,12,0,4030,0:0:0:0:
82,83,4190,5,8,2:0:0:0:
82,83,4275,1,8,2:0:0:0:
82,83,4360,2,0,L|89:125,1,36,0|0,1:0|0:0,0:0:0:0:
24,167,4530,5,8,2:0:0:0:
24,167,4616,1,8,2:0:0:0:
24,167,4701,2,0,L|37:224,1,36,0|0,1:0|0:0,0:0:0:0:
170,159,4871,5,8,2:0:0:0:
170,159,4957,1,0,1:0:0:0:
170,159,5042,2,0,L|165:214,1,36,0|0,1:0|0:0,0:0:0:0:
246,235,5212,5,8,2:0:0:0:
246,235,5297,1,8,2:0:0:0:
246,235,5383,2,0,L|248:294,1,36,0|0,1:0|0:0,0:0:0:0:
177,355,5553,6,0,P|224:364|266:330,1,90,6|0,1:2|1:0,0:0:0:0:
394,182,5894,1,10,2:0:0:0:
360,331,6065,1,0,0:0:0:0:
471,95,6235,2,0,P|476:145|482:189,1,90,2|0,1:2|1:0,0:0:0:0:
344,13,6576,2,0,P|338:64|329:119,1,90,10|0,2:0|0:0,0:0:0:0:
108,116,6917,5,2,1:2:0:0:
263,60,7087,1,0,1:0:0:0:
76,20,7258,1,10,2:0:0:0:
227,208,7428,1,2,3:2:0:0:
227,208,7513,1,0,3:0:0:0:
227,208,7599,2,0,B|181:192|181:192|128:202,1,90,2|0,1:2|1:0,0:0:0:0:
111,323,7940,1,10,2:0:0:0:
26,210,8110,1,0,0:0:0:0:
251,368,8280,6,0,P|258:330|261:263,1,90,2|0,1:2|1:0,0:0:0:0:
426,153,8621,2,0,P|426:202|432:260,1,90,10|0,2:0|0:0,0:0:0:0:
203,117,8962,1,2,1:2:0:0:
361,67,9133,1,0,1:0:0:0:
239,210,9303,1,10,2:0:0:0:
175,29,9474,1,2,2:0:0:0:
47,237,9644,6,0,P|97:243|169:262,1,90,2|0,1:2|1:0,0:0:0:0:
0,82,9985,2,0,P|47:78|97:68,1,90,10|0,2:0|3:0,0:0:0:0:
89,70,10241,1,0,3:0:0:0:
89,70,10326,1,2,1:2:0:0:
135,251,10496,1,0,1:0:0:0:
142,15,10667,1,14,2:0:0:0:
255,176,10837,1,8,2:0:0:0:
255,176,10922,1,8,2:0:0:0:
255,176,11008,6,0,P|264:130|268:80,1,90,6|0,1:2|1:0,0:0:0:0:
454,109,11349,2,0,P|447:65|441:17,1,90,10|2,2:0|2:0,0:0:0:0:
441,311,11690,1,2,1:2:0:0:
503,181,11860,1,0,1:0:0:0:
295,348,12030,2,0,P|346:353|406:371,1,90,10|0,2:0|0:0,0:0:0:0:
129,261,12371,6,0,P|179:254|221:244,1,90,2|0,1:2|1:0,0:0:0:0:
41,368,12712,2,0,P|36:321|27:273,1,90,10|0,2:0|3:0,0:0:0:0:
28,278,12968,1,0,3:0:0:0:
28,278,13053,1,2,1:2:0:0:
150,107,13224,1,0,1:0:0:0:
129,261,13394,1,10,2:0:0:0:
24,49,13565,1,2,2:0:0:0:
24,49,13650,1,0,3:0:0:0:
24,49,13735,6,0,P|67:24|130:27,1,90,2|0,1:2|1:0,0:0:0:0:
232,229,14076,1,10,2:0:0:0:
188,38,14246,1,0,0:0:0:0:
315,261,14417,2,0,P|322:214|327:152,1,90,2|0,1:2|1:0,0:0:0:0:
430,27,14758,2,0,P|433:76|440:124,1,90,10|0,2:0|0:0,0:0:0:0:
491,300,15099,5,2,1:2:0:0:
315,261,15269,1,0,1:0:0:0:
492,157,15440,1,10,2:0:0:0:
408,369,15610,5,2,3:2:0:0:
408,369,15695,1,0,3:0:0:0:
408,369,15780,2,0,L|331:359,1,45,10|8,1:2|2:0,0:0:0:0:
260,371,15951,5,10,2:0:0:0:
245,365,16036,1,8,2:0:0:0:
226,344,16121,1,10,2:0:0:0:
202,310,16207,1,8,2:0:0:0:
168,297,16292,1,10,2:0:0:0:
123,300,16377,1,8,2:0:0:0:
83,312,16462,6,0,B|39:297|29:278|29:278|51:225|53:148,1,162,6|8,1:2|2:0,0:0:0:0:
23,88,16974,1,2,2:0:0:0:
130,196,17144,2,0,P|146:156|142:100,1,81.0000000000001,2|0,1:2|1:0,0:0:0:0:
23,88,17485,1,8,2:0:0:0:
195,52,17655,1,2,2:0:0:0:
195,52,17741,1,0,0:0:0:0:
195,52,17826,6,0,P|280:49|306:131,1,162,2|8,1:2|2:0,0:0:0:0:
362,224,18337,1,0,1:0:0:0:
362,224,18508,2,0,P|383:177|376:130,1,81.0000000000001,2|2,2:0|1:2,0:0:0:0:
234,121,18849,1,10,2:0:0:0:
253,325,19019,1,2,3:2:0:0:
253,325,19104,1,0,3:0:0:0:
253,325,19190,6,0,P|194:309|156:316,1,80.9999975280763,2|0,1:2|0:0,0:0:0:0:
220,201,19530,1,10,2:0:0:0:
39,282,19701,2,0,B|40:324|51:363|51:363|93:364|160:372,1,161.999995056153,2|0,2:0|1:0,0:0:0:0:
126,213,20212,2,0,P|94:190|25:199,1,81.0000000000001,10|2,2:0|1:2,0:0:0:0:
53,186,20468,1,0,3:0:0:0:
53,186,20553,6,0,P|37:146|62:86,1,81.0000000000001,0|0,1:0|0:0,0:0:0:0:
148,53,20894,1,8,2:0:0:0:
42,12,21065,1,0,1:0:0:0:
214,99,21235,2,0,P|240:56|221:5,1,81.0000000000001,2|2,2:0|1:2,0:0:0:0:
152,147,21576,1,10,2:0:0:0:
311,113,21746,1,2,3:2:0:0:
311,113,21832,1,0,3:0:0:0:
311,113,21917,6,0,B|330:84|422:117|454:157,1,162,2|8,1:2|2:0,0:0:0:0:
331,192,22428,1,2,2:0:0:0:
467,237,22599,2,0,P|472:278|430:319,1,81.0000000000001,2|0,1:2|1:0,0:0:0:0:
319,271,22940,1,8,2:0:0:0:
389,378,23110,1,2,2:0:0:0:
389,378,23195,1,0,0:0:0:0:
389,378,23280,6,0,B|304:386|304:386|229:303,1,162,2|8,1:2|2:0,0:0:0:0:
229,238,23792,1,2,1:2:0:0:
165,342,23962,1,2,2:0:0:0:
89,242,24133,1,0,1:0:0:0:
252,329,24303,1,10,2:0:0:0:
56,376,24474,1,0,3:0:0:0:
56,376,24559,1,0,3:0:0:0:
56,376,24644,6,0,P|48:328|33:267,1,81.0000000000001,2|0,1:2|0:0,0:0:0:0:
10,170,24985,2,0,P|91:177|76:255,1,162,10|0,2:0|1:0,0:0:0:0:
199,224,25496,1,2,1:2:0:0:
163,130,25667,1,10,2:0:0:0:
311,250,25837,6,0,B|340:260|371:218|371:218|346:176|325:105,1,162,2|0,2:0|0:0,0:0:0:0:
415,88,26349,1,8,2:0:0:0:
240,91,26519,1,2,1:2:0:0:
240,91,26860,1,2,1:2:0:0:
362,5,27030,1,10,2:0:0:0:
184,151,27201,1,0,3:0:0:0:
184,151,27286,1,0,3:0:0:0:
184,151,27371,6,0,P|159:113|171:57,1,80.9999975280763,6|0,1:2|0:0,0:0:0:0:
258,37,27712,1,10,2:0:0:0:
94,28,27883,2,0,B|75:62|58:90|58:90|76:143|88:175,1,161.999995056153,2|2,2:0|1:2,0:0:0:0:
170,234,28394,1,8,2:0:0:0:
157,357,28565,1,2,2:0:0:0:
157,357,28650,1,0,0:0:0:0:
157,357,28735,6,0,B|183:364|236:361|236:361|242:318|280:265,1,162,0|8,1:0|2:0,0:0:0:0:
317,377,29246,1,0,1:0:0:0:
448,313,29417,1,2,2:0:0:0:
350,232,29587,1,2,1:2:0:0:
395,368,29758,1,10,2:0:0:0:
498,219,29928,1,2,3:2:0:0:
498,219,30013,1,0,3:0:0:0:
498,219,30099,6,0,P|469:191|414:188,1,81.0000000000001,2|0,1:2|0:0,0:0:0:0:
489,350,30440,1,8,2:0:0:0:
350,232,30610,2,0,P|337:196|360:134,1,81.0000000000001,2|2,2:0|1:2,0:0:0:0:
469,122,30951,1,0,1:0:0:0:
277,93,31121,1,10,2:0:0:0:
399,7,31292,1,0,0:0:0:0:
232,165,31462,6,0,B|198:148|168:107|168:107|196:77|232:21,1,162,0|8,1:0|2:0,0:0:0:0:
122,0,31974,1,0,1:0:0:0:
0,95,32144,1,2,2:0:0:0:
108,153,32315,1,2,1:2:0:0:
39,9,32485,1,10,2:0:0:0:
22,228,32655,1,2,3:2:0:0:
22,228,32741,1,0,3:0:0:0:
22,228,32826,6,0,P|20:268|57:310,1,81.0000000000001,2|0,1:2|0:0,0:0:0:0:
183,263,33167,1,10,2:0:0:0:
104,357,33337,1,2,2:0:0:0:
310,349,33508,2,0,P|271:329|221:335,1,81.0000000000001,0|0,1:0|1:0,0:0:0:0:
397,259,33849,1,10,2:0:0:0:
470,374,34019,1,2,2:0:0:0:
470,374,34104,1,0,0:0:0:0:
470,374,34190,6,0,P|486:328|481:268,1,81.0000000000001,0|0,1:0|1:0,0:0:0:0:
309,260,34530,1,8,2:0:0:0:
278,121,34701,1,2,1:2:0:0:
496,203,34871,2,0,P|457:202|399:179,1,81.0000000000001,2|0,2:0|1:0,0:0:0:0:
269,17,35212,2,0,P|301:2|354:11,1,81.0000000000001,10|0,2:0|3:0,0:0:0:0:
349,11,35468,1,0,3:0:0:0:
349,11,35553,6,0,P|365:62|328:105,1,81.0000000000001,2|0,1:2|1:0,0:0:0:0:
183,58,35894,2,0,P|184:107|212:148,1,81.0000000000001,8|0,2:0|0:0,0:0:0:0:
258,312,36235,2,0,P|278:268|267:217,1,81.0000000000001,0|0,1:2|1:0,0:0:0:0:
24,203,36576,1,10,2:0:0:0:
201,258,36746,1,2,2:0:0:0:
27,369,36917,6,0,P|22:328|15:279,1,81.0000000000001,2|2,1:2|1:2,0:0:0:0:
78,115,37258,1,8,2:0:0:0:
151,289,37428,1,2,3:2:0:0:
162,303,37513,1,0,3:0:0:0:
194,315,37599,5,10,2:0:0:0:
225,313,37684,1,8,2:0:0:0:
243,277,37769,1,10,2:0:0:0:
263,245,37854,1,8,2:0:0:0:
286,248,37940,5,8,3:0:0:0:
305,262,38025,1,8,3:0:0:0:
314,281,38110,1,2,3:2:0:0:
316,306,38195,1,4,3:0:0:0:
309,327,38280,6,0,P|355:337|404:308,1,85.4999999999999,6|0,1:2|0:0,0:0:0:0:
512,192,38621,2,0,P|440:156|384:223,1,171,8|0,2:0|1:0,0:0:0:0:
483,289,39133,1,0,1:0:0:0:
290,133,39303,2,0,P|300:173|307:222,1,85.4999999999999,10|0,2:0|0:0,0:0:0:0:
174,359,39644,5,2,1:2:0:0:
322,292,39815,1,2,1:2:0:0:
201,198,39985,1,8,2:0:0:0:
101,364,40155,2,0,P|81:332|83:266,1,85.4999999999999,2|0,1:2|0:0,0:0:0:0:
201,198,40496,1,2,1:2:0:0:
39,156,40667,1,8,2:0:0:0:
245,59,40837,1,2,3:2:0:0:
245,59,40922,1,0,3:0:0:0:
245,59,41008,6,0,P|260:104|257:145,1,85.4999999999999,0|0,1:0|0:0,0:0:0:0:
159,21,41349,2,0,B|145:5|114:0|33:21|25:87,1,171,8|0,2:0|1:0,0:0:0:0:
166,211,41860,1,0,1:0:0:0:
113,86,42030,1,10,2:0:0:0:
297,28,42201,1,2,2:0:0:0:
297,28,42286,1,0,0:0:0:0:
297,28,42371,5,2,1:2:0:0:
339,167,42542,2,0,P|341:210|326:250,1,85.4999999999999,2|8,1:2|2:0,0:0:0:0:
488,126,42883,2,0,P|463:152|389:149,1,85.4999999999999,2|0,1:2|0:0,0:0:0:0:
257,150,43224,1,2,1:2:0:0:
410,62,43394,1,8,2:0:0:0:
497,246,43565,1,2,3:2:0:0:
497,246,43650,1,0,3:0:0:0:
497,246,43735,6,0,P|494:294|451:330,1,85.4999999999999,0|0,1:0|0:0,0:0:0:0:
268,299,44076,2,0,P|312:378|400:368,1,170.999995433807,8|0,2:0|1:0,0:0:0:0:
432,258,44587,1,0,1:0:0:0:
191,315,44758,2,0,P|176:274|195:222,1,85.4999999999999,10|0,2:0|0:0,0:0:0:0:
301,162,45099,5,2,1:2:0:0:
118,120,45269,1,2,1:2:0:0:
320,72,45440,1,8,2:0:0:0:
53,192,45610,2,0,P|36:159|50:94,1,85.4999999999999,2|0,1:2|0:0,0:0:0:0:
215,158,45951,1,2,1:2:0:0:
108,0,46121,1,8,2:0:0:0:
302,205,46292,1,2,3:2:0:0:
302,205,46377,1,0,3:0:0:0:
302,205,46462,6,0,B|344:226|375:208|375:208|370:162|347:97,1,171,0|8,1:0|2:0,0:0:0:0:
441,259,46974,1,0,0:0:0:0:
483,14,47144,2,0,P|502:53|479:115,1,85.4999999999999,0|0,1:0|1:0,0:0:0:0:
279,99,47485,2,0,P|258:62|264:21,1,85.4999999999999,10|0,2:0|0:0,0:0:0:0:
156,127,47826,5,2,1:2:0:0:
342,15,47996,1,0,1:0:0:0:
125,240,48167,2,0,P|88:193|106:144,1,85.4999999999999,8|2,2:0|1:2,0:0:0:0:
212,354,48508,2,0,P|179:384|123:373,1,85.4999999999999,2|0,2:0|1:0,0:0:0:0:
194,180,48849,5,12,2:0:0:0:
82,313,49019,1,8,2:0:0:0:
82,313,49104,1,8,2:0:0:0:
82,313,49190,1,14,2:0:0:0:
15,118,49360,1,8,2:0:0:0:
206,282,49530,5,8,3:0:0:0:
253,301,49616,1,4,3:0:0:0:
303,308,49701,1,10,2:0:0:0:
347,282,49786,1,4,3:0:0:0:
369,236,49871,5,10,2:0:0:0:
367,214,49957,1,4,3:0:0:0:
365,192,50042,1,8,3:0:0:0:
363,170,50127,1,4,3:0:0:0:
324,153,50212,5,10,2:0:0:0:
309,131,50297,1,4,3:0:0:0:
309,105,50383,1,10,2:0:0:0:
324,84,50468,1,4,3:0:0:0:
348,75,50553,5,8,3:0:0:0:
388,123,50638,1,4,3:0:0:0:
395,185,50724,1,10,2:0:0:0:
475,0,50894,1,10,2:0:0:0:
161,3,51917,6,0,B|116:-1|89:36|89:36|116:102|145:193,1,207,6|8,1:2|2:0,0:0:0:0:
265,86,52428,1,2,2:0:0:0:
7,166,52599,2,0,P|52:262|132:207,1,207,2|8,1:2|2:0,0:0:0:0:
8,80,53110,1,2,2:0:0:0:
109,334,53280,6,0,P|166:335|211:298,1,103.5,2|0,1:2|1:0,0:0:0:0:
221,158,53621,1,8,2:0:0:0:
298,357,53792,1,2,3:2:0:0:
298,357,53877,1,0,3:0:0:0:
298,357,53962,2,0,P|331:311|311:245,1,103.5,0|0,1:2|1:0,0:0:0:0:
312,111,54303,1,8,2:0:0:0:
253,288,54474,1,2,2:0:0:0:
380,53,54644,6,0,B|370:5|357:-8|190:70|173:46,1,207,2|8,1:2|2:0,0:0:0:0:
185,230,55155,1,0,0:0:0:0:
111,14,55326,2,0,P|89:57|121:126,1,103.5,0|0,1:0|1:0,0:0:0:0:
287,229,55667,1,8,2:0:0:0:
56,283,55837,1,2,2:0:0:0:
326,147,56008,6,0,B|372:139|400:177|400:177|385:235|368:316,1,207,2|8,1:2|2:0,0:0:0:0:
178,367,56519,1,2,3:2:0:0:
178,367,56604,1,0,3:0:0:0:
178,367,56690,2,0,P|152:324|183:266,1,103.5,0|0,1:0|1:0,0:0:0:0:
358,369,57030,1,14,2:0:0:0:
25,266,57201,1,10,2:0:0:0:
25,266,57286,1,8,2:0:0:0:
25,266,57371,6,0,P|66:229|128:238,1,103.5,6|0,1:2|0:0,0:0:0:0:
82,358,57712,1,10,2:0:0:0:
8,167,57883,2,0,P|2:112|42:63,1,103.5,2|0,2:0|1:0,0:0:0:0:
188,156,58224,1,2,1:2:0:0:
123,9,58394,1,8,2:0:0:0:
375,148,58565,1,2,3:2:0:0:
375,148,58650,1,0,3:0:0:0:
375,148,58735,5,2,1:2:0:0:
283,0,58906,2,0,P|275:51|274:102,1,103.5,2|8,1:2|2:0,0:0:0:0:
295,318,59246,2,0,P|251:293|241:244,1,103.5,2|0,2:0|1:0,0:0:0:0:
511,312,59587,2,0,P|473:280|408:293,1,103.5,2|8,1:2|2:0,0:0:0:0:
342,384,59928,1,2,2:0:0:0:
246,158,60099,5,6,1:2:0:0:
101,366,60269,2,0,P|73:317|101:257,1,103.500001974106,2|8,2:0|2:0,0:0:0:0:
246,158,60610,2,0,P|269:213|241:270,1,103.500001974106,2|0,2:0|1:0,0:0:0:0:
49,173,60951,1,2,1:2:0:0:
185,89,61121,1,8,2:0:0:0:
26,73,61292,1,2,2:0:0:0:
269,14,61462,5,8,2:0:0:0:
342,216,61633,1,0,1:0:0:0:
398,46,61803,1,8,2:0:0:0:
244,251,61974,1,0,1:0:0:0:
486,212,62144,5,10,2:0:0:0:
230,359,62315,1,10,2:0:0:0:
174,351,62400,1,8,2:0:0:0:
133,308,62485,1,10,2:0:0:0:
133,254,62570,1,8,2:0:0:0:
146,222,62655,1,4,3:0:0:0:
158,217,62741,1,4,3:0:0:0:
173,220,62826,6,0,B|196:180|181:159|83:141|20:220,1,207,6|8,1:2|2:0,0:0:0:0:
74,363,63337,1,2,2:0:0:0:
266,250,63508,2,0,B|303:241|311:183|311:183|270:141|236:64,1,207,2|8,1:2|2:0,0:0:0:0:
59,90,64019,1,2,2:0:0:0:
296,6,64190,6,0,P|398:38|368:139,1,207,0|8,1:2|2:0,0:0:0:0:
450,258,64701,1,2,3:2:0:0:
450,258,64786,1,0,3:0:0:0:
450,258,64871,2,0,P|479:215|436:149,1,103.5,0|0,1:2|1:0,0:0:0:0:
266,250,65212,1,12,2:0:0:0:
462,358,65383,1,8,2:0:0:0:
462,358,65468,1,8,2:0:0:0:
462,358,65553,6,0,P|407:371|347:337,1,103.5,6|0,1:2|0:0,0:0:0:0:
340,213,65894,1,10,2:0:0:0:
204,384,66065,1,0,1:0:0:0:
340,213,66235,1,8,3:0:0:0:
76,315,66405,1,0,1:0:0:0:
340,213,66576,5,4,2:0:0:0:
353,163,66661,1,0,0:0:0:0:
338,113,66746,1,2,2:0:0:0:
294,85,66832,1,0,0:0:0:0:
277,105,66917,5,2,1:2:0:0:
296,121,67002,1,0,0:0:0:0:
321,118,67087,2,0,L|330:50,1,51.7499999999999,2|0,1:2|0:0,0:0:0:0:
182,10,67258,5,10,2:0:0:0:
140,40,67343,1,0,0:0:0:0:
129,90,67428,1,2,2:0:0:0:
157,133,67513,1,0,0:0:0:0:
207,147,67599,5,2,1:2:0:0:
219,124,67684,1,0,0:0:0:0:
209,100,67769,2,0,L|119:117,1,51.7499999999999,2|0,1:2|0:0,0:0:0:0:
9,141,67940,1,14,2:0:0:0:
115,320,68110,1,10,2:0:0:0:
115,320,68195,1,8,2:0:0:0:
115,320,68280,6,0,B|76:347|34:340|34:340|1:281|1:204,1,207,6|10,1:2|2:0,0:0:0:0:
197,384,68792,2,0,P|227:350|183:280,1,103.5,2|0,2:0|1:0,0:0:0:0:
130,188,69133,1,2,1:2:0:0:
324,152,69303,1,8,2:0:0:0:
214,297,69474,1,2,2:0:0:0:
268,64,69644,6,0,B|294:33|396:63|444:177,1,207,0|8,1:0|2:0,0:0:0:0:
455,315,70155,1,0,3:0:0:0:
455,315,70241,1,0,3:0:0:0:
455,315,70326,2,0,P|436:259|479:227,1,103.5,0|0,1:0|1:0,0:0:0:0:
209,294,70667,1,10,2:0:0:0:
328,165,70837,1,2,2:0:0:0:
74,243,71008,6,0,P|96:358|188:311,1,207,6|10,1:2|2:0,0:0:0:0:
120,168,71519,1,2,2:0:0:0:
238,382,71690,2,0,P|265:347|227:270,1,103.5,0|2,1:0|1:2,0:0:0:0:
160,84,72030,2,0,P|120:123|128:184,1,103.5,8|0,2:0|0:0,0:0:0:0:
440,219,72371,5,14,2:0:0:0:
490,52,72542,1,0,1:0:0:0:
361,240,72712,5,8,2:0:0:0:
391,0,72883,1,0,1:0:0:0:
255,290,73053,5,10,2:0:0:0:
276,31,73224,1,8,2:0:0:0:
221,16,73309,1,8,2:0:0:0:
157,19,73394,1,8,2:0:0:0:
121,51,73479,1,8,2:0:0:0:
116,79,73565,1,4,3:0:0:0:
124,102,73650,1,4,3:0:0:0:
140,118,73735,6,0,P|141:189|19:206,1,180,6|10,1:2|2:0,0:0:0:0:
11,90,74246,1,0,0:0:0:0:
0,328,74417,2,0,P|50:318|105:313,1,90,2|0,1:2|1:0,0:0:0:0:
276,375,74758,2,0,P|224:372|170:363,1,90,10|0,2:0|0:0,0:0:0:0:
369,191,75099,5,2,1:2:0:0:
246,297,75269,1,0,1:0:0:0:
480,286,75440,2,0,P|490:230|437:199,1,90,10|2,2:0|3:2,0:0:0:0:
459,187,75695,1,0,3:0:0:0:
459,187,75780,2,0,P|446:151|490:99,1,90,2|0,1:2|1:0,0:0:0:0:
290,166,76121,1,10,2:0:0:0:
445,46,76292,1,0,0:0:0:0:
445,46,76377,1,0,0:0:0:0:
445,46,76462,6,0,B|427:18|384:5|384:5|326:26|277:72,1,180,2|10,1:2|2:0,0:0:0:0:
375,203,76974,1,0,0:0:0:0:
241,5,77144,2,0,P|219:43|247:112,1,90,2|0,1:2|1:0,0:0:0:0:
347,283,77485,1,10,2:0:0:0:
381,92,77655,1,2,2:0:0:0:
471,375,77826,6,0,P|414:374|360:341,1,90,2|0,1:2|1:0,0:0:0:0:
495,253,78167,1,10,2:0:0:0:
250,375,78337,1,0,3:0:0:0:
250,375,78422,1,0,3:0:0:0:
250,375,78508,2,0,P|244:321|280:297,1,90,2|0,1:2|1:0,0:0:0:0:
137,119,78849,1,10,2:0:0:0:
99,373,79019,1,8,2:0:0:0:
99,373,79104,1,8,2:0:0:0:
99,373,79190,6,0,P|95:324|88:269,1,90,6|0,1:2|1:0,0:0:0:0:
256,135,79530,2,0,L|247:249,1,90,10|2,2:0|2:0,0:0:0:0:
29,210,79871,1,2,1:2:0:0:
179,76,80042,1,0,1:0:0:0:
5,11,80212,2,0,P|12:63|17:138,1,90,10|0,2:0|0:0,0:0:0:0:
248,224,80553,6,0,L|256:135,1,90,2|0,1:2|1:0,0:0:0:0:
266,0,80894,1,10,2:0:0:0:
424,146,81065,1,0,3:0:0:0:
424,146,81150,1,0,3:0:0:0:
424,146,81235,2,0,P|367:152|338:127,1,90,2|0,1:2|1:0,0:0:0:0:
486,43,81576,1,10,2:0:0:0:
386,237,81746,1,2,2:0:0:0:
386,237,81832,1,0,3:0:0:0:
386,237,81917,6,0,B|361:271|374:305|374:305|451:330|490:363,1,180,6|10,1:2|2:0,0:0:0:0:
489,197,82428,1,0,0:0:0:0:
304,370,82599,2,0,P|259:370|207:345,1,90,2|0,1:2|1:0,0:0:0:0:
228,166,82940,2,0,P|281:164|316:189,1,90,10|0,2:0|0:0,0:0:0:0:
100,355,83280,5,2,1:2:0:0:
29,158,83451,1,0,1:0:0:0:
225,340,83621,1,14,2:0:0:0:
72,85,83792,1,2,3:2:0:0:
76,78,83877,1,0,3:0:0:0:
91,64,83962,5,10,1:2:0:0:
124,51,84047,1,8,2:0:0:0:
165,55,84133,1,10,2:0:0:0:
198,80,84218,1,8,2:0:0:0:
223,132,84303,5,10,2:0:0:0:
260,176,84388,1,8,2:0:0:0:
317,190,84474,1,10,2:0:0:0:
371,168,84559,1,8,2:0:0:0:
398,116,84644,5,6,1:2:0:0:
256,192,84729,12,0,87286,0:0:0:0:
256,192,87371,12,0,88650,0:0:0:0:
352,166,88735,5,8,2:0:0:0:
171,257,88905,1,8,2:0:0:0:
171,257,88962,1,0,0:0:0:0:
171,257,89019,1,0,0:0:0:0:
171,257,89076,2,0,L|159:175,1,60,4|0,3:0|0:0,0:0:0:0:
145,127,89246,5,2,1:3:0:0:
273,380,89587,1,2,1:3:0:0:
