osu file format v14

[General]
AudioFilename: audio.ogg
AudioLeadIn: 0
PreviewTime: 51001
Countdown: 0
SampleSet: Soft
StackLeniency: 0.4
Mode: 0
LetterboxInBreaks: 0
WidescreenStoryboard: 1

[Editor]
Bookmarks: 16440,49849,67236,83770,89736
DistanceSpacing: 0.9
BeatDivisor: 4
GridSize: 8
TimelineZoom: 1

[Metadata]
Title:SUPERORBITAL (Game Ver.)
TitleUnicode:SUPERORBITAL (Game Ver.)
Artist:Daiichi Uchuu Sokudo
ArtistUnicode:第一宇宙速度
Creator:farq
Version:Normal
Source:ソニコミ
Tags:natsume shizuku japanese rock pop jpop j-pop jrock j-rock sonicomi communication with super sonico visual novel anime
BeatmapID:4227372
BeatmapSetID:2028694

[Difficulty]
HPDrainRate:3
CircleSize:3
OverallDifficulty:4
ApproachRate:5.3
SliderMultiplier:1.05
SliderTickRate:1

[Events]
//Background and Video events
0,0,"838892.png",0,0
//Break Periods
//Storyboard Layer 0 (Background)
//Storyboard Layer 1 (Fail)
//Storyboard Layer 2 (Pass)
//Storyboard Layer 3 (Foreground)
//Storyboard Layer 4 (Overlay)
//Storyboard Sound Samples

[TimingPoints]
110,340.909090909091,4,2,1,60,1,0
4190,340.909090909091,4,2,1,60,1,0
4190,-100,4,2,1,60,0,0
5554,-100,4,2,1,63,0,0
15780,-100,4,2,1,55,0,0
16120,-100,4,2,1,63,0,0
16462,-111.111111111111,4,2,1,60,0,0
38280,-111.111111111111,4,2,1,65,0,0
51065,-111.111111111111,4,2,1,50,0,0
51917,-90.9090909090908,4,2,1,70,0,1
73735,-100,4,2,1,63,0,0
84644,-100,4,2,1,60,0,0

[Colours]
Combo1 : 0,166,166
Combo2 : 255,183,219

[HitObjects]
434,92,4190,6,0,P|441:151|452:214,1,105,8|8,2:0|2:0,0:0:0:0:
468,244,4701,1,0,1:0:0:0:
468,244,4871,2,0,L|452:354,1,105,8|8,2:0|2:0,0:0:0:0:
357,348,5553,6,0,L|250:334,1,105,6|10,1:2|2:0,0:0:0:0:
213,358,6065,1,0,0:0:0:0:
213,358,6235,2,0,P|156:343|94:329,1,105,2|10,1:2|2:0,0:0:0:0:
31,281,6917,1,2,1:2:0:0:
58,185,7258,2,0,L|51:115,1,52.5,10|2,2:0|3:2,0:0:0:0:
36,88,7599,2,0,P|92:78|159:59,1,105,2|10,1:2|2:0,0:0:0:0:
216,117,8280,6,0,P|273:108|324:104,1,105,2|10,1:2|2:0,0:0:0:0:
335,62,8792,1,0,0:0:0:0:
335,62,8962,2,0,P|385:49|450:37,1,105,2|10,1:2|2:0,0:0:0:0:
480,70,9474,1,2,2:0:0:0:
480,70,9644,2,0,P|488:138|456:175,1,105,2|10,1:2|2:0,0:0:0:0:
428,255,10326,2,0,P|377:241|312:228,1,105,2|14,1:2|2:0,0:0:0:0:
287,255,10837,1,8,2:0:0:0:
287,255,11008,6,0,P|233:266|169:272,1,105,6|10,1:2|2:0,0:0:0:0:
126,195,11690,1,2,1:2:0:0:
185,121,12030,1,10,2:0:0:0:
156,30,12371,2,0,P|126:35|42:45,1,105,2|10,1:2|2:0,0:0:0:0:
11,128,13053,2,0,P|17:185|23:247,1,105,2|10,1:2|2:0,0:0:0:0:
25,284,13565,1,2,2:0:0:0:
25,284,13735,6,0,P|69:312|128:297,1,105,2|10,1:2|2:0,0:0:0:0:
201,351,14417,2,0,L|310:365,1,105,2|10,1:2|2:0,0:0:0:0:
343,336,14928,1,0,0:0:0:0:
343,336,15099,2,0,L|457:316,1,105,2|10,1:2|2:0,0:0:0:0:
476,228,15780,2,0,P|467:176|459:105,1,105,10|10,1:2|2:0,0:0:0:0:
453,81,16292,1,10,2:0:0:0:
453,81,16462,6,0,P|399:74|297:59,1,141.749995674133,6|2,1:2|2:0,0:0:0:0:
271,50,17144,1,2,1:2:0:0:
157,5,17655,1,2,2:0:0:0:
157,5,17826,2,0,P|153:59|145:106,1,94.499997116089,2|8,1:2|2:0,0:0:0:0:
101,171,18508,6,0,P|110:224|121:283,1,94.499997116089,2|10,2:0|2:0,0:0:0:0:
132,309,19019,1,2,3:2:0:0:
132,309,19190,6,0,P|181:303|244:300,1,94.5000000000001,2|10,1:2|2:0,0:0:0:0:
255,331,19701,2,0,P|302:338|366:351,1,94.499997116089,2|0,2:0|1:0,0:0:0:0:
394,356,20212,1,10,2:0:0:0:
394,356,20383,2,0,P|417:313|398:260,1,94.499997116089,2|0,1:2|0:0,0:0:0:0:
374,243,20894,1,8,2:0:0:0:
432,181,21235,2,0,L|410:78,1,94.499997116089,2|10,2:0|2:0,0:0:0:0:
395,55,21746,1,2,3:2:0:0:
395,55,21917,6,0,P|342:47|296:32,1,94.499997116089,2|8,1:2|2:0,0:0:0:0:
265,29,22428,1,2,2:0:0:0:
265,29,22599,2,0,P|256:103|231:174,1,141.749995674133,2|2,1:2|2:0,0:0:0:0:
215,204,23280,1,2,1:2:0:0:
105,145,23792,1,2,1:2:0:0:
105,145,23962,2,0,P|92:195|88:248,1,94.499997116089,2|10,2:0|2:0,0:0:0:0:
60,318,24644,5,2,1:2:0:0:
145,321,24985,2,0,P|197:311|247:312,1,94.499997116089,10|0,2:0|1:0,0:0:0:0:
282,312,25496,1,2,1:2:0:0:
348,366,25837,2,0,P|411:356|497:348,1,141.749995674133,2|8,2:0|2:0,0:0:0:0:
503,308,26519,2,0,P|521:246|490:161,1,141.749995674133,2|10,1:2|2:0,0:0:0:0:
489,89,27371,6,0,L|380:72,1,94.5000000000001,6|10,1:2|2:0,0:0:0:0:
366,42,27883,1,2,2:0:0:0:
281,52,28224,1,2,1:2:0:0:
197,40,28565,2,0,P|196:110|190:197,1,141.749995674133,2|8,2:0|2:0,0:0:0:0:
176,265,29417,2,0,P|227:264|281:252,1,94.499997116089,2|10,2:0|2:0,0:0:0:0:
316,257,29928,1,2,3:2:0:0:
316,257,30099,6,0,P|317:210|321:160,1,94.5000000000001,2|8,1:2|2:0,0:0:0:0:
334,122,30610,2,0,L|340:13,1,94.499997116089,2|0,2:0|1:0,0:0:0:0:
376,7,31121,1,10,2:0:0:0:
455,36,31462,2,0,L|470:142,1,94.5000000000001,0|8,1:0|2:0,0:0:0:0:
501,208,32144,2,0,L|487:318,1,94.499997116089,2|10,2:0|2:0,0:0:0:0:
468,339,32655,1,2,3:2:0:0:
468,339,32826,6,0,P|423:320|363:305,1,94.499997116089,2|10,1:2|2:0,0:0:0:0:
346,335,33337,1,2,2:0:0:0:
268,369,33678,2,0,P|217:350|170:337,1,94.499997116089,0|2,1:0|2:0,0:0:0:0:
158,301,34190,2,0,P|157:261|199:217,1,94.499997116089,0|8,1:0|2:0,0:0:0:0:
233,207,34701,1,2,1:2:0:0:
233,207,34871,2,0,L|249:114,1,94.499997116089,2|10,2:0|2:0,0:0:0:0:
262,29,35553,6,0,P|214:23|147:13,2,94.499997116089,2|8|0,1:2|2:0|1:2,0:0:0:0:
345,48,36576,2,0,P|355:100|361:149,1,94.499997116089,10|2,2:0|1:2,0:0:0:0:
397,162,37087,1,2,1:2:0:0:
418,244,37428,2,0,L|357:254,1,47.2499985580445,2|10,3:2|2:0,0:0:0:0:
329,259,37769,1,10,2:0:0:0:
276,199,38110,1,2,3:2:0:0:
276,199,38280,6,0,P|279:151|282:99,2,94.499997116089,6|8|0,1:2|2:0|1:0,0:0:0:0:
199,161,39303,1,10,2:0:0:0:
118,175,39644,1,2,1:2:0:0:
118,175,39815,2,0,P|124:222|129:277,1,94.5000000000001,2|2,1:2|1:2,0:0:0:0:
88,343,40496,1,2,1:2:0:0:
170,365,40837,6,0,P|281:371|413:385,1,236.249992790222,2|0,3:2|1:0,0:0:0:0:
439,305,42030,2,0,L|500:319,2,47.2499985580445,10|2|2,2:0|2:0|1:2,0:0:0:0:
398,291,42542,1,2,1:2:0:0:
433,213,42883,1,2,1:2:0:0:
414,129,43224,1,2,1:2:0:0:
453,53,43565,2,0,L|209:27,1,236.249992790222,2|0,3:2|1:0,0:0:0:0:
137,53,44758,6,0,L|154:156,1,94.5000000000001,10|2,2:0|1:2,0:0:0:0:
158,188,45269,1,2,1:2:0:0:
233,226,45610,1,2,1:2:0:0:
209,307,45951,1,2,1:2:0:0:
125,322,46292,2,0,B|26:250|26:250|92:141,1,236.249992790222,2|0,3:2|1:0,0:0:0:0:
142,90,47485,1,10,2:0:0:0:
117,8,47826,6,0,L|225:-3,1,94.499997116089,2|8,1:2|2:0,0:0:0:0:
249,28,48337,1,2,1:2:0:0:
249,28,48508,2,0,L|357:41,1,94.499997116089,2|12,2:0|2:0,0:0:0:0:
411,89,49190,6,0,L|420:149,1,47.2499985580445,14|8,2:0|2:0,0:0:0:0:
449,164,49530,2,0,P|448:217|447:261,1,94.499997116089,8|10,3:0|2:0,0:0:0:0:
409,334,50212,2,0,L|311:318,1,94.499997116089,10|8,2:0|3:0,0:0:0:0:
276,323,50724,1,10,2:0:0:0:
276,323,50894,1,10,2:0:0:0:
491,97,51917,6,0,L|472:217,1,115.5,6|8,1:2|2:0,0:0:0:0:
427,232,52428,1,2,2:0:0:0:
427,232,52599,2,0,L|298:206,1,115.5,2|8,1:2|2:0,0:0:0:0:
282,174,53110,1,2,2:0:0:0:
282,174,53280,1,2,1:2:0:0:
130,169,53792,1,2,3:2:0:0:
130,169,53962,2,0,P|128:227|122:287,1,115.5,0|8,1:2|2:0,0:0:0:0:
90,327,54474,1,2,2:0:0:0:
90,327,54644,6,0,P|202:364|320:192,1,346.5,2|8,1:2|2:0,0:0:0:0:
300,161,55837,1,2,2:0:0:0:
300,161,56008,2,0,B|240:159|240:159|208:216,2,115.50000352478,2|8|0,1:2|2:0|1:0,0:0:0:0:
401,215,57030,1,14,2:0:0:0:
401,215,57201,1,10,2:0:0:0:
401,215,57371,6,0,P|395:271|391:338,1,115.50000352478,6|10,1:2|2:0,0:0:0:0:
342,349,57883,1,2,2:0:0:0:
243,315,58224,1,2,1:2:0:0:
166,384,58565,1,2,3:2:0:0:
166,384,58735,2,0,L|52:372,1,115.5,2|8,1:2|2:0,0:0:0:0:
18,331,59246,1,2,2:0:0:0:
29,227,59587,1,2,1:2:0:0:
133,227,59928,1,2,2:0:0:0:
133,227,60099,1,6,1:2:0:0:
133,227,60269,6,0,P|131:172|124:100,1,115.5,2|2,2:0|2:0,0:0:0:0:
195,34,60951,1,2,1:2:0:0:
302,33,61292,1,2,2:0:0:0:
302,33,61462,2,0,P|311:95|318:157,1,115.50000352478,8|8,2:0|2:0,0:0:0:0:
419,169,62144,2,0,L|413:244,1,57.7500000000001,10|10,2:0|2:0,0:0:0:0:
391,273,62485,2,0,L|321:256,1,57.7500000000001,10|4,2:0|3:0,0:0:0:0:
283,269,62826,6,0,P|250:218|275:165,1,115.50000352478,6|8,1:2|2:0,0:0:0:0:
317,147,63337,1,2,2:0:0:0:
317,147,63508,1,2,1:2:0:0:
329,5,64019,1,2,2:0:0:0:
329,5,64190,2,0,P|257:10|195:13,1,115.5,0|8,1:2|2:0,0:0:0:0:
185,57,64701,1,2,3:2:0:0:
185,57,64871,2,0,P|121:46|54:39,1,115.5,0|12,1:2|2:0,0:0:0:0:
47,89,65383,1,8,2:0:0:0:
47,89,65553,5,6,1:2:0:0:
20,189,65894,1,10,2:0:0:0:
97,262,66235,1,8,3:0:0:0:
111,364,66576,2,0,P|168:355|227:350,1,115.5,4|2,2:0|1:2,0:0:0:0:
255,250,67258,2,0,P|307:261|372:273,1,115.5,10|2,2:0|1:2,0:0:0:0:
465,309,67940,1,14,2:0:0:0:
501,212,68280,6,0,P|490:157|480:85,1,115.5,6|10,1:2|2:0,0:0:0:0:
487,46,68792,1,2,2:0:0:0:
398,100,69133,1,2,1:2:0:0:
323,35,69474,2,0,L|150:18,1,173.250005287171,2|8,2:0|2:0,0:0:0:0:
50,45,70326,1,0,1:0:0:0:
12,142,70667,1,10,2:0:0:0:
12,142,70837,1,2,2:0:0:0:
12,142,71008,6,0,L|23:273,1,115.50000352478,6|10,1:2|2:0,0:0:0:0:
31,308,71519,1,2,2:0:0:0:
134,317,71860,2,0,P|187:309|254:301,1,115.50000352478,2|0,1:2|0:0,0:0:0:0:
299,313,72371,1,14,2:0:0:0:
339,217,72712,1,8,2:0:0:0:
252,157,73053,2,0,P|242:100|226:28,1,115.50000352478,10|8,2:0|2:0,0:0:0:0:
320,18,73735,6,0,P|384:5|429:42,1,105,6|10,1:2|2:0,0:0:0:0:
443,62,74246,1,0,0:0:0:0:
443,62,74417,2,0,L|453:180,1,105,2|10,1:2|2:0,0:0:0:0:
493,251,75099,2,0,P|490:318|457:350,1,105,2|10,1:2|2:0,0:0:0:0:
428,369,75610,1,2,3:2:0:0:
428,369,75780,2,0,L|365:357,1,52.5,2|0,1:2|1:0,0:0:0:0:
330,348,76121,1,10,2:0:0:0:
236,364,76462,6,0,P|187:359|123:356,1,105,2|10,1:2|2:0,0:0:0:0:
87,356,76974,1,0,0:0:0:0:
87,356,77144,2,0,L|77:239,1,105,2|10,1:2|2:0,0:0:0:0:
51,218,77655,1,2,2:0:0:0:
51,218,77826,2,0,L|63:111,1,105,2|10,1:2|2:0,0:0:0:0:
96,25,78508,2,0,L|200:15,1,105,2|10,1:2|2:0,0:0:0:0:
245,30,79019,1,8,2:0:0:0:
245,30,79190,6,0,P|260:88|225:136,1,105,6|10,1:2|2:0,0:0:0:0:
237,176,79701,1,2,2:0:0:0:
237,176,79871,2,0,P|246:227|256:287,1,105,2|10,1:2|2:0,0:0:0:0:
307,358,80553,2,0,P|356:367|402:334,1,105,2|10,1:2|2:0,0:0:0:0:
441,312,81065,1,0,3:0:0:0:
441,312,81235,2,0,P|445:258|449:208,1,105,2|10,1:2|2:0,0:0:0:0:
480,172,81746,1,2,2:0:0:0:
480,172,81917,6,0,P|473:119|425:77,1,105,6|10,1:2|2:0,0:0:0:0:
358,134,82599,1,2,1:2:0:0:
323,46,82940,1,10,2:0:0:0:
233,75,83280,1,2,1:2:0:0:
150,29,83621,2,0,L|86:22,1,52.5,14|2,2:0|3:2,0:0:0:0:
60,50,83962,1,10,1:2:0:0:
60,50,84133,2,0,B|48:115|44:141|44:141|95:143|109:174,1,157.5,10|6,2:0|1:2,0:0:0:0:
256,192,84815,12,2,87371,2:0:0:0:
330,329,88735,6,0,L|336:275,1,52.5,8|8,2:0|2:0,0:0:0:0:
377,254,89076,1,4,3:0:0:0:
377,254,89246,1,2,1:3:0:0:
327,173,89587,1,2,1:3:0:0:
