osu file format v14

[General]
AudioFilename: audio.ogg
AudioLeadIn: 0
PreviewTime: 51001
Countdown: 0
SampleSet: Soft
StackLeniency: 0.4
Mode: 0
LetterboxInBreaks: 0
WidescreenStoryboard: 1

[Editor]
Bookmarks: 16440,49849,67236,83770,89736
DistanceSpacing: 0.8
BeatDivisor: 4
GridSize: 8
TimelineZoom: 1

[Metadata]
Title:SUPERORBITAL (Game Ver.)
TitleUnicode:SUPERORBITAL (Game Ver.)
Artist:Daiichi Uchuu Sokudo
ArtistUnicode:第一宇宙速度
Creator:farq
Version:Natsume Shizuku's Insane
Source:ソニコミ
Tags:natsume shizuku japanese rock pop jpop j-pop jrock j-rock sonicomi communication with super sonico visual novel anime
BeatmapID:4227818
BeatmapSetID:2028694

[Difficulty]
HPDrainRate:5.6
CircleSize:4
OverallDifficulty:8
ApproachRate:9
SliderMultiplier:1.76
SliderTickRate:1

[Events]
//Background and Video events
0,0,"838892.png",0,0
//Break Periods
//Storyboard Layer 0 (Background)
//Storyboard Layer 1 (Fail)
//Storyboard Layer 2 (Pass)
//Storyboard Layer 3 (Foreground)
//Storyboard Layer 4 (Overlay)
//Storyboard Sound Samples

[TimingPoints]
110,340.909090909091,4,2,1,60,1,0
4190,340.909090909091,4,2,1,60,1,0
5553,-100,4,2,1,63,0,0
15780,-100,4,2,1,55,0,0
16121,-100,4,2,1,63,0,0
16462,-100,4,2,1,60,0,0
17485,-125,4,2,1,60,0,0
27371,-111.111111111111,4,2,1,60,0,0
38280,-105.263157894737,4,2,1,65,0,0
51065,-105.263157894737,4,2,1,50,0,0
51917,-90.9090909090909,4,2,1,70,0,1
66576,-86.9565217391304,4,2,1,70,0,1
68280,-90.9090909090909,4,2,1,70,0,1
73735,-100,4,2,1,63,0,0
84644,-100,4,2,1,60,0,0

[Colours]
Combo1 : 0,166,166
Combo2 : 255,183,219

[HitObjects]
256,192,110,12,0,3860,0:0:0:0:
128,128,4190,6,0,L|111:76,1,44,8|8,2:0|2:0,0:0:0:0:
106,61,4360,1,0,1:0:0:0:
207,182,4530,6,0,L|260:193,1,44,8|8,2:0|2:0,0:0:0:0:
276,196,4701,1,0,1:0:0:0:
120,223,4871,6,0,L|83:263,1,44,8|0,2:0|1:0,0:0:0:0:
74,276,5042,1,0,1:0:0:0:
224,333,5212,5,8,2:0:0:0:
224,333,5297,1,8,2:0:0:0:
224,333,5383,1,0,1:0:0:0:
339,253,5553,6,0,B|371:270|394:281|394:281|414:320|414:320|450:334|476:353,1,176,6|10,1:2|2:0,0:0:0:0:
324,376,6065,1,0,0:0:0:0:
479,248,6235,2,0,P|457:208|460:162,1,88,2|0,1:2|1:0,0:0:0:0:
352,71,6576,1,10,2:0:0:0:
352,71,6917,6,0,P|301:89|257:110,1,88,2|0,1:2|1:0,0:0:0:0:
130,8,7258,2,0,P|148:59|169:103,1,88,10|2,2:0|3:2,0:0:0:0:
159,97,7513,1,0,3:0:0:0:
156,105,7599,1,2,1:2:0:0:
224,26,7769,1,0,1:0:0:0:
79,154,7940,2,0,P|149:144|204:199,1,132,10|0,2:0|0:0,0:0:0:0:
209,179,8280,6,0,P|194:225|183:280,1,88,2|0,1:2|1:0,0:0:0:0:
39,362,8621,1,10,2:0:0:0:
39,362,8962,5,2,1:2:0:0:
110,309,9133,1,0,1:0:0:0:
193,384,9303,1,10,2:0:0:0:
322,325,9474,6,0,B|369:284|435:295|435:295|461:317|478:341,1,176,2|0,2:0|1:0,0:0:0:0:
320,137,9985,1,10,2:0:0:0:
443,188,10155,2,0,L|429:233,1,44,0|0,3:0|3:0,0:0:0:0:
420,241,10326,2,0,P|399:191|429:116,1,132,2|0,1:2|0:0,0:0:0:0:
506,86,10667,5,14,2:0:0:0:
284,25,10837,1,8,2:0:0:0:
284,25,10922,1,8,2:0:0:0:
284,25,11008,6,0,P|332:45|382:57,1,88,6|0,1:2|1:0,0:0:0:0:
172,113,11349,2,0,B|202:194|202:194|171:232|167:298,1,176,10|2,2:0|1:2,0:0:0:0:
9,229,11860,1,0,1:0:0:0:
88,331,12030,2,0,P|45:342|5:360,1,88,10|0,2:0|0:0,0:0:0:0:
261,282,12371,6,0,P|312:346|404:351,1,176,2|10,1:2|2:0,0:0:0:0:
265,180,12883,1,0,3:0:0:0:
420,214,13053,2,0,P|375:226|328:241,1,88,2|0,1:2|1:0,0:0:0:0:
496,90,13394,2,0,P|451:78|404:63,1,88,10|2,2:0|2:0,0:0:0:0:
189,11,13735,6,0,P|228:64|212:130,1,132,2|0,1:2|0:0,0:0:0:0:
204,137,14076,2,0,P|265:115|308:103,1,88,10|0,2:0|0:0,0:0:0:0:
53,194,14417,2,0,B|87:211|108:216|108:216|130:256|130:256|164:267|203:289,1,176,2|10,1:2|2:0,0:0:0:0:
195,285,14928,1,0,0:0:0:0:
370,358,15099,5,2,1:2:0:0:
345,274,15269,1,0,1:0:0:0:
320,191,15440,2,0,P|334:140|346:102,1,88,10|2,2:0|3:2,0:0:0:0:
344,97,15695,1,0,3:0:0:0:
342,88,15780,1,10,1:2:0:0:
240,119,15951,6,0,L|185:136,1,44,10|8,2:0|2:0,0:0:0:0:
107,32,16121,1,10,2:0:0:0:
136,53,16207,1,8,2:0:0:0:
152,84,16292,1,10,2:0:0:0:
154,118,16377,1,8,2:0:0:0:
141,150,16462,5,6,1:2:0:0:
201,360,16803,1,8,2:0:0:0:
201,360,17144,5,2,1:2:0:0:
233,242,17315,1,0,1:0:0:0:
96,306,17485,2,0,P|157:288|182:281,1,70.4,8|2,2:0|2:0,0:0:0:0:
320,283,17826,6,0,P|349:341|432:365,1,140.8,2|8,1:2|2:0,0:0:0:0:
481,270,18337,2,0,P|498:323|508:351,1,70.4,0|2,1:0|2:0,0:0:0:0:
446,162,18678,2,0,P|429:109|419:81,1,70.4,2|10,1:2|2:0,0:0:0:0:
331,168,19019,1,2,3:2:0:0:
331,168,19104,1,0,3:0:0:0:
331,168,19190,2,0,B|260:142|260:142|227:148|186:152,1,140.8,2|10,1:2|2:0,0:0:0:0:
195,151,19871,5,0,1:0:0:0:
227,33,20042,1,0,1:0:0:0:
81,62,20212,2,0,P|142:80|167:87,1,70.4,10|2,2:0|1:2,0:0:0:0:
84,182,20553,6,0,B|99:261|99:261|135:297|170:284,1,140.8,0|8,1:0|2:0,0:0:0:0:
151,287,21065,1,0,1:0:0:0:
24,370,21235,2,0,P|64:357|101:349,1,70.4,2|2,2:0|1:2,0:0:0:0:
176,209,21576,2,0,P|216:222|253:230,1,70.4,10|2,2:0|3:2,0:0:0:0:
248,233,21832,1,0,3:0:0:0:
252,238,21917,5,2,1:2:0:0:
458,166,22258,1,8,2:0:0:0:
458,166,22599,5,2,1:2:0:0:
292,114,22769,1,0,1:0:0:0:
350,183,22940,2,0,P|332:244|325:269,1,70.4,8|2,2:0|2:0,0:0:0:0:
217,153,23280,6,0,P|234:90|186:17,1,140.8,2|8,1:2|2:0,0:0:0:0:
65,43,23792,2,0,P|118:60|146:70,1,70.4,2|2,1:2|2:0,0:0:0:0:
41,124,24133,2,0,P|74:134|107:145,1,70.4,0|10,1:0|2:0,0:0:0:0:
239,133,24474,1,0,3:0:0:0:
239,133,24559,1,0,3:0:0:0:
239,133,24644,2,0,B|208:177|208:221|208:221|222:243|231:278,1,140.8,2|10,1:2|2:0,0:0:0:0:
226,263,25326,5,0,1:0:0:0:
79,306,25496,2,0,L|153:323,2,70.4,2|10|2,1:2|2:0|2:0,0:0:0:0:
291,371,26008,1,0,1:0:0:0:
291,371,26349,5,8,2:0:0:0:
333,238,26519,2,0,L|354:319,1,70.4,2|0,1:2|0:0,0:0:0:0:
415,218,26860,2,0,L|436:299,1,70.4,2|10,1:2|2:0,0:0:0:0:
246,221,27201,1,0,3:0:0:0:
244,214,27286,1,0,3:0:0:0:
241,207,27371,6,0,P|263:129|230:53,1,158.4,6|10,1:2|2:0,0:0:0:0:
98,81,27883,2,0,P|137:93|177:105,1,79.2000000000001,2|0,2:0|1:0,0:0:0:0:
308,31,28224,1,2,1:2:0:0:
308,31,28394,2,0,P|347:19|387:7,1,79.2000000000001,8|2,2:0|2:0,0:0:0:0:
458,76,28735,6,0,B|436:136|429:169|429:169|452:200|464:221,1,158.4,0|8,1:0|2:0,0:0:0:0:
408,314,29246,2,0,P|446:301|488:295,1,79.2000000000001,0|2,1:0|2:0,0:0:0:0:
310,230,29587,2,0,P|324:193|331:154,1,79.2000000000001,2|10,1:2|2:0,0:0:0:0:
300,339,29928,1,2,3:2:0:0:
300,339,30013,1,0,3:0:0:0:
300,339,30099,6,0,B|227:325|227:325|180:355|136:357,1,158.4,2|8,1:2|2:0,0:0:0:0:
63,381,30610,2,0,P|110:333|98:242,1,158.4,2|0,2:0|1:0,0:0:0:0:
0,149,31121,2,0,P|36:164|74:172,1,79.2000000000001,10|0,2:0|0:0,0:0:0:0:
192,125,31462,1,0,1:0:0:0:
192,125,31803,5,8,2:0:0:0:
284,28,31974,2,0,P|283:72|307:104,1,79.2000000000001,0|2,1:0|2:0,0:0:0:0:
97,64,32315,2,0,P|128:33|134:-6,1,79.2000000000001,2|10,1:2|2:0,0:0:0:0:
192,125,32655,1,2,3:2:0:0:
192,125,32741,1,0,3:0:0:0:
192,125,32826,6,0,B|190:172|163:209|163:209|179:262|187:293,1,158.4,2|10,1:2|2:0,0:0:0:0:
127,358,33337,2,0,P|165:316|263:327,1,158.4,2|0,2:0|1:0,0:0:0:0:
370,370,33849,2,0,P|354:317|342:284,1,79.2000000000001,10|2,2:0|2:0,0:0:0:0:
475,268,34190,6,0,P|442:224|476:109,1,158.4,0|8,1:0|2:0,0:0:0:0:
457,127,34701,1,2,1:2:0:0:
322,168,34871,2,0,P|363:184|402:193,1,79.2000000000001,2|0,2:0|1:0,0:0:0:0:
191,197,35212,2,0,P|156:224|129:253,1,79.2000000000001,10|0,2:0|3:0,0:0:0:0:
222,13,35553,6,0,P|232:51|238:90,1,79.2000000000001,2|0,1:2|1:0,0:0:0:0:
294,251,35894,2,0,P|291:180|326:96,1,158.4,8|0,2:0|1:2,0:0:0:0:
323,100,36405,1,0,1:0:0:0:
196,157,36576,2,0,P|158:135|138:97,1,79.2000000000001,10|2,2:0|2:0,0:0:0:0:
49,352,36917,6,0,P|83:312|153:306,1,118.8,2|0,1:2|0:0,0:0:0:0:
163,310,37258,2,0,P|149:261|141:225,1,79.2000000000001,8|2,2:0|3:2,0:0:0:0:
278,315,37599,5,10,2:0:0:0:
297,334,37684,1,8,2:0:0:0:
322,344,37769,1,10,2:0:0:0:
349,345,37854,1,8,2:0:0:0:
375,337,37940,1,8,3:0:0:0:
438,121,38110,6,0,L|451:169,1,39.6,2|4,3:2|3:0,0:0:0:0:
512,200,38280,6,0,B|441:178|441:178|409:210|354:216,1,167.2,6|8,1:2|2:0,0:0:0:0:
387,52,38792,1,0,0:0:0:0:
244,86,38962,2,0,P|293:98|324:107,1,83.5999999999999,0|0,1:0|1:0,0:0:0:0:
140,116,39303,2,0,P|141:166|192:236,1,125.4,10|0,2:0|0:0,0:0:0:0:
207,245,39644,6,0,P|137:240|91:330,1,167.2,2|8,1:2|2:0,0:0:0:0:
285,375,40155,2,0,P|291:326|302:276,1,83.5999999999999,2|0,1:2|0:0,0:0:0:0:
208,332,40496,1,2,1:2:0:0:
376,276,40667,2,0,P|370:227|359:177,1,83.5999999999999,8|2,2:0|3:2,0:0:0:0:
369,182,40922,1,0,3:0:0:0:
374,170,41008,6,0,B|326:152|279:144|279:144|247:112|237:71,2,167.2,0|8|0,1:0|2:0|1:0,0:0:0:0:
503,82,41860,1,0,1:0:0:0:
435,18,42030,2,0,P|409:58|419:113,1,83.5999999999999,10|2,2:0|2:0,0:0:0:0:
506,224,42371,6,0,P|423:240|343:282,1,167.2,2|8,1:2|2:0,0:0:0:0:
218,349,42883,2,0,P|250:314|261:272,1,83.5999999999999,2|0,1:2|0:0,0:0:0:0:
93,218,43224,1,2,1:2:0:0:
164,138,43394,2,0,P|177:189|194:238,1,83.5999999999999,8|2,2:0|3:2,0:0:0:0:
183,230,43650,1,0,3:0:0:0:
178,241,43735,6,0,B|163:161|223:178|202:68,2,167.2,0|8|0,1:0|2:0|1:0,0:0:0:0:
349,156,44587,1,0,1:0:0:0:
268,267,44758,2,0,P|309:272|343:302,1,83.5999999999999,10|0,2:0|0:0,0:0:0:0:
321,378,45099,5,2,1:2:0:0:
458,281,45269,2,0,P|439:231|427:183,1,83.5999999999999,2|8,1:2|2:0,0:0:0:0:
503,66,45610,1,2,1:2:0:0:
503,66,45951,5,2,1:2:0:0:
338,71,46121,2,0,P|395:89|430:103,1,83.5999999999999,8|2,2:0|3:2,0:0:0:0:
426,105,46377,1,0,3:0:0:0:
432,115,46462,6,0,P|346:119|305:191,2,167.2,0|8|0,1:0|2:0|1:0,0:0:0:0:
361,246,47315,1,0,1:0:0:0:
458,281,47485,2,0,P|439:231|427:183,1,83.5999999999999,10|0,2:0|0:0,0:0:0:0:
260,89,47826,6,0,P|306:113|345:125,1,83.5999999999999,2|0,1:2|1:0,0:0:0:0:
125,261,48167,2,0,B|154:242|178:236|178:236|203:196|203:196|241:189|272:175,1,167.2,8|2,2:0|2:0,0:0:0:0:
160,111,48678,1,0,1:0:0:0:
30,270,48849,2,0,P|48:211|53:176,1,83.5999999999999,12|8,2:0|2:0,0:0:0:0:
45,178,49104,1,8,2:0:0:0:
38,167,49190,5,14,2:0:0:0:
197,222,49360,1,8,2:0:0:0:
297,92,49530,5,8,3:0:0:0:
308,96,49616,1,4,3:0:0:0:
319,100,49701,1,10,2:0:0:0:
181,0,49871,2,0,P|198:48|208:93,1,83.5999999999999,10|8,2:0|3:0,0:0:0:0:
202,91,50127,1,4,3:0:0:0:
195,101,50212,6,0,L|184:145,1,41.7999999999999,10|4,2:0|3:0,0:0:0:0:
306,302,50383,2,0,L|317:258,1,41.7999999999999,10|4,2:0|3:0,0:0:0:0:
265,179,50553,5,8,3:0:0:0:
261,191,50638,1,4,3:0:0:0:
257,202,50724,1,10,2:0:0:0:
484,112,50894,5,10,2:0:0:0:
43,257,51917,6,0,B|97:212|156:212|156:212|181:238|214:254,1,193.6,6|8,1:2|2:0,0:0:0:0:
326,134,52428,1,2,2:0:0:0:
195,367,52599,2,0,P|244:342|292:326,1,96.8,2|0,1:2|1:0,0:0:0:0:
496,244,52940,2,0,P|447:219|399:203,1,96.8,8|2,2:0|2:0,0:0:0:0:
398,208,53195,1,0,0:0:0:0:
389,212,53280,1,2,1:2:0:0:
461,110,53451,6,0,P|444:62|432:13,1,96.8,0|8,1:0|2:0,0:0:0:0:
289,223,53792,2,0,P|305:177|317:130,1,96.8,2|0,3:2|1:2,0:0:0:0:
57,210,54133,1,0,1:0:0:0:
234,92,54303,1,8,2:0:0:0:
105,27,54474,1,2,2:0:0:0:
105,27,54559,1,0,0:0:0:0:
105,27,54644,6,0,B|79:95|128:157|128:157|192:191,1,193.6,2|8,1:2|2:0,0:0:0:0:
52,343,55155,2,0,P|102:324|145:300,1,96.8,0|0,0:0|1:0,0:0:0:0:
325,363,55496,1,0,1:0:0:0:
260,162,55667,2,0,P|286:205|334:217,1,96.8,8|2,2:0|2:0,0:0:0:0:
477,145,56008,5,2,1:2:0:0:
439,301,56178,1,2,1:2:0:0:
477,145,56349,1,8,2:0:0:0:
411,78,56519,6,0,L|350:93,2,48.4,2|0|0,3:2|3:0|1:0,0:0:0:0:
458,224,56860,1,0,1:0:0:0:
237,121,57030,1,14,2:0:0:0:
378,231,57201,5,10,2:0:0:0:
376,244,57286,1,8,2:0:0:0:
367,250,57371,2,0,P|347:201|405:82,1,193.6,6|10,1:2|2:0,0:0:0:0:
269,262,57883,2,0,P|230:299|188:307,1,96.8,2|0,2:0|1:0,0:0:0:0:
63,137,58224,2,0,P|85:188|101:243,1,96.8,2|8,1:2|2:0,0:0:0:0:
19,309,58565,1,2,3:2:0:0:
173,91,58735,6,0,B|286:119|216:159|341:184,1,193.6,2|8,1:2|2:0,0:0:0:0:
487,262,59246,2,0,P|465:211|449:156,1,96.8,2|0,2:0|1:0,0:0:0:0:
343,264,59587,1,2,1:2:0:0:
337,271,59672,1,0,0:0:0:0:
331,279,59758,2,0,P|353:330|369:385,1,96.8,8|2,2:0|2:0,0:0:0:0:
238,200,60099,6,0,B|253:169|273:150|273:150|287:81|235:23,1,193.6,6|8,1:2|2:0,0:0:0:0:
59,58,60610,2,0,P|118:78|162:102,1,96.8,2|0,2:0|1:0,0:0:0:0:
6,262,60951,1,2,1:2:0:0:
144,277,61121,2,0,P|127:230|113:184,1,96.8000029541017,8|2,2:0|2:0,0:0:0:0:
119,174,61377,1,0,0:0:0:0:
125,166,61462,5,8,2:0:0:0:
70,321,61633,1,0,1:0:0:0:
223,141,61803,5,8,2:0:0:0:
176,374,61974,1,0,1:0:0:0:
378,273,62144,6,0,P|333:286|270:313,1,96.8,10|10,2:0|2:0,0:0:0:0:
279,310,62400,1,8,2:0:0:0:
272,316,62485,2,0,L|318:330,1,48.4000014770508,10|8,2:0|2:0,0:0:0:0:
437,381,62655,2,0,L|451:334,1,48.4000014770508,4|4,3:0|3:0,0:0:0:0:
334,192,62826,6,0,P|314:142|385:27,1,193.6,6|8,1:2|2:0,0:0:0:0:
244,37,63337,1,2,2:0:0:0:
493,158,63508,2,0,P|444:133|396:117,1,96.8,2|0,1:2|1:0,0:0:0:0:
232,315,63849,2,0,P|271:280|327:283,1,96.8,8|2,2:0|2:0,0:0:0:0:
320,285,64104,1,0,0:0:0:0:
326,291,64190,1,0,1:2:0:0:
111,219,64360,6,0,B|90:192|90:192|81:160|107:126,1,96.8000029541017,0|8,1:0|2:0,0:0:0:0:
308,69,64701,2,0,P|255:56|209:33,1,96.8,2|0,3:2|1:2,0:0:0:0:
349,149,65042,1,0,1:0:0:0:
233,372,65212,2,0,P|222:326|205:271,1,96.8,12|8,2:0|2:0,0:0:0:0:
212,270,65468,1,8,2:0:0:0:
216,261,65553,5,6,1:2:0:0:
18,329,65724,1,0,0:0:0:0:
177,167,65894,5,10,2:0:0:0:
409,293,66065,1,0,1:0:0:0:
320,345,66235,5,8,3:0:0:0:
320,345,66405,1,0,1:0:0:0:
500,129,66576,6,0,B|411:159|411:159|387:141|345:130,1,151.8,4|0,2:0|0:0,0:0:0:0:
282,93,66917,6,0,P|309:78|331:59,1,50.6,2|0,1:2|0:0,0:0:0:0:
407,61,67087,2,0,P|422:34|432:7,1,50.6,2|0,1:2|0:0,0:0:0:0:
288,179,67258,5,10,2:0:0:0:
263,182,67343,1,0,0:0:0:0:
238,186,67428,1,2,2:0:0:0:
213,190,67513,1,0,0:0:0:0:
187,193,67599,2,0,L|123:172,3,50.6,2|0|2|0,1:2|0:0|1:2|0:0,0:0:0:0:
113,44,67940,5,14,2:0:0:0:
106,57,68025,1,0,0:0:0:0:
107,72,68110,1,10,2:0:0:0:
114,84,68195,1,8,2:0:0:0:
126,91,68280,6,0,B|120:163|85:202|85:202|43:222|26:247,1,193.6,6|10,1:2|2:0,0:0:0:0:
200,369,68792,2,0,P|169:327|173:268,1,96.8,2|0,2:0|1:0,0:0:0:0:
378,226,69133,1,2,1:2:0:0:
225,114,69303,2,0,P|276:139|319:151,1,96.8,8|2,2:0|2:0,0:0:0:0:
495,256,69644,6,0,P|414:250|355:339,2,193.6,0|8|0,1:0|2:0|1:0,0:0:0:0:
277,221,70496,1,0,1:0:0:0:
454,126,70667,2,0,P|427:78|431:24,1,96.8,10|2,2:0|2:0,0:0:0:0:
240,109,71008,6,0,B|174:101|114:64|114:64|95:31|69:0,1,193.6,6|10,1:2|2:0,0:0:0:0:
18,198,71519,2,0,P|83:173|115:152,1,96.8,2|0,2:0|1:0,0:0:0:0:
261,320,71860,1,2,1:2:0:0:
118,373,72030,2,0,B|97:346|97:346|88:314|114:280,1,96.8000029541017,8|0,2:0|0:0,0:0:0:0:
316,190,72371,5,14,2:0:0:0:
159,89,72542,1,0,1:0:0:0:
420,2,72712,5,8,2:0:0:0:
273,111,72883,1,0,1:0:0:0:
466,258,73053,6,0,P|453:211|435:166,1,96.8,10|8,2:0|2:0,0:0:0:0:
442,153,73309,1,8,2:0:0:0:
451,141,73394,1,8,2:0:0:0:
331,302,73565,1,4,3:0:0:0:
330,316,73650,1,4,3:0:0:0:
319,325,73735,6,0,P|252:266|152:297,1,176,6|10,1:2|2:0,0:0:0:0:
228,370,74246,1,0,0:0:0:0:
78,344,74417,2,0,P|65:295|50:258,1,88,2|0,1:2|1:0,0:0:0:0:
148,118,74758,1,10,2:0:0:0:
148,118,75099,5,2,1:2:0:0:
172,207,75269,1,0,1:0:0:0:
74,182,75440,1,10,2:0:0:0:
251,133,75610,2,0,P|324:181|423:172,1,176,2|0,3:2|1:0,0:0:0:0:
471,316,76121,2,0,P|490:257|500:219,1,88,10|0,2:0|0:0,0:0:0:0:
373,307,76462,6,0,P|334:337|294:346,1,88,2|0,1:2|1:0,0:0:0:0:
172,267,76803,1,10,2:0:0:0:
172,267,77144,5,2,1:2:0:0:
75,340,77315,1,0,1:0:0:0:
189,380,77485,1,10,2:0:0:0:
85,251,77655,6,0,B|66:185|46:143|46:143|77:109|87:79,1,176,2|0,2:0|1:0,0:0:0:0:
342,128,78167,2,0,P|287:115|248:95,1,88,10|0,2:0|3:0,0:0:0:0:
148,3,78508,2,0,P|162:59|180:135,1,132,2|0,1:2|0:0,0:0:0:0:
126,196,78849,5,10,2:0:0:0:
249,336,79019,1,8,2:0:0:0:
249,336,79104,1,8,2:0:0:0:
249,336,79190,6,0,P|229:288|217:238,1,88,6|0,1:2|1:0,0:0:0:0:
352,167,79530,2,0,B|453:194|391:230|505:264,1,176,10|2,2:0|1:2,0:0:0:0:
380,321,80042,1,0,1:0:0:0:
512,152,80212,2,0,P|464:172|414:184,1,88,10|0,2:0|0:0,0:0:0:0:
267,18,80553,6,0,P|320:78|413:68,1,176,2|10,1:2|2:0,0:0:0:0:
247,145,81065,1,0,3:0:0:0:
355,260,81235,2,0,P|343:215|328:168,1,88,2|0,1:2|1:0,0:0:0:0:
192,366,81576,2,0,P|237:354|284:339,1,88,10|2,2:0|2:0,0:0:0:0:
17,143,81917,6,0,B|41:158|64:165|64:165|80:191|80:191|112:205|131:217,1,132,6|0,1:2|0:0,0:0:0:0:
144,205,82258,1,10,2:0:0:0:
59,328,82428,1,0,0:0:0:0:
204,272,82599,2,0,P|177:230|212:111,1,176,2|10,1:2|2:0,0:0:0:0:
206,115,83110,1,0,0:0:0:0:
336,34,83280,5,2,1:2:0:0:
310,126,83451,1,0,1:0:0:0:
336,34,83621,2,0,P|387:20|425:8,1,88,14|2,2:0|3:2,0:0:0:0:
431,17,83877,1,0,3:0:0:0:
442,24,83962,2,0,L|497:41,1,44,10|8,1:2|2:0,0:0:0:0:
426,120,84132,5,10,2:0:0:0:
400,144,84217,1,8,2:0:0:0:
388,177,84303,1,10,2:0:0:0:
391,211,84388,1,8,2:0:0:0:
408,241,84473,1,10,2:0:0:0:
442,234,84559,1,8,2:0:0:0:
468,210,84644,1,6,1:2:0:0:
256,192,84729,12,0,88394,0:0:0:0:
115,210,88735,5,8,2:0:0:0:
215,297,88905,1,8,2:0:0:0:
210,279,88991,1,0,1:0:0:0:
206,261,89076,1,4,3:0:0:0:
115,345,89246,6,0,L|54:324,1,44,2|0,1:3|0:0,0:0:0:0:
249,173,89587,2,0,L|188:152,1,44,2|0,1:3|0:0,0:0:0:0:
